  0
SECTION
  2
HEADER
  9
$ACADVER
  1
AC1015
  9
$ACADMAINTVER
 70
    20
  9
$DWGCODEPAGE
  3
ANSI_932
  9
$INSBASE
 10
0.0
 20
0.0
 30
0.0
  9
$EXTMIN
 10
0.000000550853656
 20
0.0000000500900796
 30
0.0
  9
$EXTMAX
 10
210.0000005508536
 20
297.0000000500901
 30
0.0
  9
$LIMMIN
 10
0.0
 20
0.0
  9
$LIMMAX
 10
210.0
 20
297.0
  9
$ORTHOMODE
 70
     0
  9
$REGENMODE
 70
     1
  9
$FILLMODE
 70
     1
  9
$QTEXTMODE
 70
     0
  9
$MIRRTEXT
 70
     0
  9
$LTSCALE
 40
1.0
  9
$ATTMODE
 70
     1
  9
$TEXTSIZE
 40
2.5
  9
$TRACEWID
 40
1.0
  9
$TEXTSTYLE
  7
STANDARD
  9
$CLAYER
  8
外形線
  9
$CELTYPE
  6
ByLayer
  9
$CECOLOR
 62
   256
  9
$CELTSCALE
 40
1.0
  9
$DISPSILH
 70
     0
  9
$DIMSCALE
 40
1.0
  9
$DIMASZ
 40
2.5
  9
$DIMEXO
 40
1.0
  9
$DIMDLI
 40
10.0
  9
$DIMRND
 40
0.0
  9
$DIMDLE
 40
0.0
  9
$DIMEXE
 40
1.0
  9
$DIMTP
 40
0.1
  9
$DIMTM
 40
0.1
  9
$DIMTXT
 40
3.0
  9
$DIMCEN
 40
0.0
  9
$DIMTSZ
 40
0.0
  9
$DIMTOL
 70
     0
  9
$DIMLIM
 70
     0
  9
$DIMTIH
 70
     0
  9
$DIMTOH
 70
     0
  9
$DIMSE1
 70
     0
  9
$DIMSE2
 70
     0
  9
$DIMTAD
 70
     1
  9
$DIMZIN
 70
     8
  9
$DIMBLK
  1

  9
$DIMASO
 70
     1
  9
$DIMSHO
 70
     1
  9
$DIMPOST
  1

  9
$DIMAPOST
  1
"
  9
$DIMALT
 70
     0
  9
$DIMALTD
 70
     2
  9
$DIMALTF
 40
0.0393701
  9
$DIMLFAC
 40
1.0
  9
$DIMTOFL
 70
     1
  9
$DIMTVP
 40
0.0
  9
$DIMTIX
 70
     0
  9
$DIMSOXD
 70
     0
  9
$DIMSAH
 70
     0
  9
$DIMBLK1
  1

  9
$DIMBLK2
  1

  9
$DIMSTYLE
  2
AM_ISO
  9
$DIMCLRD
 70
   256
  9
$DIMCLRE
 70
   256
  9
$DIMCLRT
 70
     2
  9
$DIMTFAC
 40
0.71
  9
$DIMGAP
 40
1.0
  9
$DIMJUST
 70
     0
  9
$DIMSD1
 70
     0
  9
$DIMSD2
 70
     0
  9
$DIMTOLJ
 70
     0
  9
$DIMTZIN
 70
     8
  9
$DIMALTZ
 70
     0
  9
$DIMALTTZ
 70
     0
  9
$DIMUPT
 70
     0
  9
$DIMDEC
 70
     2
  9
$DIMTDEC
 70
     2
  9
$DIMALTU
 70
     2
  9
$DIMALTTD
 70
     2
  9
$DIMTXSTY
  7
STANDARD
  9
$DIMAUNIT
 70
     0
  9
$DIMADEC
 70
     0
  9
$DIMALTRND
 40
0.0
  9
$DIMAZIN
 70
     2
  9
$DIMDSEP
 70
    46
  9
$DIMATFIT
 70
     3
  9
$DIMFRAC
 70
     0
  9
$DIMLDRBLK
  1

  9
$DIMLUNIT
 70
     2
  9
$DIMLWD
 70
    -1
  9
$DIMLWE
 70
    -1
  9
$DIMTMOVE
 70
     0
  9
$LUNITS
 70
     2
  9
$LUPREC
 70
     2
  9
$SKETCHINC
 40
1.0
  9
$FILLETRAD
 40
2.5
  9
$AUNITS
 70
     0
  9
$AUPREC
 70
     0
  9
$MENU
  1
.
  9
$ELEVATION
 40
0.0
  9
$PELEVATION
 40
0.0
  9
$THICKNESS
 40
0.0
  9
$LIMCHECK
 70
     0
  9
$CHAMFERA
 40
2.5
  9
$CHAMFERB
 40
2.5
  9
$CHAMFERC
 40
0.0
  9
$CHAMFERD
 40
0.0
  9
$SKPOLY
 70
     0
  9
$TDCREATE
 40
2454313.581725069
  9
$TDUCREATE
 40
2454313.206725069
  9
$TDUPDATE
 40
2455357.703653426
  9
$TDUUPDATE
 40
2455357.328653426
  9
$TDINDWG
 40
0.0949562153
  9
$TDUSRTIMER
 40
0.0949558565
  9
$USRTIMER
 70
     1
  9
$ANGBASE
 50
0.0
  9
$ANGDIR
 70
     0
  9
$PDMODE
 70
     0
  9
$PDSIZE
 40
0.0
  9
$PLINEWID
 40
0.0
  9
$SPLFRAME
 70
     0
  9
$SPLINETYPE
 70
     6
  9
$SPLINESEGS
 70
     8
  9
$HANDSEED
  5
A4B
  9
$SURFTAB1
 70
     6
  9
$SURFTAB2
 70
     6
  9
$SURFTYPE
 70
     6
  9
$SURFU
 70
     6
  9
$SURFV
 70
     6
  9
$UCSBASE
  2

  9
$UCSNAME
  2

  9
$UCSORG
 10
0.0
 20
0.0
 30
0.0
  9
$UCSXDIR
 10
1.0
 20
0.0
 30
0.0
  9
$UCSYDIR
 10
0.0
 20
1.0
 30
0.0
  9
$UCSORTHOREF
  2

  9
$UCSORTHOVIEW
 70
     0
  9
$UCSORGTOP
 10
0.0
 20
0.0
 30
0.0
  9
$UCSORGBOTTOM
 10
0.0
 20
0.0
 30
0.0
  9
$UCSORGLEFT
 10
0.0
 20
0.0
 30
0.0
  9
$UCSORGRIGHT
 10
0.0
 20
0.0
 30
0.0
  9
$UCSORGFRONT
 10
0.0
 20
0.0
 30
0.0
  9
$UCSORGBACK
 10
0.0
 20
0.0
 30
0.0
  9
$PUCSBASE
  2

  9
$PUCSNAME
  2

  9
$PUCSORG
 10
0.0
 20
0.0
 30
0.0
  9
$PUCSXDIR
 10
1.0
 20
0.0
 30
0.0
  9
$PUCSYDIR
 10
0.0
 20
1.0
 30
0.0
  9
$PUCSORTHOREF
  2

  9
$PUCSORTHOVIEW
 70
     0
  9
$PUCSORGTOP
 10
0.0
 20
0.0
 30
0.0
  9
$PUCSORGBOTTOM
 10
0.0
 20
0.0
 30
0.0
  9
$PUCSORGLEFT
 10
0.0
 20
0.0
 30
0.0
  9
$PUCSORGRIGHT
 10
0.0
 20
0.0
 30
0.0
  9
$PUCSORGFRONT
 10
0.0
 20
0.0
 30
0.0
  9
$PUCSORGBACK
 10
0.0
 20
0.0
 30
0.0
  9
$USERI1
 70
     0
  9
$USERI2
 70
     0
  9
$USERI3
 70
     0
  9
$USERI4
 70
     0
  9
$USERI5
 70
     0
  9
$USERR1
 40
0.0
  9
$USERR2
 40
0.0
  9
$USERR3
 40
0.0
  9
$USERR4
 40
0.0
  9
$USERR5
 40
0.0
  9
$WORLDVIEW
 70
     1
  9
$SHADEDGE
 70
     3
  9
$SHADEDIF
 70
    70
  9
$TILEMODE
 70
     1
  9
$MAXACTVP
 70
    64
  9
$PINSBASE
 10
0.0
 20
0.0
 30
0.0
  9
$PLIMCHECK
 70
     0
  9
$PEXTMIN
 10
1.000000000000000E+20
 20
1.000000000000000E+20
 30
1.000000000000000E+20
  9
$PEXTMAX
 10
-1.000000000000000E+20
 20
-1.000000000000000E+20
 30
-1.000000000000000E+20
  9
$PLIMMIN
 10
0.0
 20
0.0
  9
$PLIMMAX
 10
420.0
 20
297.0
  9
$UNITMODE
 70
     0
  9
$VISRETAIN
 70
     1
  9
$PLINEGEN
 70
     0
  9
$PSLTSCALE
 70
     1
  9
$TREEDEPTH
 70
  3020
  9
$CMLSTYLE
  2
Standard
  9
$CMLJUST
 70
     0
  9
$CMLSCALE
 40
20.0
  9
$PROXYGRAPHICS
 70
     1
  9
$MEASUREMENT
 70
     1
  9
$CELWEIGHT
370
    -1
  9
$ENDCAPS
280
     0
  9
$JOINSTYLE
280
     0
  9
$LWDISPLAY
290
     0
  9
$INSUNITS
 70
     4
  9
$HYPERLINKBASE
  1

  9
$STYLESHEET
  1
MONOCHROME.CTB
  9
$XEDIT
290
     1
  9
$CEPSNTYPE
380
     0
  9
$PSTYLEMODE
290
     1
  9
$FINGERPRINTGUID
  2
{AD501973-C1A7-47D2-B6FF-3A238122188F}
  9
$VERSIONGUID
  2
{2507FE5B-1052-4967-9F06-CCB7EF7895B3}
  9
$EXTNAMES
290
     1
  9
$PSVPSCALE
 40
0.0
  9
$OLESTARTUP
290
     0
  0
ENDSEC
  0
SECTION
  2
CLASSES
  0
CLASS
  1
ACDBDICTIONARYWDFLT
  2
AcDbDictionaryWithDefault
  3
ObjectDBX Classes
 90
        0
280
     0
281
     0
  0
CLASS
  1
MATERIAL
  2
AcDbMaterial
  3
ObjectDBX Classes
 90
     1153
280
     0
281
     0
  0
CLASS
  1
VISUALSTYLE
  2
AcDbVisualStyle
  3
ObjectDBX Classes
 90
     4095
280
     0
281
     0
  0
CLASS
  1
SCALE
  2
AcDbScale
  3
ObjectDBX Classes
 90
     1153
280
     0
281
     0
  0
CLASS
  1
TABLESTYLE
  2
AcDbTableStyle
  3
ObjectDBX Classes
 90
     4095
280
     0
281
     0
  0
CLASS
  1
MLEADERSTYLE
  2
AcDbMLeaderStyle
  3
ACDB_MLEADERSTYLE_CLASS
 90
     4095
280
     0
281
     0
  0
CLASS
  1
AMGSETTINGSOBJ
  2
AmgSettingsObj
  3
"AcadM|Product Description: AutoCAD Mechanical|Company: Autodesk, Inc."
 90
     1024
280
     0
281
     0
  0
CLASS
  1
ACME_DOCUMENT
  2
AcMeDbDoc
  3
AcMeServices
 90
     1024
280
     0
281
     0
  0
CLASS
  1
ACMESCOPE
  2
AcMeScope
  3
AcMeServices
 90
     1024
280
     0
281
     0
  0
CLASS
  1
ACMECOMMANDHISTORY
  2
AcMeCommandHistory
  3
AcMeServices
 90
     1024
280
     0
281
     0
  0
CLASS
  1
ACIMSYSVARMAN
  2
AcImSysVarManager
  3
AcMeServices
 90
     1024
280
     0
281
     0
  0
CLASS
  1
ACIMINTSYSVAR
  2
AcImIntSysVar
  3
AcMeServices
 90
     1024
280
     0
281
     0
  0
CLASS
  1
ACMEDRAWINGMAN
  2
AcMeDrawingMan
  3
AcMeServices
 90
     1024
280
     0
281
     0
  0
CLASS
  1
ACMEVIEW
  2
AcMeView
  3
AcMeServices
 90
     1024
280
     0
281
     0
  0
CLASS
  1
ACDBENTITYCACHE
  2
AcMeEntityCache
  3
AcMeServices
 90
     1024
280
     0
281
     0
  0
CLASS
  1
GSMANAGER
  2
AcMeGSManager
  3
AcMeServices
 90
     1024
280
     0
281
     0
  0
CLASS
  1
AMDTINTERNALREACTOR
  2
AmdtInternalReactor
  3
AcMeServices
 90
     1024
280
     0
281
     0
  0
CLASS
  1
ACMESTATEMGR
  2
AcMeStateMgr
  3
AcMeServices
 90
     1024
280
     0
281
     0
  0
CLASS
  1
ACGREFMASTER
  2
AcGrefMaster
  3
AcAttribServices
 90
     1024
280
     0
281
     0
  0
CLASS
  1
AM_DRAWING_MGR
  2
AcDmDwgMgr
  3
AcMechDwgViewMgmt
 90
     1024
280
     0
281
     0
  0
CLASS
  1
AM_DWG_DOCUMENT
  2
AcDmDwgDocument
  3
AcMechDwgViewMgmt
 90
     1024
280
     0
281
     0
  0
CLASS
  1
AM_DWG_SHEET
  2
AcDmSheet
  3
AcMechDwgViewMgmt
 90
     1024
280
     0
281
     0
  0
CLASS
  1
AM_VIEWDIMPARMAP
  2
AcDmViewDimParMap
  3
AcMechDwgViewMgmt
 90
     1024
280
     0
281
     0
  0
CLASS
  1
ACIMREALSYSVAR
  2
AcImRealSysVar
  3
AcMeServices
 90
     1024
280
     0
281
     0
  0
CLASS
  1
AM_DWGMGR_NAME
  2
AcDmDwgMgrName
  3
AcMechDwgViewMgmt
 90
     1024
280
     0
281
     0
  0
CLASS
  1
ACME_DATABASE
  2
AcMeDbDatabase
  3
AcMeServices
 90
     1024
280
     0
281
     0
  0
CLASS
  1
ACRFINSADJUSTERMGR
  2
AcRfInsAdjusterMgr
  3
AcMeServices
 90
     1024
280
     0
281
     0
  0
CLASS
  1
ACGREFACADMASTER
  2
AcGrefacadMaster
  3
AcGrefServices
 90
     1024
280
     0
281
     0
  0
CLASS
  1
AMDTMENUSTATEMGR
  2
AmdtMenuStateMgr
  3
McadcomServices
 90
     1024
280
     0
281
     0
  0
CLASS
  1
AMDTMCOMMENUSTATE
  2
AmdtMcomMenuState
  3
McadcomServices
 90
     1024
280
     0
281
     0
  0
CLASS
  1
AMIMASTER
  2
AmiMaster
  3
AmiServices
 90
     1024
280
     0
281
     0
  0
CLASS
  1
MAPIAMMOUDLE
  2
MApiAmModule
  3
MApiAmServices
 90
     1024
280
     0
281
     0
  0
CLASS
  1
ACIMSTRSYSVAR
  2
AcImStrSysVar
  3
AcMeServices
 90
     1024
280
     0
281
     0
  0
CLASS
  1
AMDTADMENUSTATE
  2
AmdtAdMenuState
  3
DesignerServices
 90
     1024
280
     0
281
     0
  0
CLASS
  1
ADAPPL
  2
AcAdAppl
  3
DesignerServices
 90
     1024
280
     0
281
     0
  0
CLASS
  1
DEPMGR
  2
AcAdDepMgr
  3
DesignerServices
 90
     1024
280
     0
281
     0
  0
CLASS
  1
PARAMMGR
  2
AcAdParamMgr
  3
DesignerServices
 90
     1024
280
     0
281
     0
  0
CLASS
  1
PARAMSCOPE
  2
AcAdParamScope
  3
DesignerServices
 90
     1024
280
     0
281
     0
  0
CLASS
  1
NAMEDAPPL
  2
AcAdNamedAppl
  3
DesignerServices
 90
     1024
280
     0
281
     0
  0
CLASS
  1
AMDTDMMENUSTATE
  2
AmdtDmMenuState
  3
AcMechDwgViewMgmt
 90
     1024
280
     0
281
     0
  0
CLASS
  1
AMDTAMMENUSTATE
  2
AmdtAmMenuState
  3
DesignerAssemblies
 90
     1024
280
     0
281
     0
  0
CLASS
  1
ACAMPROJECT
  2
AcAmProject
  3
DesignerAssemblies
 90
     1024
280
     0
281
     0
  0
CLASS
  1
ACAMGRCOMPDEF
  2
AcAmGrCompDef
  3
DesignerAssemblies
 90
     1024
280
     0
281
     0
  0
CLASS
  1
ACCMCONTEXT
  2
AcCmContext
  3
DesignerAssemblies
 90
     1024
280
     0
281
     0
  0
CLASS
  1
ACAMCOMPDEF
  2
AcAmCompDef
  3
DesignerAssemblies
 90
     1024
280
     0
281
     0
  0
CLASS
  1
ACAMCOMPDEFMGR
  2
AcAmCompDefMgr
  3
DesignerAssemblies
 90
     1024
280
     0
281
     0
  0
CLASS
  1
AMCONTEXTMGR
  2
AcAmContextMgr
  3
DesignerAssemblies
 90
     1024
280
     0
281
     0
  0
CLASS
  1
ACAMCONTEXTMODELER
  2
AcAmContextModeler
  3
DesignerAssemblies
 90
     1024
280
     0
281
     0
  0
CLASS
  1
ACMDATADICTIONARY
  2
AcmDataDictionary
  3
"AcmSymBB|Product Description: AutoCAD Mechanical|Company: Autodesk, Inc."
 90
     1024
280
     0
281
     0
  0
CLASS
  1
ACMSTANDARDISO
  2
AcmStandardISO
  3
"Amdt_StdImp|Product Description: AutoCAD Mechanical|Company: Autodesk, Inc."
 90
     1024
280
     0
281
     0
  0
CLASS
  1
AMGOBJPROPCFG
  2
AmgObjPropCfg
  3
"AmgLay|Product Description: AutoCAD Mechanical|Company: Autodesk, Inc."
 90
     1025
280
     0
281
     0
  0
CLASS
  1
AMDTEDGESTANDARDISO13715
  2
AmdtEdgeStdISO13715
  3
"Amdt_StdImp|Product Description: AutoCAD Mechanical|Company: Autodesk, Inc."
 90
     1024
280
     0
281
     0
  0
CLASS
  1
ACMSURFSTANDARDISO2002
  2
AcmSurfTextStdISO2002
  3
"Amdt_StdImp|Product Description: AutoCAD Mechanical|Company: Autodesk, Inc."
 90
     1024
280
     0
281
     0
  0
CLASS
  1
ACMFCFSTANDARDISO
  2
AcmFCFStdISO
  3
"Amdt_StdImp|Product Description: AutoCAD Mechanical|Company: Autodesk, Inc."
 90
     1024
280
     0
281
     0
  0
CLASS
  1
ACMWELDSTANDARDISO
  2
AcmWeldingStdISO
  3
"Amdt_StdImp|Product Description: AutoCAD Mechanical|Company: Autodesk, Inc."
 90
     1024
280
     0
281
     0
  0
CLASS
  1
ACMIDSTANDARDISO
  2
AcmIdStdISO
  3
"Amdt_StdImp|Product Description: AutoCAD Mechanical|Company: Autodesk, Inc."
 90
     1024
280
     0
281
     0
  0
CLASS
  1
ACMDATUMSTANDARDISO
  2
AcmDatumStdISO
  3
"Amdt_StdImp|Product Description: AutoCAD Mechanical|Company: Autodesk, Inc."
 90
     1024
280
     0
281
     0
  0
CLASS
  1
ACMBOMSTANDARDISO
  2
AcmBOMStdISO
  3
"Amdt_StdImp|Product Description: AutoCAD Mechanical|Company: Autodesk, Inc."
 90
     1024
280
     0
281
     0
  0
CLASS
  1
ACMDETAILSTANDARDISO
  2
AmdtDetailSymStdISO
  3
"Amdt_StdImp|Product Description: AutoCAD Mechanical|Company: Autodesk, Inc."
 90
     1024
280
     0
281
     0
  0
CLASS
  1
ACMSECTIONSTANDARDISO2001
  2
AmdtSectionSymStdISO2001
  3
"Amdt_StdImp|Product Description: AutoCAD Mechanical|Company: Autodesk, Inc."
 90
     1024
280
     0
281
     0
  0
CLASS
  1
ACMCENTERLINESTANDARDISO
  2
AmdtCenterLineStdISO
  3
"Amdt_StdImp|Product Description: AutoCAD Mechanical|Company: Autodesk, Inc."
 90
     1024
280
     0
281
     0
  0
CLASS
  1
ACMTHREADLINESTANDARDISO
  2
AmdtThreadLineStdISO
  3
"Amdt_StdImp|Product Description: AutoCAD Mechanical|Company: Autodesk, Inc."
 90
     1024
280
     0
281
     0
  0
CLASS
  1
ACMNOTESTANDARDISO
  2
AmdtNoteStdISO
  3
"Amdt_StdImp|Product Description: AutoCAD Mechanical|Company: Autodesk, Inc."
 90
     1024
280
     0
281
     0
  0
CLASS
  1
ACMTAPERSTANDARDISO
  2
AcmTaperStdISO
  3
"Amdt_StdImp|Product Description: AutoCAD Mechanical|Company: Autodesk, Inc."
 90
     1024
280
     0
281
     0
  0
CLASS
  1
ACMANOOTATIONVIEWSTANDARDISO
  2
AmdtAnViewStdISO
  3
"Amdt_StdImp|Product Description: AutoCAD Mechanical|Company: Autodesk, Inc."
 90
     1024
280
     0
281
     0
  0
CLASS
  1
AMDTNOTETEMPLATEDB
  2
AmdtNoteTemplateDB
  3
AcmSymBB|Product Description: AutoCAD Mechanical|Company: Autodesk, Inc.
 90
     1024
280
     0
281
     0
  0
CLASS
  1
ACAMGLAYSTD
  2
AcAmgLayStd
  3
"AmgLay|Product Description: AutoCAD Mechanical|Company: Autodesk, Inc."
 90
     1024
280
     0
281
     0
  0
CLASS
  1
ACAMGDIMSTD
  2
AcAmgDimStd
  3
"AmgDim|Product Description: AutoCAD Mechanical|Company: Autodesk, Inc."
 90
     1024
280
     0
281
     0
  0
CLASS
  1
ACAMGHOLECHARTSTDISO
  2
AcAmgHoleChartStdISO
  3
AmgDim|Product Description: AutoCAD Mechanical|Company: Autodesk, Inc.
 90
     1024
280
     0
281
     0
  0
CLASS
  1
ACAMGTITLESTD
  2
AcAmgTitleStd
  3
"AmgTitle|Product Description: AutoCAD Mechanical|Company: Autodesk, Inc."
 90
     4095
280
     0
281
     0
  0
CLASS
  1
CATALOGSTATE
  2
AcAmCatalogState
  3
DesignerAssemblies
 90
     1024
280
     0
281
     0
  0
CLASS
  1
ACAMGRCOMPDEFSET
  2
AcAmGrCompDefSet
  3
DesignerAssemblies
 90
     1024
280
     0
281
     0
  0
CLASS
  1
AMDTBROWSERDBTAB
  2
AmdtBrowserDbTab
  3
McadcomServices
 90
     1024
280
     0
281
     0
  0
CLASS
  1
CBROWSERAPPOBJECT
  2
CBrowserAppObject
  3
McadcomServices
 90
     1024
280
     0
281
     0
  0
CLASS
  1
DM_PLACEHOLDER
  2
AcDmSelsetPlaceholder
  3
AcMechDwgViewMgmt
 90
     1024
280
     0
281
     0
  0
CLASS
  1
SORTENTSTABLE
  2
AcDbSortentsTable
  3
ObjectDBX Classes
 90
        0
280
     0
281
     0
  0
CLASS
  1
ACMDATAENTRYBLOCK
  2
AcmDataEntryBlock
  3
AcmSymBB|Product Description: AutoCAD Mechanical|Company: Autodesk, Inc.
 90
    33792
280
     0
281
     0
  0
CLASS
  1
ACAMGFILTERDAT
  2
AcAmgFilterDat
  3
"AcadM|Product Description: AutoCAD Mechanical|Company: Autodesk, Inc."
 90
    33792
280
     0
281
     0
  0
CLASS
  1
CAMSSTRUCTBTNSTATE
  2
StructBtnState
  3
DesignerAssemblies
 90
    33792
280
     0
281
     0
  0
CLASS
  1
CELLSTYLEMAP
  2
AcDbCellStyleMap
  3
ObjectDBX Classes
 90
     1152
280
     0
281
     0
  0
CLASS
  1
DICTIONARYVAR
  2
AcDbDictionaryVar
  3
ObjectDBX Classes
 90
        0
280
     0
281
     0
  0
CLASS
  1
ACMSTANDARDANSI
  2
AcmStandardANSI
  3
"Amdt_StdImp|Product Description: AutoCAD Mechanical|Company: Autodesk, Inc."
 90
    33792
280
     0
281
     0
  0
CLASS
  1
ACMSURFSTANDARDANSI
  2
AcmSurfTextStdANSI
  3
"Amdt_StdImp|Product Description: AutoCAD Mechanical|Company: Autodesk, Inc."
 90
    33792
280
     0
281
     0
  0
CLASS
  1
ACMFCFSTANDARDANSI
  2
AcmFCFStdANSI
  3
"Amdt_StdImp|Product Description: AutoCAD Mechanical|Company: Autodesk, Inc."
 90
    33792
280
     0
281
     0
  0
CLASS
  1
ACMWELDSTANDARDANSI
  2
AcmWeldingStdANSI
  3
"Amdt_StdImp|Product Description: AutoCAD Mechanical|Company: Autodesk, Inc."
 90
    33792
280
     0
281
     0
  0
CLASS
  1
ACMIDSTANDARDANSI
  2
AcmIdStdANSI
  3
"Amdt_StdImp|Product Description: AutoCAD Mechanical|Company: Autodesk, Inc."
 90
    33792
280
     0
281
     0
  0
CLASS
  1
ACMDATUMSTANDARDANSI
  2
AcmDatumStdANSI
  3
"Amdt_StdImp|Product Description: AutoCAD Mechanical|Company: Autodesk, Inc."
 90
    33792
280
     0
281
     0
  0
CLASS
  1
ACMBOMSTANDARDANSI
  2
AcmBOMStdANSI
  3
"Amdt_StdImp|Product Description: AutoCAD Mechanical|Company: Autodesk, Inc."
 90
    33792
280
     0
281
     0
  0
CLASS
  1
ACMDETAILSTANDARDANSI
  2
AmdtDetailSymStdANSI
  3
"Amdt_StdImp|Product Description: AutoCAD Mechanical|Company: Autodesk, Inc."
 90
    33792
280
     0
281
     0
  0
CLASS
  1
ACMSECTIONSTANDARDANSI
  2
AmdtSectionSymStdANSI
  3
"Amdt_StdImp|Product Description: AutoCAD Mechanical|Company: Autodesk, Inc."
 90
    33792
280
     0
281
     0
  0
CLASS
  1
ACMCENTERLINESTANDARDANSI
  2
AmdtCenterLineStdANSI
  3
"Amdt_StdImp|Product Description: AutoCAD Mechanical|Company: Autodesk, Inc."
 90
    33792
280
     0
281
     0
  0
CLASS
  1
ACMTHREADLINESTANDARDANSI
  2
AmdtThreadLineStdANSI
  3
"Amdt_StdImp|Product Description: AutoCAD Mechanical|Company: Autodesk, Inc."
 90
    33792
280
     0
281
     0
  0
CLASS
  1
ACMNOTESTANDARDANSI
  2
AmdtNoteStdANSI
  3
"Amdt_StdImp|Product Description: AutoCAD Mechanical|Company: Autodesk, Inc."
 90
    33792
280
     0
281
     0
  0
CLASS
  1
ACMTAPERSTANDARDANSI
  2
AcmTaperStdANSI
  3
"Amdt_StdImp|Product Description: AutoCAD Mechanical|Company: Autodesk, Inc."
 90
    33792
280
     0
281
     0
  0
CLASS
  1
ACMANOOTATIONVIEWSTANDARDANSI
  2
AmdtAnViewStdANSI
  3
"Amdt_StdImp|Product Description: AutoCAD Mechanical|Company: Autodesk, Inc."
 90
    33792
280
     0
281
     0
  0
CLASS
  1
ACAMGHOLECHARTSTDANSI
  2
AcAmgHoleChartStdANSI
  3
AmgDim|Product Description: AutoCAD Mechanical|Company: Autodesk, Inc.
 90
    33792
280
     0
281
     0
  0
CLASS
  1
ACDBPLACEHOLDER
  2
AcDbPlaceHolder
  3
ObjectDBX Classes
 90
        0
280
     0
281
     0
  0
CLASS
  1
LAYOUT
  2
AcDbLayout
  3
ObjectDBX Classes
 90
        0
280
     0
281
     0
  0
CLASS
  1
DIMASSOC
  2
AcDbDimAssoc
  3
"AcDbDimAssoc|Product Desc:     AcDim ARX App For Dimension|Company:          Autodesk, Inc.|WEB Address:      www.autodesk.com"
 90
        0
280
     0
281
     0
  0
CLASS
  1
ACDBCIRCARCRES
  2
AcDbCircArcRes
  3
AcGrefServices
 90
    33792
280
     0
281
     0
  0
CLASS
  1
AMDTNOTE
  2
AmdtNote
  3
"AcmSymBB|Product Description: AutoCAD Mechanical|Company: Autodesk, Inc."
 90
    36863
280
     0
281
     1
  0
CLASS
  1
AMDTFORMULAUPDATEDISPATCHER
  2
AmdtFormulaUpdateDispatcher
  3
AcMeServices
 90
    33792
280
     0
281
     0
  0
ENDSEC
  0
SECTION
  2
TABLES
  0
TABLE
  2
VPORT
  5
8
330
0
100
AcDbSymbolTable
 70
     1
  0
VPORT
  5
5F
330
8
100
AcDbSymbolTableRecord
100
AcDbViewportTableRecord
  2
*Active
 70
     0
 10
0.0
 20
0.0
 11
1.0
 21
1.0
 12
135.6875910309875
 22
188.407732658001
 13
0.0
 23
0.0
 14
2.5
 24
2.5
 15
10.0
 25
10.0
 16
0.0
 26
0.0
 36
1.0
 17
0.0
 27
0.0
 37
0.0
 40
333.216482321977
 41
1.712538226299693
 42
50.0
 43
0.0
 44
0.0
 50
0.0
 51
0.0
 71
     0
 72
  1000
 73
     1
 74
     3
 75
     0
 76
     0
 77
     0
 78
     0
281
     0
 65
     0
110
0.0
120
0.0
130
0.0
111
1.0
121
0.0
131
0.0
112
0.0
122
1.0
132
0.0
 79
     0
146
0.0
  0
ENDTAB
  0
TABLE
  2
LTYPE
  5
5
330
0
100
AcDbSymbolTable
 70
    13
  0
LTYPE
  5
63
330
5
100
AcDbSymbolTableRecord
100
AcDbLinetypeTableRecord
  2
ByBlock
 70
     0
  3

 72
    65
 73
     0
 40
0.0
  0
LTYPE
  5
64
330
5
100
AcDbSymbolTableRecord
100
AcDbLinetypeTableRecord
  2
ByLayer
 70
     0
  3

 72
    65
 73
     0
 40
0.0
  0
LTYPE
  5
65
330
5
100
AcDbSymbolTableRecord
100
AcDbLinetypeTableRecord
  2
Continuous
 70
     0
  3
Solid line
 72
    65
 73
     0
 40
0.0
  0
LTYPE
  5
B3
330
5
100
AcDbSymbolTableRecord
100
AcDbLinetypeTableRecord
  2
HIDDEN
 70
     0
  3
Hidden __ __ __ __ __ __ __ __ __ __ __ __ __ _
 72
    65
 73
     2
 40
9.524999999999996
 49
6.349999999999997
 74
     0
 49
-3.174999999999998
 74
     0
  0
LTYPE
  5
B4
330
5
100
AcDbSymbolTableRecord
100
AcDbLinetypeTableRecord
  2
PHANTOM2
 70
     0
  3
Phantom (.5x) ___ _ _ ___ _ _ ___ _ _ ___ _ _
 72
    65
 73
     6
 40
31.75
 49
15.875
 74
     0
 49
-3.174999999999998
 74
     0
 49
3.174999999999998
 74
     0
 49
-3.174999999999998
 74
     0
 49
3.174999999999998
 74
     0
 49
-3.174999999999998
 74
     0
  0
LTYPE
  5
B5
330
5
100
AcDbSymbolTableRecord
100
AcDbLinetypeTableRecord
  2
CENTER
 70
     0
  3
Center ____ _ ____ _ ____ _ ____ _ ____ _ ____
 72
    65
 73
     4
 40
50.8
 49
31.75
 74
     0
 49
-6.349999999999997
 74
     0
 49
6.349999999999997
 74
     0
 49
-6.349999999999997
 74
     0
  0
LTYPE
  5
F1
330
5
100
AcDbSymbolTableRecord
100
AcDbLinetypeTableRecord
  2
ACISOWELD
 70
     0
  3
_ _ _ _ _
 72
    65
 73
     2
 40
2.0
 49
2.0
 74
     0
 49
-1.0
 74
     0
  0
LTYPE
  5
F2
330
5
100
AcDbSymbolTableRecord
100
AcDbLinetypeTableRecord
  2
ACISOTGB
 70
     0
  3
__ . . __ . .
 72
    65
 73
     6
 40
9.0
 49
4.0
 74
     0
 49
-1.0
 74
     0
 49
1.0
 74
     0
 49
-1.0
 74
     0
 49
1.0
 74
     0
 49
-1.0
 74
     0
  0
LTYPE
  5
F3
330
5
100
AcDbSymbolTableRecord
100
AcDbLinetypeTableRecord
  2
ACISOTGL
 70
     0
  3
_ _ _ _ _
 72
    65
 73
     2
 40
3.0
 49
2.0
 74
     0
 49
-1.0
 74
     0
  0
LTYPE
  5
185
330
5
100
AcDbSymbolTableRecord
100
AcDbLinetypeTableRecord
  2
CENTER2
 70
     0
  3
Center (.5x) ___ _ ___ _ ___ _ ___ _ ___ _ ___
 72
    65
 73
     4
 40
1.125
 49
0.75
 74
     0
 49
-0.125
 74
     0
 49
0.125
 74
     0
 49
-0.125
 74
     0
  0
LTYPE
  5
186
330
5
100
AcDbSymbolTableRecord
100
AcDbLinetypeTableRecord
  2
HIDDEN2
 70
     0
  3
Hidden (.5x) _ _ _ _ _ _ _ _ _ _ _ _ _ _ _ _ _
 72
    65
 73
     2
 40
0.1875
 49
0.125
 74
     0
 49
-0.0625
 74
     0
  0
LTYPE
  5
187
330
5
100
AcDbSymbolTableRecord
100
AcDbLinetypeTableRecord
  2
ACANSTGBM
 70
     0
  3
__ . . __ . .
 72
    65
 73
     6
 40
9.0
 49
4.0
 74
     0
 49
-1.0
 74
     0
 49
1.0
 74
     0
 49
-1.0
 74
     0
 49
1.0
 74
     0
 49
-1.0
 74
     0
  0
LTYPE
  5
188
330
5
100
AcDbSymbolTableRecord
100
AcDbLinetypeTableRecord
  2
ACANSTGLM
 70
     0
  3
_ _ _ _ _
 72
    65
 73
     2
 40
3.0
 49
2.0
 74
     0
 49
-1.0
 74
     0
  0
LTYPE
  5
61B
330
5
100
AcDbSymbolTableRecord
100
AcDbLinetypeTableRecord
  2
ACANSTGB
 70
     0
  3
__ . . __ . .
 72
    65
 73
     6
 40
0.35433070866
 49
0.15748031496
 74
     0
 49
-0.03937007874
 74
     0
 49
0.03937007874
 74
     0
 49
-0.03937007874
 74
     0
 49
0.03937007874
 74
     0
 49
-0.03937007874
 74
     0
  0
LTYPE
  5
61C
330
5
100
AcDbSymbolTableRecord
100
AcDbLinetypeTableRecord
  2
ACANSTGL
 70
     0
  3
_ _ _ _ _
 72
    65
 73
     2
 40
0.11811023622
 49
0.07874015748
 74
     0
 49
-0.03937007874
 74
     0
  0
ENDTAB
  0
TABLE
  2
LAYER
  5
2
102
{ACAD_XDICTIONARY
360
12A
102
}
330
0
100
AcDbSymbolTable
 70
    14
  0
LAYER
  5
5C
102
{ACAD_XDICTIONARY
360
158
102
}
330
2
100
AcDbSymbolTableRecord
100
AcDbLayerTableRecord
  2
0
 70
     0
 62
     7
  6
Continuous
370
    -3
390
F
  0
LAYER
  5
119
102
{ACAD_XDICTIONARY
360
11A
102
}
330
2
100
AcDbSymbolTableRecord
100
AcDbLayerTableRecord
  2
外形線
 70
     0
 62
     7
  6
Continuous
370
    40
390
F
  0
LAYER
  5
11B
102
{ACAD_XDICTIONARY
360
11C
102
}
330
2
100
AcDbSymbolTableRecord
100
AcDbLayerTableRecord
  2
枠
 70
     0
 62
   130
  6
CENTER
370
    50
390
F
1001
AcAecLayerStandard
1000

1000

  0
LAYER
  5
11D
102
{ACAD_XDICTIONARY
360
15C
102
}
330
2
100
AcDbSymbolTableRecord
100
AcDbLayerTableRecord
  2
レイヤー_1_0
 70
     0
 62
   160
  6
Continuous
370
    -3
390
F
  0
LAYER
  5
189
330
2
100
AcDbSymbolTableRecord
100
AcDbLayerTableRecord
  2
AM_0
 70
     0
 62
     7
  6
Continuous
370
    30
390
F
1001
AcAecLayerStandard
1000

1000

  0
LAYER
  5
1B8
330
2
100
AcDbSymbolTableRecord
100
AcDbLayerTableRecord
  2
AM_5
 70
     0
 62
     3
  6
Continuous
370
    25
390
F
1001
AcAecLayerStandard
1000

1000

  0
LAYER
  5
410
330
2
100
AcDbSymbolTableRecord
100
AcDbLayerTableRecord
  2
中心線
 70
     0
 62
     5
  6
Continuous
370
    15
390
F
1001
AcAecLayerStandard
1000

1000

  0
LAYER
  5
411
330
2
100
AcDbSymbolTableRecord
100
AcDbLayerTableRecord
  2
隠線
 70
     0
 62
     4
  6
Continuous
370
    25
390
F
1001
AcAecLayerStandard
1000

1000

  0
LAYER
  5
412
330
2
100
AcDbSymbolTableRecord
100
AcDbLayerTableRecord
  2
補助線
 70
     0
 62
     1
  6
Continuous
370
    15
390
F
1001
AcAecLayerStandard
1000

1000

  0
LAYER
  5
413
330
2
100
AcDbSymbolTableRecord
100
AcDbLayerTableRecord
  2
外形線_2
 70
     0
 62
     7
  6
Continuous
370
    15
390
F
1001
AcAecLayerStandard
1000

1000

  0
LAYER
  5
414
330
2
100
AcDbSymbolTableRecord
100
AcDbLayerTableRecord
  2
陰線_2
 70
     0
 62
     4
  6
Continuous
370
    15
390
F
1001
AcAecLayerStandard
1000

1000

  0
LAYER
  5
61D
330
2
100
AcDbSymbolTableRecord
100
AcDbLayerTableRecord
  2
レイヤー_1
 70
     0
 62
   160
  6
Continuous
370
    -3
390
F
  0
LAYER
  5
6C1
330
2
100
AcDbSymbolTableRecord
100
AcDbLayerTableRecord
  2
Defpoints
 70
     0
 62
     7
  6
Continuous
290
     0
370
    -3
390
F
  0
LAYER
  5
7D9
330
2
100
AcDbSymbolTableRecord
100
AcDbLayerTableRecord
  2
AM_7
 70
     0
 62
     4
  6
Continuous
370
    25
390
F
1001
AcAecLayerStandard
1000

1000

  0
ENDTAB
  0
TABLE
  2
STYLE
  5
3
330
0
100
AcDbSymbolTable
 70
    11
  0
STYLE
  5
5D
330
3
100
AcDbSymbolTableRecord
100
AcDbTextStyleTableRecord
  2
STANDARD
 70
     0
 40
0.0
 41
0.8
 50
0.0
 71
     0
 42
2.5
  3
romans.shx
  4
bigfont.shx
  0
STYLE
  5
62
330
3
100
AcDbSymbolTableRecord
100
AcDbTextStyleTableRecord
  2
Annotative
 70
     0
 40
0.0
 41
1.0
 50
0.0
 71
     0
 42
0.2
  3

  4

1001
AcadAnnotative
1000
AnnotativeData
1002
{
1070
     1
1070
     1
1002
}
  0
STYLE
  5
E1
330
3
100
AcDbSymbolTableRecord
100
AcDbTextStyleTableRecord
  2
ACISOTS
 70
     0
 40
1.0
 41
1.0
 50
0.0
 71
     0
 42
2.5
  3
isocp.shx
  4
extfont.shx
  0
STYLE
  5
F0
330
3
100
AcDbSymbolTableRecord
100
AcDbTextStyleTableRecord
  2
ACISOGDT
 70
     0
 40
0.0
 41
1.0
 50
0.0
 71
     0
 42
2.5
  3
amgdt.shx
  4

  0
STYLE
  5
115
330
3
100
AcDbSymbolTableRecord
100
AcDbTextStyleTableRecord
  2
USER1
 70
     0
 40
0.0
 41
1.0
 50
0.0
 71
     0
 42
2.5
  3
TXT.SHX
  4

  0
STYLE
  5
116
330
3
100
AcDbSymbolTableRecord
100
AcDbTextStyleTableRecord
  2
USER2
 70
     0
 40
0.0
 41
1.0
 50
0.0
 71
     0
 42
2.5
  3
SIMPLEX.SHX
  4

  0
STYLE
  5
117
330
3
100
AcDbSymbolTableRecord
100
AcDbTextStyleTableRecord
  2
USER3
 70
     0
 40
0.0
 41
1.0
 50
0.0
 71
     0
 42
2.5
  3
ITALIC.SHX
  4

  0
STYLE
  5
11E
330
3
100
AcDbSymbolTableRecord
100
AcDbTextStyleTableRecord
  2
KANJISTD
 70
     0
 40
0.0
 41
1.0
 50
0.0
 71
     0
 42
0.0
  3
txt
  4
extfont
  0
STYLE
  5
18A
330
3
100
AcDbSymbolTableRecord
100
AcDbTextStyleTableRecord
  2
ACANSTS
 70
     0
 40
1.0
 41
1.0
 50
0.0
 71
     0
 42
0.2
  3
romans.shx
  4
extfont.shx
  0
STYLE
  5
18B
330
3
100
AcDbSymbolTableRecord
100
AcDbTextStyleTableRecord
  2
ACANSGDT
 70
     0
 40
0.0
 41
1.0
 50
0.0
 71
     0
 42
0.2
  3
amgdt.shx
  4

  0
STYLE
  5
61E
330
3
100
AcDbSymbolTableRecord
100
AcDbTextStyleTableRecord
  2
STD
 70
     0
 40
0.0
 41
1.0
 50
0.0
 71
     0
 42
0.0
  3
txt
  4

  0
ENDTAB
  0
TABLE
  2
VIEW
  5
6
330
0
100
AcDbSymbolTable
 70
     0
  0
ENDTAB
  0
TABLE
  2
UCS
  5
7
330
0
100
AcDbSymbolTable
 70
     0
  0
ENDTAB
  0
TABLE
  2
APPID
  5
9
330
0
100
AcDbSymbolTable
 70
    31
  0
APPID
  5
5E
330
9
100
AcDbSymbolTableRecord
100
AcDbRegAppTableRecord
  2
ACAD
 70
     0
  0
APPID
  5
66
330
9
100
AcDbSymbolTableRecord
100
AcDbRegAppTableRecord
  2
AcadAnnotative
 70
     0
  0
APPID
  5
70
330
9
100
AcDbSymbolTableRecord
100
AcDbRegAppTableRecord
  2
ACAD_MLEADERVER
 70
     0
  0
APPID
  5
84
330
9
100
AcDbSymbolTableRecord
100
AcDbRegAppTableRecord
  2
MCAD_NO_VIS
 70
     0
  0
APPID
  5
85
330
9
100
AcDbSymbolTableRecord
100
AcDbRegAppTableRecord
  2
ACAD_TEMP_GRAPHIC
 70
     0
  0
APPID
  5
B7
330
9
100
AcDbSymbolTableRecord
100
AcDbRegAppTableRecord
  2
AD_DRAW
 70
     0
  0
APPID
  5
BA
330
9
100
AcDbSymbolTableRecord
100
AcDbRegAppTableRecord
  2
ACATTRIBSERVICES
 70
     0
  0
APPID
  5
DB
330
9
100
AcDbSymbolTableRecord
100
AcDbRegAppTableRecord
  2
DESIGNERASSEMBLIES
 70
     0
  0
APPID
  5
10F
330
9
100
AcDbSymbolTableRecord
100
AcDbRegAppTableRecord
  2
ACADM_DIM_EDIT
 70
     0
  0
APPID
  5
110
330
9
100
AcDbSymbolTableRecord
100
AcDbRegAppTableRecord
  2
AMDT_DM_ADJ
 70
     0
  0
APPID
  5
121
330
9
100
AcDbSymbolTableRecord
100
AcDbRegAppTableRecord
  2
ACAD_PSEXT
 70
     0
  0
APPID
  5
122
330
9
100
AcDbSymbolTableRecord
100
AcDbRegAppTableRecord
  2
AcAecLayerStandard
 70
     0
  0
APPID
  5
123
330
9
100
AcDbSymbolTableRecord
100
AcDbRegAppTableRecord
  2
GENIUS_GENODEF_13
 70
     0
  0
APPID
  5
124
330
9
100
AcDbSymbolTableRecord
100
AcDbRegAppTableRecord
  2
GENIUS_GENREC_14
 70
     0
  0
APPID
  5
125
330
9
100
AcDbSymbolTableRecord
100
AcDbRegAppTableRecord
  2
GENIUS_GENOBJ-N-REC_13
 70
     0
  0
APPID
  5
126
330
9
100
AcDbSymbolTableRecord
100
AcDbRegAppTableRecord
  2
ACAD_DSTYLE_DIMJAG
 70
     0
  0
APPID
  5
127
330
9
100
AcDbSymbolTableRecord
100
AcDbRegAppTableRecord
  2
ACAD_DSTYLE_DIMTALN
 70
     0
  0
APPID
  5
128
330
9
100
AcDbSymbolTableRecord
100
AcDbRegAppTableRecord
  2
ACAD_DSTYLE_DIMBREAK
 70
     0
  0
APPID
  5
129
330
9
100
AcDbSymbolTableRecord
100
AcDbRegAppTableRecord
  2
DCO15
 70
     0
  0
APPID
  5
248
330
9
100
AcDbSymbolTableRecord
100
AcDbRegAppTableRecord
  2
ACAD_DSTYLE_DIMJOGGED_JOGANGLE_SYMBOL
 70
     0
  0
APPID
  5
250
330
9
100
AcDbSymbolTableRecord
100
AcDbRegAppTableRecord
  2
ACAD_DSTYLE_DIMARC_LENGTH_SYMBOL
 70
     0
  0
APPID
  5
2DC
330
9
100
AcDbSymbolTableRecord
100
AcDbRegAppTableRecord
  2
AcadAnnoPO
 70
     0
  0
APPID
  5
6D9
330
9
100
AcDbSymbolTableRecord
100
AcDbRegAppTableRecord
  2
ACAD_DSTYLE_DIMINSPECT
 70
     0
  0
APPID
  5
6EC
330
9
100
AcDbSymbolTableRecord
100
AcDbRegAppTableRecord
  2
GENIUS_GENDTOL_13
 70
     0
  0
APPID
  5
741
330
9
100
AcDbSymbolTableRecord
100
AcDbRegAppTableRecord
  2
GENIUS_GENDIMSH_14
 70
     0
  0
APPID
  5
782
330
9
100
AcDbSymbolTableRecord
100
AcDbRegAppTableRecord
  2
ACAD_EXEMPT_FROM_CAD_STANDARDS
 70
     0
  0
APPID
  5
7DF
330
9
100
AcDbSymbolTableRecord
100
AcDbRegAppTableRecord
  2
GENIUS_GENOBJ-N-CRS_13
 70
     0
  0
APPID
  5
7E0
330
9
100
AcDbSymbolTableRecord
100
AcDbRegAppTableRecord
  2
GENIUS_GENOENT_13
 70
     0
  0
APPID
  5
7E1
330
9
100
AcDbSymbolTableRecord
100
AcDbRegAppTableRecord
  2
GENIUS_GENOLIS_13
 70
     0
  0
APPID
  5
7E2
330
9
100
AcDbSymbolTableRecord
100
AcDbRegAppTableRecord
  2
GENIUS_GENOREF_13
 70
     0
  0
APPID
  5
875
330
9
100
AcDbSymbolTableRecord
100
AcDbRegAppTableRecord
  2
ACAD_DSTYLE_DIMRADIAL_EXTENSION
 70
     0
  0
ENDTAB
  0
TABLE
  2
DIMSTYLE
  5
A
330
0
100
AcDbSymbolTable
 70
    19
100
AcDbDimStyleTable
 71
     1
340
FF
  0
DIMSTYLE
105
60
330
A
100
AcDbSymbolTableRecord
100
AcDbDimStyleTableRecord
  2
ISO-25
 70
     0
 41
2.5
 42
0.625
 43
3.75
 44
1.25
 73
     0
 74
     0
 77
     1
 78
     8
140
2.5
141
2.5
143
0.03937007874016
147
0.625
171
     3
172
     1
271
     2
272
     2
274
     3
283
     0
284
     8
340
5D
1001
ACAD_DSTYLE_DIMJOGGED_JOGANGLE_SYMBOL
1070
   384
1040
1.570796326794896
  0
DIMSTYLE
105
61
330
A
100
AcDbSymbolTableRecord
100
AcDbDimStyleTableRecord
  2
Annotative
 70
     0
340
5D
1001
AcadAnnotative
1000
AnnotativeData
1002
{
1070
     1
1070
     1
1002
}
  0
DIMSTYLE
105
FF
330
A
100
AcDbSymbolTableRecord
100
AcDbDimStyleTableRecord
  2
AM_ISO
 70
     0
  4
"
 41
2.5
 42
1.0
 43
10.0
 44
1.0
 47
0.1
 48
0.1
 73
     0
 74
     0
 77
     1
 78
     8
 79
     2
140
3.0
141
0.0
143
0.0393701
146
0.71
147
1.0
172
     1
176
   256
177
   256
178
     2
271
     2
272
     2
283
     0
284
     8
340
5D
371
    -1
372
    -1
1001
ACAD_DSTYLE_DIMARC_LENGTH_SYMBOL
1070
   379
1070
     1
  0
DIMSTYLE
105
100
330
A
100
AcDbSymbolTableRecord
100
AcDbDimStyleTableRecord
  2
AM_ISO$3
 70
     0
  4
"
 41
2.5
 42
1.0
 43
10.0
 44
1.0
 47
0.1
 48
0.1
 73
     0
 77
     1
 78
     8
 79
     2
140
3.5
141
0.0
143
0.0393701
146
0.71
147
1.5
176
   256
177
   256
178
     2
271
     2
272
     3
274
     4
283
     0
284
     8
288
     1
289
     0
340
5D
371
    -1
372
    -1
1001
ACAD_DSTYLE_DIMARC_LENGTH_SYMBOL
1070
   379
1070
     1
  0
DIMSTYLE
105
101
330
A
100
AcDbSymbolTableRecord
100
AcDbDimStyleTableRecord
  2
AM_ISO$4
 70
     0
  4
"
 41
2.5
 42
1.0
 43
10.0
 44
1.0
 47
0.1
 48
0.1
 73
     0
 77
     1
 78
     8
 79
     2
140
3.5
141
0.0
143
0.0393701
146
0.71
147
1.5
176
   256
177
   256
178
     2
271
     2
272
     3
274
     4
283
     0
284
     8
288
     1
289
     0
340
5D
371
    -1
372
    -1
1001
ACAD_DSTYLE_DIMARC_LENGTH_SYMBOL
1070
   379
1070
     1
  0
DIMSTYLE
105
102
330
A
100
AcDbSymbolTableRecord
100
AcDbDimStyleTableRecord
  2
AM_ISO$6
 70
     0
  4
"
 41
2.5
 42
1.0
 43
10.0
 44
1.0
 47
0.1
 48
0.1
 73
     0
 74
     0
 78
     8
 79
     2
140
3.5
141
0.0
143
0.0393701
146
0.71
147
1.5
172
     1
176
   256
177
   256
178
     2
271
     2
272
     3
274
     4
283
     0
284
     8
340
5D
371
    -1
372
    -1
1001
ACAD_DSTYLE_DIMARC_LENGTH_SYMBOL
1070
   379
1070
     1
  0
DIMSTYLE
105
103
330
A
100
AcDbSymbolTableRecord
100
AcDbDimStyleTableRecord
  2
AM_ISO$7
 70
     0
  4
"
 41
2.5
 42
1.0
 43
10.0
 44
1.0
 47
0.1
 48
0.1
 73
     0
 74
     0
 77
     1
 78
     8
 79
     2
140
5.0
141
0.0
143
0.0393701
146
0.71
147
1.5
172
     1
176
   256
177
   256
178
     2
271
     2
272
     3
274
     4
283
     0
284
     8
340
5D
371
    -1
372
    -1
1001
ACAD_DSTYLE_DIMARC_LENGTH_SYMBOL
1070
   379
1070
     1
  0
DIMSTYLE
105
104
330
A
100
AcDbSymbolTableRecord
100
AcDbDimStyleTableRecord
  2
AM_ISO$SF
 70
     0
  4
"
 41
2.5
 42
1.0
 43
10.0
 44
1.0
 47
0.1
 48
0.1
 73
     0
 74
     0
 75
     1
 76
     1
 77
     1
 78
     8
 79
     2
140
3.5
141
0.0
143
0.0393701
146
0.71
147
1.5
172
     1
176
   256
177
   256
178
     2
271
     2
272
     3
274
     4
283
     0
284
     8
340
5D
371
    -1
372
    -1
1001
ACAD_DSTYLE_DIMARC_LENGTH_SYMBOL
1070
   379
1070
     1
  0
DIMSTYLE
105
109
330
A
100
AcDbSymbolTableRecord
100
AcDbDimStyleTableRecord
  2
AM_ISO$SH
 70
     0
  4
"
 41
2.5
 42
1.0
 43
10.0
 44
1.0
 47
0.1
 48
0.1
 73
     0
 74
     0
 75
     1
 76
     1
 77
     1
 78
     8
 79
     2
140
3.5
141
0.0
143
0.0393701
144
2.0
146
0.71
147
1.5
172
     1
173
     1
176
   256
177
   256
178
     2
271
     2
272
     3
274
     4
283
     0
284
     8
340
5D
343
105
371
    -1
372
    -1
1001
ACAD_DSTYLE_DIMARC_LENGTH_SYMBOL
1070
   379
1070
     1
  0
DIMSTYLE
105
11F
102
{ACAD_REACTORS
330
6FF
330
720
330
79C
330
7F5
330
828
102
}
330
A
100
AcDbSymbolTableRecord
100
AcDbDimStyleTableRecord
  2
AM_ISO$0
 70
     0
  4
"
 41
2.5
 42
1.0
 43
10.0
 44
1.0
 47
0.1
 48
0.1
 73
     0
 74
     0
 77
     1
 78
     8
 79
     2
140
3.0
141
0.0
143
0.0393701
146
0.71
147
1.0
172
     1
176
   256
177
   256
178
     2
271
     2
272
     2
283
     0
284
     8
340
5D
371
    -1
372
    -1
1001
ACAD_DSTYLE_DIMJAG
1070
   388
1040
1.5
1001
ACAD_DSTYLE_DIMTALN
1070
   392
1070
     0
1001
ACAD_DSTYLE_DIMARC_LENGTH_SYMBOL
1070
   379
1070
     1
  0
DIMSTYLE
105
120
330
A
100
AcDbSymbolTableRecord
100
AcDbDimStyleTableRecord
  2
AM_ISO$2
 70
     0
  4
"
 41
2.5
 42
1.0
 43
10.0
 44
1.0
 47
0.1
 48
0.1
 73
     0
 74
     0
 77
     1
 78
     8
 79
     2
140
3.0
141
0.0
143
0.0393701
146
0.71
147
1.0
172
     1
176
   256
177
   256
178
     2
271
     2
272
     2
283
     0
284
     8
340
5D
371
    -1
372
    -1
1001
ACAD_DSTYLE_DIMJAG
1070
   388
1040
1.5
1001
ACAD_DSTYLE_DIMTALN
1070
   392
1070
     0
1001
ACAD_DSTYLE_DIMARC_LENGTH_SYMBOL
1070
   379
1070
     1
  0
DIMSTYLE
105
18C
330
A
100
AcDbSymbolTableRecord
100
AcDbDimStyleTableRecord
  2
Standard
 70
     0
289
     0
340
5D
  0
DIMSTYLE
105
18D
330
A
100
AcDbSymbolTableRecord
100
AcDbDimStyleTableRecord
  2
AM_ANSI
 70
     0
  4
"
 41
2.5
 42
1.0
 43
10.0
 44
1.0
 47
0.1
 48
0.1
 73
     0
 74
     0
 77
     1
 78
     8
 79
     2
140
3.0
141
0.0
143
0.0393701
146
0.71
147
1.0
176
   256
177
   256
178
     2
271
     2
272
     2
284
     8
340
5D
371
    -1
372
    -1
1001
ACAD_DSTYLE_DIMJAG
1070
   388
1040
1.5
1001
ACAD_DSTYLE_DIMTALN
1070
   392
1070
     0
1001
ACAD_DSTYLE_DIMARC_LENGTH_SYMBOL
1070
   379
1070
     1
  0
DIMSTYLE
105
18E
330
A
100
AcDbSymbolTableRecord
100
AcDbDimStyleTableRecord
  2
AM_ANSI$3
 70
     0
  4
"
 41
2.5
 42
1.0
 43
10.0
 44
1.0
 47
0.1
 48
0.1
 78
     8
 79
     2
140
3.5
141
0.0
143
0.0393701
146
0.71
147
1.5
176
   256
177
   256
178
     2
271
     2
272
     2
274
     4
284
     8
288
     1
289
     0
340
5D
371
    -1
372
    -1
1001
ACAD_DSTYLE_DIMARC_LENGTH_SYMBOL
1070
   379
1070
     1
  0
DIMSTYLE
105
18F
330
A
100
AcDbSymbolTableRecord
100
AcDbDimStyleTableRecord
  2
AM_ANSI$4
 70
     0
  4
"
 41
2.5
 42
1.0
 43
10.0
 44
1.0
 47
0.1
 48
0.1
 78
     8
 79
     2
140
3.5
141
0.0
143
0.0393701
146
0.71
147
1.5
176
   256
177
   256
178
     2
271
     2
272
     2
274
     4
284
     8
288
     1
289
     0
340
5D
371
    -1
372
    -1
1001
ACAD_DSTYLE_DIMARC_LENGTH_SYMBOL
1070
   379
1070
     1
  0
DIMSTYLE
105
190
330
A
100
AcDbSymbolTableRecord
100
AcDbDimStyleTableRecord
  2
AM_ANSI$7
 70
     0
  4
"
 41
2.5
 42
1.0
 43
10.0
 44
1.0
 47
0.1
 48
0.1
 78
     8
 79
     2
140
5.0
141
0.0
143
0.0393701
146
0.71
147
1.5
176
   256
177
   256
178
     2
271
     2
272
     2
274
     4
284
     8
340
5D
371
    -1
372
    -1
1001
ACAD_DSTYLE_DIMARC_LENGTH_SYMBOL
1070
   379
1070
     1
  0
DIMSTYLE
105
191
330
A
100
AcDbSymbolTableRecord
100
AcDbDimStyleTableRecord
  2
AM_ANSI$SF
 70
     0
  4
"
 41
2.5
 42
1.0
 43
10.0
 44
1.0
 47
0.1
 48
0.1
 75
     1
 76
     1
 78
     8
 79
     2
140
3.5
141
0.0
143
0.0393701
146
0.71
147
1.5
176
   256
177
   256
178
     2
271
     2
272
     3
274
     4
284
     8
340
5D
371
    -1
372
    -1
1001
ACAD_DSTYLE_DIMARC_LENGTH_SYMBOL
1070
   379
1070
     1
  0
DIMSTYLE
105
192
330
A
100
AcDbSymbolTableRecord
100
AcDbDimStyleTableRecord
  2
AM_ANSI$SH
 70
     0
  4
"
 41
2.5
 42
1.0
 43
10.0
 44
1.0
 47
0.1
 48
0.1
 75
     1
 76
     1
 78
     8
 79
     2
140
3.5
141
0.0
143
0.0393701
146
0.71
147
1.5
173
     1
176
   256
177
   256
178
     2
271
     2
272
     3
274
     4
284
     8
340
5D
343
105
371
    -1
372
    -1
1001
ACAD_DSTYLE_DIMARC_LENGTH_SYMBOL
1070
   379
1070
     1
  0
DIMSTYLE
105
193
330
A
100
AcDbSymbolTableRecord
100
AcDbDimStyleTableRecord
  2
AM_ANSI$0
 70
     0
  4
"
 41
2.5
 42
1.0
 43
10.0
 44
1.0
 47
0.1
 48
0.1
 73
     0
 74
     0
 77
     1
 78
     8
 79
     2
140
3.0
141
0.0
143
0.0393701
146
0.71
147
1.0
176
   256
177
   256
178
     2
271
     2
272
     2
284
     8
340
5D
371
    -1
372
    -1
1001
ACAD_DSTYLE_DIMJAG
1070
   388
1040
1.5
1001
ACAD_DSTYLE_DIMTALN
1070
   392
1070
     0
1001
ACAD_DSTYLE_DIMARC_LENGTH_SYMBOL
1070
   379
1070
     1
  0
ENDTAB
  0
TABLE
  2
BLOCK_RECORD
  5
1
330
0
100
AcDbSymbolTable
 70
    40
  0
BLOCK_RECORD
  5
75
102
{ACAD_XDICTIONARY
360
78E
102
}
330
1
100
AcDbSymbolTableRecord
100
AcDbBlockTableRecord
  2
*Model_Space
340
78
  0
BLOCK_RECORD
  5
71
330
1
100
AcDbSymbolTableRecord
100
AcDbBlockTableRecord
  2
*Paper_Space
340
74
  0
BLOCK_RECORD
  5
79
330
1
100
AcDbSymbolTableRecord
100
AcDbBlockTableRecord
  2
*Paper_Space0
340
7C
  0
BLOCK_RECORD
  5
105
330
1
100
AcDbSymbolTableRecord
100
AcDbBlockTableRecord
  2
GENAXEH
340
0
  0
BLOCK_RECORD
  5
1B9
330
1
100
AcDbSymbolTableRecord
100
AcDbBlockTableRecord
  2
GENDOT
340
0
  0
BLOCK_RECORD
  5
56F
330
1
100
AcDbSymbolTableRecord
100
AcDbBlockTableRecord
  2
AI9-BLK1
340
0
102
{BLKREFS
331
67C
102
}
  0
BLOCK_RECORD
  5
575
330
1
100
AcDbSymbolTableRecord
100
AcDbBlockTableRecord
  2
AI9-BLK2
340
0
102
{BLKREFS
331
573
102
}
  0
BLOCK_RECORD
  5
580
330
1
100
AcDbSymbolTableRecord
100
AcDbBlockTableRecord
  2
AI9-BLK3
340
0
102
{BLKREFS
331
67D
102
}
  0
BLOCK_RECORD
  5
586
330
1
100
AcDbSymbolTableRecord
100
AcDbBlockTableRecord
  2
AI9-BLK4
340
0
102
{BLKREFS
331
584
102
}
  0
BLOCK_RECORD
  5
591
330
1
100
AcDbSymbolTableRecord
100
AcDbBlockTableRecord
  2
AI9-BLK5
340
0
102
{BLKREFS
331
67E
102
}
  0
BLOCK_RECORD
  5
597
330
1
100
AcDbSymbolTableRecord
100
AcDbBlockTableRecord
  2
AI9-BLK6
340
0
102
{BLKREFS
331
595
102
}
  0
BLOCK_RECORD
  5
5A2
330
1
100
AcDbSymbolTableRecord
100
AcDbBlockTableRecord
  2
AI9-BLK7
340
0
102
{BLKREFS
331
67F
102
}
  0
BLOCK_RECORD
  5
5A8
330
1
100
AcDbSymbolTableRecord
100
AcDbBlockTableRecord
  2
AI9-BLK8
340
0
102
{BLKREFS
331
5A6
102
}
  0
BLOCK_RECORD
  5
5B3
330
1
100
AcDbSymbolTableRecord
100
AcDbBlockTableRecord
  2
AI9-BLK9
340
0
  0
BLOCK_RECORD
  5
5B8
330
1
100
AcDbSymbolTableRecord
100
AcDbBlockTableRecord
  2
AI9-BLK10
340
0
102
{BLKREFS
331
5B6
102
}
  0
BLOCK_RECORD
  5
5BE
330
1
100
AcDbSymbolTableRecord
100
AcDbBlockTableRecord
  2
AI9-BLK11
340
0
102
{BLKREFS
331
5B5
102
}
  0
BLOCK_RECORD
  5
5C3
330
1
100
AcDbSymbolTableRecord
100
AcDbBlockTableRecord
  2
AI9-BLK12
340
0
  0
BLOCK_RECORD
  5
5C8
330
1
100
AcDbSymbolTableRecord
100
AcDbBlockTableRecord
  2
AI9-BLK13
340
0
102
{BLKREFS
331
5C6
102
}
  0
BLOCK_RECORD
  5
5CE
330
1
100
AcDbSymbolTableRecord
100
AcDbBlockTableRecord
  2
AI9-BLK14
340
0
102
{BLKREFS
331
5C5
102
}
  0
BLOCK_RECORD
  5
5D3
330
1
100
AcDbSymbolTableRecord
100
AcDbBlockTableRecord
  2
AI9-BLK15
340
0
  0
BLOCK_RECORD
  5
5D8
330
1
100
AcDbSymbolTableRecord
100
AcDbBlockTableRecord
  2
AI9-BLK16
340
0
102
{BLKREFS
331
5D6
102
}
  0
BLOCK_RECORD
  5
5DE
330
1
100
AcDbSymbolTableRecord
100
AcDbBlockTableRecord
  2
AI9-BLK17
340
0
102
{BLKREFS
331
5D5
102
}
  0
BLOCK_RECORD
  5
5E3
330
1
100
AcDbSymbolTableRecord
100
AcDbBlockTableRecord
  2
AI9-BLK18
340
0
  0
BLOCK_RECORD
  5
5E9
330
1
100
AcDbSymbolTableRecord
100
AcDbBlockTableRecord
  2
AI9-BLK19
340
0
  0
BLOCK_RECORD
  5
5EE
330
1
100
AcDbSymbolTableRecord
100
AcDbBlockTableRecord
  2
AI9-BLK20
340
0
102
{BLKREFS
331
5EC
102
}
  0
BLOCK_RECORD
  5
5F4
330
1
100
AcDbSymbolTableRecord
100
AcDbBlockTableRecord
  2
AI9-BLK21
340
0
102
{BLKREFS
331
5EB
102
}
  0
BLOCK_RECORD
  5
5F9
330
1
100
AcDbSymbolTableRecord
100
AcDbBlockTableRecord
  2
AI9-BLK22
340
0
102
{BLKREFS
331
698
102
}
  0
BLOCK_RECORD
  5
5FE
330
1
100
AcDbSymbolTableRecord
100
AcDbBlockTableRecord
  2
AI9-BLK23
340
0
102
{BLKREFS
331
699
102
}
  0
BLOCK_RECORD
  5
603
330
1
100
AcDbSymbolTableRecord
100
AcDbBlockTableRecord
  2
AI9-BLK24
340
0
102
{BLKREFS
331
69A
102
}
  0
BLOCK_RECORD
  5
608
330
1
100
AcDbSymbolTableRecord
100
AcDbBlockTableRecord
  2
AI9-BLK25
340
0
102
{BLKREFS
331
69B
102
}
  0
BLOCK_RECORD
  5
60D
330
1
100
AcDbSymbolTableRecord
100
AcDbBlockTableRecord
  2
AI9-BLK26
340
0
  0
BLOCK_RECORD
  5
612
330
1
100
AcDbSymbolTableRecord
100
AcDbBlockTableRecord
  2
AI9-BLK27
340
0
  0
BLOCK_RECORD
  5
6C2
330
1
100
AcDbSymbolTableRecord
100
AcDbBlockTableRecord
  2
*D30
340
0
  0
BLOCK_RECORD
  5
700
330
1
100
AcDbSymbolTableRecord
100
AcDbBlockTableRecord
  2
*D31
340
0
  0
BLOCK_RECORD
  5
721
330
1
100
AcDbSymbolTableRecord
100
AcDbBlockTableRecord
  2
*D32
340
0
  0
BLOCK_RECORD
  5
79D
330
1
100
AcDbSymbolTableRecord
100
AcDbBlockTableRecord
  2
*D33
340
0
  0
BLOCK_RECORD
  5
7F6
330
1
100
AcDbSymbolTableRecord
100
AcDbBlockTableRecord
  2
*D34
340
0
  0
BLOCK_RECORD
  5
829
330
1
100
AcDbSymbolTableRecord
100
AcDbBlockTableRecord
  2
*D35
340
0
  0
BLOCK_RECORD
  5
85C
330
1
100
AcDbSymbolTableRecord
100
AcDbBlockTableRecord
  2
*D36
340
0
  0
BLOCK_RECORD
  5
995
330
1
100
AcDbSymbolTableRecord
100
AcDbBlockTableRecord
  2
*S4037
340
0
102
{BLKREFS
331
8A3
102
}
  0
BLOCK_RECORD
  5
99D
330
1
100
AcDbSymbolTableRecord
100
AcDbBlockTableRecord
  2
*S4138
340
0
102
{BLKREFS
331
8A7
102
}
  0
ENDTAB
  0
ENDSEC
  0
SECTION
  2
BLOCKS
  0
BLOCK
  5
76
330
75
100
AcDbEntity
  8
0
100
AcDbBlockBegin
  2
*Model_Space
 70
     0
 10
0.0
 20
0.0
 30
0.0
  3
*Model_Space
  1

  0
ENDBLK
  5
77
330
75
100
AcDbEntity
  8
0
100
AcDbBlockEnd
  0
BLOCK
  5
72
330
71
100
AcDbEntity
 67
     1
  8
0
100
AcDbBlockBegin
  2
*Paper_Space
 70
     0
 10
0.0
 20
0.0
 30
0.0
  3
*Paper_Space
  1

  0
ENDBLK
  5
73
330
71
100
AcDbEntity
 67
     1
  8
0
100
AcDbBlockEnd
  0
BLOCK
  5
7A
330
79
100
AcDbEntity
 67
     1
  8
0
100
AcDbBlockBegin
  2
*Paper_Space0
 70
     0
 10
0.0
 20
0.0
 30
0.0
  3
*Paper_Space0
  1

  0
ENDBLK
  5
7B
330
79
100
AcDbEntity
 67
     1
  8
0
100
AcDbBlockEnd
  0
BLOCK
  5
107
330
105
100
AcDbEntity
  8
0
100
AcDbBlockBegin
  2
GENAXEH
 70
     0
 10
0.0
 20
0.0
 30
0.0
  3
GENAXEH
  1

  0
LINE
  5
106
330
105
100
AcDbEntity
  8
0
100
AcDbLine
 10
-1.0
 20
0.0
 30
0.0
 11
1.0
 21
0.0
 31
0.0
  0
ENDBLK
  5
108
330
105
100
AcDbEntity
  8
0
100
AcDbBlockEnd
  0
BLOCK
  5
1BC
330
1B9
100
AcDbEntity
  8
0
100
AcDbBlockBegin
  2
GENDOT
 70
     0
 10
0.0
 20
0.0
 30
0.0
  3
GENDOT
  1

  0
LINE
  5
1BA
330
1B9
100
AcDbEntity
  8
0
100
AcDbLine
 10
0.0
 20
0.0
 30
0.0
 11
-1.0
 21
0.0
 31
0.0
  0
LWPOLYLINE
  5
1BB
330
1B9
100
AcDbEntity
  8
0
100
AcDbPolyline
 90
        2
 70
     1
 43
0.25
 10
-0.125
 20
0.0
 42
1.0
 10
0.125
 20
0.0
 42
1.0
  0
ENDBLK
  5
1BD
330
1B9
100
AcDbEntity
  8
0
100
AcDbBlockEnd
  0
BLOCK
  5
570
330
56F
100
AcDbEntity
  8
レイヤー_1
 62
     7
100
AcDbBlockBegin
  2
AI9-BLK1
 70
     0
 10
0.0
 20
0.0
 30
0.0
  3
AI9-BLK1
  1

  0
SPLINE
  5
571
330
56F
100
AcDbEntity
  8
レイヤー_1
 62
     7
100
AcDbSpline
210
0.0
220
0.0
230
1.0
 70
    11
 71
     3
 72
    17
 73
    13
 74
     0
 42
0.0000000001
 43
0.0000000001
 40
0.0
 40
0.0
 40
0.0
 40
0.0
 40
1.0
 40
1.0
 40
1.0
 40
2.0
 40
2.0
 40
2.0
 40
3.0
 40
3.0
 40
3.0
 40
4.0
 40
4.0
 40
4.0
 40
4.0
 10
1.123445638020833
 20
0.771701388888889
 30
0.0
 10
1.123445638020833
 20
0.771701388888889
 30
0.0
 10
1.12396240234375
 20
-0.4261583116319444
 30
0.0
 10
1.12396240234375
 20
-0.4261583116319444
 30
0.0
 10
1.12396240234375
 20
-0.4261583116319444
 30
0.0
 10
0.1259182400173611
 20
-1.183045789930554
 30
0.0
 10
-1.12396240234375
 20
-0.4888590494791666
 30
0.0
 10
-1.12396240234375
 20
-0.4888590494791666
 30
0.0
 10
-1.12396240234375
 20
0.771701388888889
 30
0.0
 10
-1.12396240234375
 20
0.771701388888889
 30
0.0
 10
-1.12396240234375
 20
0.771701388888889
 30
0.0
 10
1.123445638020833
 20
0.771701388888889
 30
0.0
 10
1.123445638020833
 20
0.771701388888889
 30
0.0
  0
CIRCLE
  5
572
330
56F
100
AcDbEntity
  8
レイヤー_1
 62
     7
100
AcDbCircle
 10
0.009991
 20
0.037207
 30
0.0
 40
0.699527
  0
INSERT
  5
573
330
56F
100
AcDbEntity
  8
レイヤー_1
 62
     7
100
AcDbBlockReference
  2
AI9-BLK2
 10
0.002412
 20
0.055208
 30
0.0
  0
ENDBLK
  5
574
330
56F
100
AcDbEntity
  8
レイヤー_1
100
AcDbBlockEnd
  0
BLOCK
  5
576
330
575
100
AcDbEntity
  8
レイヤー_1
 62
     7
100
AcDbBlockBegin
  2
AI9-BLK2
 70
     0
 10
0.0
 20
0.0
 30
0.0
  3
AI9-BLK2
  1

  0
POLYLINE
  5
577
330
575
100
AcDbEntity
  8
レイヤー_1
 62
     7
100
AcDb2dPolyline
 66
     1
 10
0.0
 20
0.0
 30
0.0
 70
     1
  0
VERTEX
  5
578
330
577
100
AcDbEntity
  8
レイヤー_1
 62
     7
100
AcDbVertex
100
AcDb2dVertex
 10
-0.446657
 20
-0.228324
 30
0.0
  0
VERTEX
  5
579
330
577
100
AcDbEntity
  8
レイヤー_1
 62
     7
100
AcDbVertex
100
AcDb2dVertex
 10
-0.446657
 20
0.231597
 30
0.0
  0
VERTEX
  5
57A
330
577
100
AcDbEntity
  8
レイヤー_1
 62
     7
100
AcDbVertex
100
AcDb2dVertex
 10
0.000172
 20
0.479988
 30
0.0
  0
VERTEX
  5
57B
330
577
100
AcDbEntity
  8
レイヤー_1
 62
     7
100
AcDbVertex
100
AcDb2dVertex
 10
0.446312
 20
0.23108
 30
0.0
  0
VERTEX
  5
57C
330
577
100
AcDbEntity
  8
レイヤー_1
 62
     7
100
AcDbVertex
100
AcDb2dVertex
 10
0.446657
 20
-0.227807
 30
0.0
  0
VERTEX
  5
57D
330
577
100
AcDbEntity
  8
レイヤー_1
 62
     7
100
AcDbVertex
100
AcDb2dVertex
 10
-0.000517
 20
-0.479816
 30
0.0
  0
SEQEND
  5
57E
330
577
100
AcDbEntity
  8
レイヤー_1
 62
     7
  0
ENDBLK
  5
57F
330
575
100
AcDbEntity
  8
レイヤー_1
100
AcDbBlockEnd
  0
BLOCK
  5
581
330
580
100
AcDbEntity
  8
レイヤー_1
 62
     7
100
AcDbBlockBegin
  2
AI9-BLK3
 70
     0
 10
0.0
 20
0.0
 30
0.0
  3
AI9-BLK3
  1

  0
SPLINE
  5
582
330
580
100
AcDbEntity
  8
レイヤー_1
 62
     7
100
AcDbSpline
210
0.0
220
0.0
230
1.0
 70
    11
 71
     3
 72
    17
 73
    13
 74
     0
 42
0.0000000001
 43
0.0000000001
 40
0.0
 40
0.0
 40
0.0
 40
0.0
 40
1.0
 40
1.0
 40
1.0
 40
2.0
 40
2.0
 40
2.0
 40
3.0
 40
3.0
 40
3.0
 40
4.0
 40
4.0
 40
4.0
 40
4.0
 10
-1.123445638020833
 20
-0.7717875162760416
 30
0.0
 10
-1.123445638020833
 20
-0.7717875162760416
 30
0.0
 10
-1.12396240234375
 20
0.4260721842447917
 30
0.0
 10
-1.12396240234375
 20
0.4260721842447917
 30
0.0
 10
-1.12396240234375
 20
0.4260721842447917
 30
0.0
 10
-0.1259182400173611
 20
1.182959662543402
 30
0.0
 10
1.12396240234375
 20
0.4889451768663194
 30
0.0
 10
1.12396240234375
 20
0.4889451768663194
 30
0.0
 10
1.12396240234375
 20
-0.7717875162760416
 30
0.0
 10
1.12396240234375
 20
-0.7717875162760416
 30
0.0
 10
1.12396240234375
 20
-0.7717875162760416
 30
0.0
 10
-1.123445638020833
 20
-0.7717875162760416
 30
0.0
 10
-1.123445638020833
 20
-0.7717875162760416
 30
0.0
  0
CIRCLE
  5
583
330
580
100
AcDbEntity
  8
レイヤー_1
 62
     7
100
AcDbCircle
 10
-0.009991
 20
-0.037552
 30
0.0
 40
0.699527
  0
INSERT
  5
584
330
580
100
AcDbEntity
  8
レイヤー_1
 62
     7
100
AcDbBlockReference
  2
AI9-BLK4
 10
-0.002584
 20
-0.055897
 30
0.0
  0
ENDBLK
  5
585
330
580
100
AcDbEntity
  8
レイヤー_1
100
AcDbBlockEnd
  0
BLOCK
  5
587
330
586
100
AcDbEntity
  8
レイヤー_1
 62
     7
100
AcDbBlockBegin
  2
AI9-BLK4
 70
     0
 10
0.0
 20
0.0
 30
0.0
  3
AI9-BLK4
  1

  0
POLYLINE
  5
588
330
586
100
AcDbEntity
  8
レイヤー_1
 62
     7
100
AcDb2dPolyline
 66
     1
 10
0.0
 20
0.0
 30
0.0
 70
     1
  0
VERTEX
  5
589
330
588
100
AcDbEntity
  8
レイヤー_1
 62
     7
100
AcDbVertex
100
AcDb2dVertex
 10
0.446484
 20
0.228927
 30
0.0
  0
VERTEX
  5
58A
330
588
100
AcDbEntity
  8
レイヤー_1
 62
     7
100
AcDbVertex
100
AcDb2dVertex
 10
0.446484
 20
-0.230994
 30
0.0
  0
VERTEX
  5
58B
330
588
100
AcDbEntity
  8
レイヤー_1
 62
     7
100
AcDbVertex
100
AcDb2dVertex
 10
0.000345
 20
-0.4800740000000002
 30
0.0
  0
VERTEX
  5
58C
330
588
100
AcDbEntity
  8
レイヤー_1
 62
     7
100
AcDbVertex
100
AcDb2dVertex
 10
-0.446484
 20
-0.230821
 30
0.0
  0
VERTEX
  5
58D
330
588
100
AcDbEntity
  8
レイヤー_1
 62
     7
100
AcDbVertex
100
AcDb2dVertex
 10
-0.44614
 20
0.228582
 30
0.0
  0
VERTEX
  5
58E
330
588
100
AcDbEntity
  8
レイヤー_1
 62
     7
100
AcDbVertex
100
AcDb2dVertex
 10
0.000689
 20
0.4799020000000002
 30
0.0
  0
SEQEND
  5
58F
330
588
100
AcDbEntity
  8
レイヤー_1
 62
     7
  0
ENDBLK
  5
590
330
586
100
AcDbEntity
  8
レイヤー_1
100
AcDbBlockEnd
  0
BLOCK
  5
592
330
591
100
AcDbEntity
  8
レイヤー_1
 62
     7
100
AcDbBlockBegin
  2
AI9-BLK5
 70
     0
 10
0.0
 20
0.0
 30
0.0
  3
AI9-BLK5
  1

  0
SPLINE
  5
593
330
591
100
AcDbEntity
  8
レイヤー_1
 62
     7
100
AcDbSpline
210
0.0
220
0.0
230
1.0
 70
    11
 71
     3
 72
    17
 73
    13
 74
     0
 42
0.0000000001
 43
0.0000000001
 40
0.0
 40
0.0
 40
0.0
 40
0.0
 40
1.0
 40
1.0
 40
1.0
 40
2.0
 40
2.0
 40
2.0
 40
3.0
 40
3.0
 40
3.0
 40
4.0
 40
4.0
 40
4.0
 40
4.0
 10
0.7715291341145834
 20
-1.12396240234375
 30
0.0
 10
0.7715291341145834
 20
-1.12396240234375
 30
0.0
 10
-0.42633056640625
 20
-1.12396240234375
 30
0.0
 10
-0.42633056640625
 20
-1.12396240234375
 30
0.0
 10
-0.42633056640625
 20
-1.12396240234375
 30
0.0
 10
-1.182873535156248
 20
-0.1264350043402778
 30
0.0
 10
-0.4888590494791666
 20
1.12396240234375
 30
0.0
 10
-0.4888590494791666
 20
1.12396240234375
 30
0.0
 10
0.771701388888889
 20
1.12396240234375
 30
0.0
 10
0.771701388888889
 20
1.12396240234375
 30
0.0
 10
0.771701388888889
 20
1.12396240234375
 30
0.0
 10
0.7715291341145834
 20
-1.12396240234375
 30
0.0
 10
0.7715291341145834
 20
-1.12396240234375
 30
0.0
  0
CIRCLE
  5
594
330
591
100
AcDbEntity
  8
レイヤー_1
 62
     7
100
AcDbCircle
 10
0.037035
 20
-0.010249
 30
0.0
 40
0.6994410000000002
  0
INSERT
  5
595
330
591
100
AcDbEntity
  8
レイヤー_1
 62
     7
100
AcDbBlockReference
  2
AI9-BLK6
 10
0.055466
 20
-0.002756
 30
0.0
  0
ENDBLK
  5
596
330
591
100
AcDbEntity
  8
レイヤー_1
100
AcDbBlockEnd
  0
BLOCK
  5
598
330
597
100
AcDbEntity
  8
レイヤー_1
 62
     7
100
AcDbBlockBegin
  2
AI9-BLK6
 70
     0
 10
0.0
 20
0.0
 30
0.0
  3
AI9-BLK6
  1

  0
POLYLINE
  5
599
330
597
100
AcDbEntity
  8
レイヤー_1
 62
     7
100
AcDb2dPolyline
 66
     1
 10
0.0
 20
0.0
 30
0.0
 70
     1
  0
VERTEX
  5
59A
330
599
100
AcDbEntity
  8
レイヤー_1
 62
     7
100
AcDbVertex
100
AcDb2dVertex
 10
-0.228065
 20
0.446484
 30
0.0
  0
VERTEX
  5
59B
330
599
100
AcDbEntity
  8
レイヤー_1
 62
     7
100
AcDbVertex
100
AcDb2dVertex
 10
0.230821
 20
0.446484
 30
0.0
  0
VERTEX
  5
59C
330
599
100
AcDbEntity
  8
レイヤー_1
 62
     7
100
AcDbVertex
100
AcDb2dVertex
 10
0.4800740000000002
 20
0.0
 30
0.0
  0
VERTEX
  5
59D
330
599
100
AcDbEntity
  8
レイヤー_1
 62
     7
100
AcDbVertex
100
AcDb2dVertex
 10
0.231338
 20
-0.44614
 30
0.0
  0
VERTEX
  5
59E
330
599
100
AcDbEntity
  8
レイヤー_1
 62
     7
100
AcDbVertex
100
AcDb2dVertex
 10
-0.22841
 20
-0.446484
 30
0.0
  0
VERTEX
  5
59F
330
599
100
AcDbEntity
  8
レイヤー_1
 62
     7
100
AcDbVertex
100
AcDb2dVertex
 10
-0.4799020000000002
 20
0.000172
 30
0.0
  0
SEQEND
  5
5A0
330
599
100
AcDbEntity
  8
レイヤー_1
 62
     7
  0
ENDBLK
  5
5A1
330
597
100
AcDbEntity
  8
レイヤー_1
100
AcDbBlockEnd
  0
BLOCK
  5
5A3
330
5A2
100
AcDbEntity
  8
レイヤー_1
 62
     7
100
AcDbBlockBegin
  2
AI9-BLK7
 70
     0
 10
0.0
 20
0.0
 30
0.0
  3
AI9-BLK7
  1

  0
SPLINE
  5
5A4
330
5A2
100
AcDbEntity
  8
レイヤー_1
 62
     7
100
AcDbSpline
210
0.0
220
0.0
230
1.0
 70
    11
 71
     3
 72
    17
 73
    13
 74
     0
 42
0.0000000001
 43
0.0000000001
 40
0.0
 40
0.0
 40
0.0
 40
0.0
 40
1.0
 40
1.0
 40
1.0
 40
2.0
 40
2.0
 40
2.0
 40
3.0
 40
3.0
 40
3.0
 40
4.0
 40
4.0
 40
4.0
 40
4.0
 10
-0.7718736436631943
 20
1.124134657118054
 30
0.0
 10
-0.7718736436631943
 20
1.124134657118054
 30
0.0
 10
0.4261583116319444
 20
1.123617892795137
 30
0.0
 10
0.4261583116319444
 20
1.123617892795137
 30
0.0
 10
0.4261583116319444
 20
1.123617892795137
 30
0.0
 10
1.183045789930554
 20
0.1262627495659722
 30
0.0
 10
0.4892035590277777
 20
-1.124134657118054
 30
0.0
 10
0.4892035590277777
 20
-1.124134657118054
 30
0.0
 10
-0.7718736436631943
 20
-1.124134657118054
 30
0.0
 10
-0.7718736436631943
 20
-1.124134657118054
 30
0.0
 10
-0.7718736436631943
 20
-1.124134657118054
 30
0.0
 10
-0.7718736436631943
 20
1.124134657118054
 30
0.0
 10
-0.7718736436631943
 20
1.124134657118054
 30
0.0
  0
CIRCLE
  5
5A5
330
5A2
100
AcDbEntity
  8
レイヤー_1
 62
     7
100
AcDbCircle
 10
-0.037035
 20
0.010163
 30
0.0
 40
0.699527
  0
INSERT
  5
5A6
330
5A2
100
AcDbEntity
  8
レイヤー_1
 62
     7
100
AcDbBlockReference
  2
AI9-BLK8
 10
-0.055638
 20
0.002584
 30
0.0
  0
ENDBLK
  5
5A7
330
5A2
100
AcDbEntity
  8
レイヤー_1
100
AcDbBlockEnd
  0
BLOCK
  5
5A9
330
5A8
100
AcDbEntity
  8
レイヤー_1
 62
     7
100
AcDbBlockBegin
  2
AI9-BLK8
 70
     0
 10
0.0
 20
0.0
 30
0.0
  3
AI9-BLK8
  1

  0
POLYLINE
  5
5AA
330
5A8
100
AcDbEntity
  8
レイヤー_1
 62
     7
100
AcDb2dPolyline
 66
     1
 10
0.0
 20
0.0
 30
0.0
 70
     1
  0
VERTEX
  5
5AB
330
5AA
100
AcDbEntity
  8
レイヤー_1
 62
     7
100
AcDbVertex
100
AcDb2dVertex
 10
0.228238
 20
-0.446657
 30
0.0
  0
VERTEX
  5
5AC
330
5AA
100
AcDbEntity
  8
レイヤー_1
 62
     7
100
AcDbVertex
100
AcDb2dVertex
 10
-0.230994
 20
-0.446312
 30
0.0
  0
VERTEX
  5
5AD
330
5AA
100
AcDbEntity
  8
レイヤー_1
 62
     7
100
AcDbVertex
100
AcDb2dVertex
 10
-0.4799020000000002
 20
0.0
 30
0.0
  0
VERTEX
  5
5AE
330
5AA
100
AcDbEntity
  8
レイヤー_1
 62
     7
100
AcDbVertex
100
AcDb2dVertex
 10
-0.230994
 20
0.446312
 30
0.0
  0
VERTEX
  5
5AF
330
5AA
100
AcDbEntity
  8
レイヤー_1
 62
     7
100
AcDbVertex
100
AcDb2dVertex
 10
0.228238
 20
0.446657
 30
0.0
  0
VERTEX
  5
5B0
330
5AA
100
AcDbEntity
  8
レイヤー_1
 62
     7
100
AcDbVertex
100
AcDb2dVertex
 10
0.4797300000000001
 20
-0.000172
 30
0.0
  0
SEQEND
  5
5B1
330
5AA
100
AcDbEntity
  8
レイヤー_1
 62
     7
  0
ENDBLK
  5
5B2
330
5A8
100
AcDbEntity
  8
レイヤー_1
100
AcDbBlockEnd
  0
BLOCK
  5
5B4
330
5B3
100
AcDbEntity
  8
レイヤー_1
 62
     7
100
AcDbBlockBegin
  2
AI9-BLK9
 70
     0
 10
0.0
 20
0.0
 30
0.0
  3
AI9-BLK9
  1

  0
INSERT
  5
5B5
330
5B3
100
AcDbEntity
  8
レイヤー_1
 62
     7
100
AcDbBlockReference
  2
AI9-BLK11
 10
0.0
 20
0.0
 30
0.0
  0
INSERT
  5
5B6
330
5B3
100
AcDbEntity
  8
レイヤー_1
 62
     7
100
AcDbBlockReference
  2
AI9-BLK10
 10
0.0
 20
0.000086
 30
0.0
  0
ENDBLK
  5
5B7
330
5B3
100
AcDbEntity
  8
レイヤー_1
100
AcDbBlockEnd
  0
BLOCK
  5
5B9
330
5B8
100
AcDbEntity
  8
レイヤー_1
 62
     7
100
AcDbBlockBegin
  2
AI9-BLK10
 70
     0
 10
0.0
 20
0.0
 30
0.0
  3
AI9-BLK10
  1

  0
LINE
  5
5BA
330
5B8
100
AcDbEntity
  8
レイヤー_1
 62
     7
100
AcDbLine
 10
-1.932871
 20
11.050574
 30
0.0
 11
1.932871
 21
-11.050574
 31
0.0
  0
HATCH
  5
5BB
330
5B8
100
AcDbEntity
  8
レイヤー_1
 62
     7
100
AcDbHatch
 10
0.0
 20
0.0
 30
0.0
210
0.0
220
0.0
230
1.0
  2
SOLID
 70
     1
 71
     0
 91
        1
 92
        1
 93
        1
 72
     4
 94
        3
 73
     0
 74
     0
 95
       20
 96
       16
 40
0.0
 40
0.0
 40
0.0
 40
0.0
 40
1.0
 40
1.0
 40
1.0
 40
2.0
 40
2.0
 40
2.0
 40
3.0
 40
3.0
 40
3.0
 40
4.0
 40
4.0
 40
4.0
 40
5.0
 40
5.0
 40
5.0
 40
5.0
 10
2.12269558376736
 20
-11.33858439127604
 10
2.150256347656249
 20
-11.10896877712673
 10
2.186085340711804
 20
-10.95652330186632
 10
2.225703938802082
 20
-10.76928236219618
 10
2.225703938802082
 20
-10.76928236219618
 10
1.560111490885415
 20
-10.88555433485243
 10
1.560111490885415
 20
-10.88555433485243
 10
1.600763617621526
 20
-10.94308742947048
 10
1.746491156684026
 20
-11.17959323459201
 10
1.850533040364583
 20
-11.38612670898437
 10
1.96180962456597
 20
-11.6073018391927
 10
2.047247992621528
 20
-11.81056247287326
 10
2.08858913845486
 20
-11.94492119683159
 10
2.081698947482637
 20
-11.80453355577257
 10
2.093067762586804
 20
-11.58439195421007
 10
2.12269558376736
 20
-11.33858439127604
 97
        0
 75
     0
 76
     1
 98
        1
 10
0.0
 20
0.0
  0
HATCH
  5
5BC
330
5B8
100
AcDbEntity
  8
レイヤー_1
 62
     7
100
AcDbHatch
 10
0.0
 20
0.0
 30
0.0
210
0.0
220
0.0
230
1.0
  2
SOLID
 70
     1
 71
     0
 91
        1
 92
        1
 93
        1
 72
     4
 94
        3
 73
     0
 74
     0
 95
       20
 96
       16
 40
0.0
 40
0.0
 40
0.0
 40
0.0
 40
1.0
 40
1.0
 40
1.0
 40
2.0
 40
2.0
 40
2.0
 40
3.0
 40
3.0
 40
3.0
 40
4.0
 40
4.0
 40
4.0
 40
5.0
 40
5.0
 40
5.0
 40
5.0
 10
-2.12269558376736
 20
11.33858439127604
 10
-2.150256347656249
 20
11.10896877712673
 10
-2.186085340711804
 20
10.95652330186632
 10
-2.225703938802082
 20
10.76911010742187
 10
-2.225703938802082
 20
10.76911010742187
 10
-1.560111490885415
 20
10.88555433485243
 10
-1.560111490885415
 20
10.88555433485243
 10
-1.600763617621526
 20
10.94308742947048
 10
-1.746491156684026
 20
11.17942097981771
 10
-1.850533040364583
 20
11.38612670898437
 10
-1.96180962456597
 20
11.6073018391927
 10
-2.047247992621528
 20
11.81056247287326
 10
-2.08858913845486
 20
11.94492119683159
 10
-2.081698947482637
 20
11.80453355577257
 10
-2.093067762586804
 20
11.58439195421007
 10
-2.12269558376736
 20
11.33858439127604
 97
        0
 75
     0
 76
     1
 98
        1
 10
0.0
 20
0.0
  0
ENDBLK
  5
5BD
330
5B8
100
AcDbEntity
  8
レイヤー_1
100
AcDbBlockEnd
  0
BLOCK
  5
5BF
330
5BE
100
AcDbEntity
  8
レイヤー_1
 62
     7
100
AcDbBlockBegin
  2
AI9-BLK11
 70
     0
 10
0.0
 20
0.0
 30
0.0
  3
AI9-BLK11
  1

  0
SPLINE
  5
5C0
330
5BE
100
AcDbEntity
  8
レイヤー_1
 62
     7
100
AcDbSpline
210
0.0
220
0.0
230
1.0
 70
    11
 71
     3
 72
    20
 73
    16
 74
     0
 42
0.0000000001
 43
0.0000000001
 40
0.0
 40
0.0
 40
0.0
 40
0.0
 40
1.0
 40
1.0
 40
1.0
 40
2.0
 40
2.0
 40
2.0
 40
3.0
 40
3.0
 40
3.0
 40
4.0
 40
4.0
 40
4.0
 40
5.0
 40
5.0
 40
5.0
 40
5.0
 10
2.432409667968749
 20
-11.80892605251736
 30
0.0
 10
2.505445692274305
 20
-11.20413953993055
 30
0.0
 10
2.599841308593749
 20
-10.8026136610243
 30
0.0
 10
2.704572211371528
 20
-10.3094482421875
 30
0.0
 10
2.704572211371528
 20
-10.3094482421875
 30
0.0
 10
0.9513631184895832
 20
-10.61606174045139
 30
0.0
 10
0.9513631184895832
 20
-10.61606174045139
 30
0.0
 10
1.058505588107637
 20
-10.76730143229166
 30
0.0
 10
1.442633734809026
 20
-11.39000244140625
 30
0.0
 10
1.716174316406249
 20
-11.9343275282118
 30
0.0
 10
2.009696451822915
 20
-12.51672092013888
 30
0.0
 10
2.233972167968749
 20
-13.05191650390624
 30
0.0
 10
2.342837185329859
 20
-13.40572781032986
 30
0.0
 10
2.324922688802083
 20
-13.03606906467013
 30
0.0
 10
2.354206000434026
 20
-12.45625949435764
 30
0.0
 10
2.432409667968749
 20
-11.80892605251736
 30
0.0
  0
SPLINE
  5
5C1
330
5BE
100
AcDbEntity
  8
レイヤー_1
 62
     7
100
AcDbSpline
210
0.0
220
0.0
230
1.0
 70
    11
 71
     3
 72
    20
 73
    16
 74
     0
 42
0.0000000001
 43
0.0000000001
 40
0.0
 40
0.0
 40
0.0
 40
0.0
 40
1.0
 40
1.0
 40
1.0
 40
2.0
 40
2.0
 40
2.0
 40
3.0
 40
3.0
 40
3.0
 40
4.0
 40
4.0
 40
4.0
 40
5.0
 40
5.0
 40
5.0
 40
5.0
 10
-2.432409667968749
 20
11.80909830729166
 30
0.0
 10
-2.505445692274305
 20
11.20431179470486
 30
0.0
 10
-2.599841308593749
 20
10.80278591579861
 30
0.0
 10
-2.704572211371528
 20
10.3096204969618
 30
0.0
 10
-2.704572211371528
 20
10.3096204969618
 30
0.0
 10
-0.9513631184895832
 20
10.61623399522569
 30
0.0
 10
-0.9513631184895832
 20
10.61623399522569
 30
0.0
 10
-1.058505588107637
 20
10.76747368706597
 30
0.0
 10
-1.442633734809026
 20
11.39017469618055
 30
0.0
 10
-1.716174316406249
 20
11.93449978298611
 30
0.0
 10
-2.009696451822915
 20
12.51689317491319
 30
0.0
 10
-2.233972167968749
 20
13.05226101345486
 30
0.0
 10
-2.342837185329859
 20
13.40572781032986
 30
0.0
 10
-2.324922688802083
 20
13.03624131944444
 30
0.0
 10
-2.354206000434026
 20
12.45660400390625
 30
0.0
 10
-2.432409667968749
 20
11.80909830729166
 30
0.0
  0
ENDBLK
  5
5C2
330
5BE
100
AcDbEntity
  8
レイヤー_1
100
AcDbBlockEnd
  0
BLOCK
  5
5C4
330
5C3
100
AcDbEntity
  8
レイヤー_1
 62
     7
100
AcDbBlockBegin
  2
AI9-BLK12
 70
     0
 10
0.0
 20
0.0
 30
0.0
  3
AI9-BLK12
  1

  0
INSERT
  5
5C5
330
5C3
100
AcDbEntity
  8
レイヤー_1
 62
     7
100
AcDbBlockReference
  2
AI9-BLK14
 10
0.0
 20
0.0
 30
0.0
  0
INSERT
  5
5C6
330
5C3
100
AcDbEntity
  8
レイヤー_1
 62
     7
100
AcDbBlockReference
  2
AI9-BLK13
 10
-0.000172
 20
0.0
 30
0.0
  0
ENDBLK
  5
5C7
330
5C3
100
AcDbEntity
  8
レイヤー_1
100
AcDbBlockEnd
  0
BLOCK
  5
5C9
330
5C8
100
AcDbEntity
  8
レイヤー_1
 62
     7
100
AcDbBlockBegin
  2
AI9-BLK13
 70
     0
 10
0.0
 20
0.0
 30
0.0
  3
AI9-BLK13
  1

  0
LINE
  5
5CA
330
5C8
100
AcDbEntity
  8
レイヤー_1
 62
     7
100
AcDbLine
 10
10.951614
 20
2.987673
 30
0.0
 11
-10.95127
 21
-2.987673
 31
0.0
  0
HATCH
  5
5CB
330
5C8
100
AcDbEntity
  8
レイヤー_1
 62
     7
100
AcDbHatch
 10
0.0
 20
0.0
 30
0.0
210
0.0
220
0.0
230
1.0
  2
SOLID
 70
     1
 71
     0
 91
        1
 92
        1
 93
        1
 72
     4
 94
        3
 73
     0
 74
     0
 95
       20
 96
       16
 40
0.0
 40
0.0
 40
0.0
 40
0.0
 40
1.0
 40
1.0
 40
1.0
 40
2.0
 40
2.0
 40
2.0
 40
3.0
 40
3.0
 40
3.0
 40
4.0
 40
4.0
 40
4.0
 40
5.0
 40
5.0
 40
5.0
 40
5.0
 10
-11.22033148871527
 20
-3.203335910373263
 10
-10.98916558159722
 20
-3.209537082248263
 10
-10.83413628472222
 20
-3.231068929036458
 10
-10.64396701388888
 20
-3.253289794921873
 10
-10.64396701388888
 20
-3.253289794921873
 10
-10.82173394097222
 20
-2.601305474175345
 10
-10.82173394097222
 20
-2.601305474175345
 10
-10.87513292100694
 20
-2.647125244140625
 10
-11.0969970703125
 20
-2.814212375217013
 10
-11.29302300347222
 20
-2.936857774522568
 10
-11.50282931857638
 20
-3.068460422092013
 10
-11.69747721354166
 20
-3.172157796223958
 10
-11.82735731336805
 20
-3.225729031032984
 10
-11.68817545572916
 20
-3.206091986762151
 10
-11.46803385416666
 20
-3.196617974175345
 10
-11.22033148871527
 20
-3.203335910373263
 97
        0
 75
     0
 76
     1
 98
        1
 10
0.0
 20
0.0
  0
HATCH
  5
5CC
330
5C8
100
AcDbEntity
  8
レイヤー_1
 62
     7
100
AcDbHatch
 10
0.0
 20
0.0
 30
0.0
210
0.0
220
0.0
230
1.0
  2
SOLID
 70
     1
 71
     0
 91
        1
 92
        1
 93
        1
 72
     4
 94
        3
 73
     0
 74
     0
 95
       20
 96
       16
 40
0.0
 40
0.0
 40
0.0
 40
0.0
 40
1.0
 40
1.0
 40
1.0
 40
2.0
 40
2.0
 40
2.0
 40
3.0
 40
3.0
 40
3.0
 40
4.0
 40
4.0
 40
4.0
 40
5.0
 40
5.0
 40
5.0
 40
5.0
 10
11.22067599826388
 20
3.203335910373263
 10
10.98951009114583
 20
3.209537082248263
 10
10.83448079427083
 20
3.231068929036458
 10
10.6443115234375
 20
3.253289794921873
 10
10.6443115234375
 20
3.253289794921873
 10
10.82207845052083
 20
2.601305474175345
 10
10.82207845052083
 20
2.601305474175345
 10
10.87547743055555
 20
2.647125244140625
 10
11.09734157986111
 20
2.814212375217013
 10
11.29336751302083
 20
2.936857774522568
 10
11.503173828125
 20
3.068460422092013
 10
11.69782172309027
 20
3.172157796223958
 10
11.82735731336805
 20
3.225901285807291
 10
11.68851996527777
 20
3.206091986762151
 10
11.46837836371527
 20
3.196617974175345
 10
11.22067599826388
 20
3.203335910373263
 97
        0
 75
     0
 76
     1
 98
        1
 10
0.0
 20
0.0
  0
ENDBLK
  5
5CD
330
5C8
100
AcDbEntity
  8
レイヤー_1
100
AcDbBlockEnd
  0
BLOCK
  5
5CF
330
5CE
100
AcDbEntity
  8
レイヤー_1
 62
     7
100
AcDbBlockBegin
  2
AI9-BLK14
 70
     0
 10
0.0
 20
0.0
 30
0.0
  3
AI9-BLK14
  1

  0
SPLINE
  5
5D0
330
5CE
100
AcDbEntity
  8
レイヤー_1
 62
     7
100
AcDbSpline
210
0.0
220
0.0
230
1.0
 70
    11
 71
     3
 72
    20
 73
    16
 74
     0
 42
0.0000000001
 43
0.0000000001
 40
0.0
 40
0.0
 40
0.0
 40
0.0
 40
1.0
 40
1.0
 40
1.0
 40
2.0
 40
2.0
 40
2.0
 40
3.0
 40
3.0
 40
3.0
 40
4.0
 40
4.0
 40
4.0
 40
5.0
 40
5.0
 40
5.0
 40
5.0
 10
-11.66009792751736
 20
-3.555596923828123
 30
0.0
 10
-11.05100504557291
 20
-3.571961127387151
 30
0.0
 10
-10.64276123046875
 20
-3.62863294813368
 30
0.0
 10
-10.14184434678819
 20
-3.687027316623264
 30
0.0
 10
-10.14184434678819
 20
-3.687027316623264
 30
0.0
 10
-10.61003282335069
 20
-1.969991726345485
 30
0.0
 10
-10.61003282335069
 20
-1.969991726345485
 30
0.0
 10
-10.75093722873264
 20
-2.090914577907985
 30
0.0
 10
-11.33522542317708
 20
-2.53102552625868
 30
0.0
 10
-11.85164523654514
 20
-2.854003228081595
 30
0.0
 10
-12.40423855251736
 20
-3.200407579210068
 30
0.0
 10
-12.91617974175347
 20
-3.473775906032984
 30
0.0
 10
-13.2582777235243
 20
-3.614852566189235
 30
0.0
 10
-12.89206407335069
 20
-3.562831624348957
 30
0.0
 10
-12.31190999348958
 20
-3.538199191623264
 30
0.0
 10
-11.66009792751736
 20
-3.555596923828123
 30
0.0
  0
SPLINE
  5
5D1
330
5CE
100
AcDbEntity
  8
レイヤー_1
 62
     7
100
AcDbSpline
210
0.0
220
0.0
230
1.0
 70
    11
 71
     3
 72
    20
 73
    16
 74
     0
 42
0.0000000001
 43
0.0000000001
 40
0.0
 40
0.0
 40
0.0
 40
0.0
 40
1.0
 40
1.0
 40
1.0
 40
2.0
 40
2.0
 40
2.0
 40
3.0
 40
3.0
 40
3.0
 40
4.0
 40
4.0
 40
4.0
 40
5.0
 40
5.0
 40
5.0
 40
5.0
 10
11.66009792751736
 20
3.555596923828123
 30
0.0
 10
11.05100504557291
 20
3.571961127387151
 30
0.0
 10
10.64276123046875
 20
3.62863294813368
 30
0.0
 10
10.14184434678819
 20
3.687027316623264
 30
0.0
 10
10.14184434678819
 20
3.687027316623264
 30
0.0
 10
10.6103773328993
 20
1.969991726345485
 30
0.0
 10
10.6103773328993
 20
1.969991726345485
 30
0.0
 10
10.75093722873264
 20
2.090914577907985
 30
0.0
 10
11.33522542317708
 20
2.53102552625868
 30
0.0
 10
11.85164523654514
 20
2.854003228081595
 30
0.0
 10
12.40423855251736
 20
3.200407579210068
 30
0.0
 10
12.91617974175347
 20
3.473775906032984
 30
0.0
 10
13.2582777235243
 20
3.614852566189235
 30
0.0
 10
12.89206407335069
 20
3.562831624348957
 30
0.0
 10
12.31190999348958
 20
3.538026936848956
 30
0.0
 10
11.66009792751736
 20
3.555596923828123
 30
0.0
  0
ENDBLK
  5
5D2
330
5CE
100
AcDbEntity
  8
レイヤー_1
100
AcDbBlockEnd
  0
BLOCK
  5
5D4
330
5D3
100
AcDbEntity
  8
レイヤー_1
 62
     7
100
AcDbBlockBegin
  2
AI9-BLK15
 70
     0
 10
0.0
 20
0.0
 30
0.0
  3
AI9-BLK15
  1

  0
INSERT
  5
5D5
330
5D3
100
AcDbEntity
  8
レイヤー_1
 62
     7
100
AcDbBlockReference
  2
AI9-BLK17
 10
0.0
 20
0.0
 30
0.0
  0
INSERT
  5
5D6
330
5D3
100
AcDbEntity
  8
レイヤー_1
 62
     7
100
AcDbBlockReference
  2
AI9-BLK16
 10
0.0
 20
0.0
 30
0.0
  0
ENDBLK
  5
5D7
330
5D3
100
AcDbEntity
  8
レイヤー_1
100
AcDbBlockEnd
  0
BLOCK
  5
5D9
330
5D8
100
AcDbEntity
  8
レイヤー_1
 62
     7
100
AcDbBlockBegin
  2
AI9-BLK16
 70
     0
 10
0.0
 20
0.0
 30
0.0
  3
AI9-BLK16
  1

  0
LINE
  5
5DA
330
5D8
100
AcDbEntity
  8
レイヤー_1
 62
     7
100
AcDbLine
 10
19.794141
 20
0.0
 30
0.0
 11
-19.794141
 21
0.0
 31
0.0
  0
HATCH
  5
5DB
330
5D8
100
AcDbEntity
  8
レイヤー_1
 62
     7
100
AcDbHatch
 10
0.0
 20
0.0
 30
0.0
210
0.0
220
0.0
230
1.0
  2
SOLID
 70
     1
 71
     0
 91
        1
 92
        1
 93
        1
 72
     4
 94
        3
 73
     0
 74
     0
 95
       20
 96
       16
 40
0.0
 40
0.0
 40
0.0
 40
0.0
 40
1.0
 40
1.0
 40
1.0
 40
2.0
 40
2.0
 40
2.0
 40
3.0
 40
3.0
 40
3.0
 40
4.0
 40
4.0
 40
4.0
 40
5.0
 40
5.0
 40
5.0
 40
5.0
 10
-20.09885932074653
 20
-0.1321194118923611
 10
-19.88560791015624
 20
-0.1965426974826389
 10
-19.74694281684027
 20
-0.25579833984375
 10
-19.57572157118055
 20
-0.3247002495659722
 10
-19.57572157118055
 20
-0.3247002495659722
 10
-19.57572157118055
 20
0.3262505425347222
 10
-19.57572157118055
 20
0.3262505425347222
 10
-19.63704427083333
 20
0.2971394856770833
 10
-19.88560791015624
 20
0.1980929904513889
 10
-20.09885932074653
 20
0.1338419596354167
 10
-20.32726915147569
 20
0.0647677951388889
 10
-20.53431939019097
 20
0.0177422417534722
 10
-20.668505859375
 20
0.0008612738715278
 10
-20.53431939019097
 20
-0.0160196940104167
 10
-20.32726915147569
 20
-0.0632175021701389
 10
-20.09885932074653
 20
-0.1321194118923611
 97
        0
 75
     0
 76
     1
 98
        1
 10
0.0
 20
0.0
  0
HATCH
  5
5DC
330
5D8
100
AcDbEntity
  8
レイヤー_1
 62
     7
100
AcDbHatch
 10
0.0
 20
0.0
 30
0.0
210
0.0
220
0.0
230
1.0
  2
SOLID
 70
     1
 71
     0
 91
        1
 92
        1
 93
        1
 72
     4
 94
        3
 73
     0
 74
     0
 95
       20
 96
       16
 40
0.0
 40
0.0
 40
0.0
 40
0.0
 40
1.0
 40
1.0
 40
1.0
 40
2.0
 40
2.0
 40
2.0
 40
3.0
 40
3.0
 40
3.0
 40
4.0
 40
4.0
 40
4.0
 40
5.0
 40
5.0
 40
5.0
 40
5.0
 10
20.09885932074653
 20
0.1321194118923611
 10
19.88560791015624
 20
0.1965426974826389
 10
19.74694281684027
 20
0.2559705946180556
 10
19.57572157118055
 20
0.3247002495659722
 10
19.57572157118055
 20
0.3247002495659722
 10
19.57572157118055
 20
-0.3262505425347222
 10
19.57572157118055
 20
-0.3262505425347222
 10
19.63704427083333
 20
-0.2971394856770833
 10
19.88560791015624
 20
-0.1980929904513889
 10
20.09885932074653
 20
-0.1338419596354167
 10
20.32726915147569
 20
-0.0647677951388889
 10
20.53431939019097
 20
-0.0177422417534722
 10
20.668505859375
 20
-0.0008612738715278
 10
20.53431939019097
 20
0.0161919487847222
 10
20.32726915147569
 20
0.0632175021701389
 10
20.09885932074653
 20
0.1321194118923611
 97
        0
 75
     0
 76
     1
 98
        1
 10
0.0
 20
0.0
  0
ENDBLK
  5
5DD
330
5D8
100
AcDbEntity
  8
レイヤー_1
100
AcDbBlockEnd
  0
BLOCK
  5
5DF
330
5DE
100
AcDbEntity
  8
レイヤー_1
 62
     7
100
AcDbBlockBegin
  2
AI9-BLK17
 70
     0
 10
0.0
 20
0.0
 30
0.0
  3
AI9-BLK17
  1

  0
SPLINE
  5
5E0
330
5DE
100
AcDbEntity
  8
レイヤー_1
 62
     7
100
AcDbSpline
210
0.0
220
0.0
230
1.0
 70
    11
 71
     3
 72
    20
 73
    16
 74
     0
 42
0.0000000001
 43
0.0000000001
 40
0.0
 40
0.0
 40
0.0
 40
0.0
 40
1.0
 40
1.0
 40
1.0
 40
2.0
 40
2.0
 40
2.0
 40
3.0
 40
3.0
 40
3.0
 40
4.0
 40
4.0
 40
4.0
 40
5.0
 40
5.0
 40
5.0
 40
5.0
 10
-20.62733696831597
 20
-0.3613905164930555
 30
0.0
 10
-20.04408230251736
 20
-0.5374348958333333
 30
0.0
 10
-19.66494954427083
 20
-0.6996988932291666
 30
0.0
 10
-19.19710557725694
 20
-0.8878011067708332
 30
0.0
 10
-19.19710557725694
 20
-0.8878011067708332
 30
0.0
 10
-19.19710557725694
 20
0.8919352213541666
 30
0.0
 10
-19.19710557725694
 20
0.8919352213541666
 30
0.0
 10
-19.36453721788194
 20
0.812353515625
 30
0.0
 10
-20.04408230251736
 20
0.5415690104166666
 30
0.0
 10
-20.62733696831597
 20
0.365869140625
 30
0.0
 10
-21.25158827039931
 20
0.1770779079861111
 30
0.0
 10
-21.81761745876736
 20
0.0482313368055556
 30
0.0
 10
-22.1846923828125
 20
0.0020670572916667
 30
0.0
 10
-21.81761745876736
 20
-0.0440972222222222
 30
0.0
 10
-21.25158827039931
 20
-0.1729437934027778
 30
0.0
 10
-20.62733696831597
 20
-0.3613905164930555
 30
0.0
  0
SPLINE
  5
5E1
330
5DE
100
AcDbEntity
  8
レイヤー_1
 62
     7
100
AcDbSpline
210
0.0
220
0.0
230
1.0
 70
    11
 71
     3
 72
    20
 73
    16
 74
     0
 42
0.0000000001
 43
0.0000000001
 40
0.0
 40
0.0
 40
0.0
 40
0.0
 40
1.0
 40
1.0
 40
1.0
 40
2.0
 40
2.0
 40
2.0
 40
3.0
 40
3.0
 40
3.0
 40
4.0
 40
4.0
 40
4.0
 40
5.0
 40
5.0
 40
5.0
 40
5.0
 10
20.62733696831597
 20
0.3613905164930555
 30
0.0
 10
20.04408230251736
 20
0.5374348958333333
 30
0.0
 10
19.66494954427083
 20
0.6996988932291666
 30
0.0
 10
19.19710557725694
 20
0.8878011067708332
 30
0.0
 10
19.19710557725694
 20
0.8878011067708332
 30
0.0
 10
19.19710557725694
 20
-0.8919352213541666
 30
0.0
 10
19.19710557725694
 20
-0.8919352213541666
 30
0.0
 10
19.36453721788194
 20
-0.812353515625
 30
0.0
 10
20.04408230251736
 20
-0.5415690104166666
 30
0.0
 10
20.62733696831597
 20
-0.365869140625
 30
0.0
 10
21.25158827039931
 20
-0.1770779079861111
 30
0.0
 10
21.81761745876736
 20
-0.0482313368055556
 30
0.0
 10
22.1846923828125
 20
-0.0020670572916667
 30
0.0
 10
21.81761745876736
 20
0.0440972222222222
 30
0.0
 10
21.25158827039931
 20
0.1729437934027778
 30
0.0
 10
20.62733696831597
 20
0.3613905164930555
 30
0.0
  0
ENDBLK
  5
5E2
330
5DE
100
AcDbEntity
  8
レイヤー_1
100
AcDbBlockEnd
  0
BLOCK
  5
5E4
330
5E3
100
AcDbEntity
  8
レイヤー_1
 62
     7
100
AcDbBlockBegin
  2
AI9-BLK18
 70
     0
 10
0.0
 20
0.0
 30
0.0
  3
AI9-BLK18
  1

  0
LINE
  5
5E5
330
5E3
100
AcDbEntity
  8
レイヤー_1
 62
     7
100
AcDbLine
 10
0.000172
 20
-14.576113
 30
0.0
 11
0.000172
 21
14.576285
 31
0.0
  0
HATCH
  5
5E6
330
5E3
100
AcDbEntity
  8
レイヤー_1
 62
     7
100
AcDbHatch
 10
0.0
 20
0.0
 30
0.0
210
0.0
220
0.0
230
1.0
  2
SOLID
 70
     1
 71
     0
 91
        1
 92
        1
 93
        1
 72
     4
 94
        3
 73
     0
 74
     0
 95
       20
 96
       16
 40
0.0
 40
0.0
 40
0.0
 40
0.0
 40
1.0
 40
1.0
 40
1.0
 40
2.0
 40
2.0
 40
2.0
 40
3.0
 40
3.0
 40
3.0
 40
4.0
 40
4.0
 40
4.0
 40
5.0
 40
5.0
 40
5.0
 40
5.0
 10
-0.1374593098958333
 20
14.89133911132812
 10
-0.2044664171006944
 20
14.67119750976562
 10
-0.2659613715277778
 20
14.52736477322048
 10
-0.3369303385416667
 20
14.34873657226562
 10
-0.3369303385416667
 20
14.34873657226562
 10
0.3384806315104166
 20
14.34873657226562
 10
0.3384806315104166
 20
14.34873657226562
 10
0.3083360460069444
 20
14.41298760308159
 10
0.2056722005208333
 20
14.67119750976562
 10
0.1386650933159722
 20
14.89133911132812
 10
0.0671793619791667
 20
15.12887844509548
 10
0.0180867513020833
 20
15.3435078938802
 10
0.0006890190972222
 20
15.4830342610677
 10
-0.0165364583333333
 20
15.3435078938802
 10
-0.0656290690104167
 20
15.12887844509548
 10
-0.1374593098958333
 20
14.89133911132812
 97
        0
 75
     0
 76
     1
 98
        1
 10
0.0
 20
0.0
  0
HATCH
  5
5E7
330
5E3
100
AcDbEntity
  8
レイヤー_1
 62
     7
100
AcDbHatch
 10
0.0
 20
0.0
 30
0.0
210
0.0
220
0.0
230
1.0
  2
SOLID
 70
     1
 71
     0
 91
        1
 92
        1
 93
        1
 72
     4
 94
        3
 73
     0
 74
     0
 95
       20
 96
       16
 40
0.0
 40
0.0
 40
0.0
 40
0.0
 40
1.0
 40
1.0
 40
1.0
 40
2.0
 40
2.0
 40
2.0
 40
3.0
 40
3.0
 40
3.0
 40
4.0
 40
4.0
 40
4.0
 40
5.0
 40
5.0
 40
5.0
 40
5.0
 10
0.1374593098958333
 20
-14.89133911132812
 10
0.2044664171006944
 20
-14.670853000217
 10
0.2657891167534722
 20
-14.52702026367187
 10
0.3369303385416667
 20
-14.34839206271701
 10
0.3369303385416667
 20
-14.34839206271701
 10
-0.3384806315104166
 20
-14.34839206271701
 10
-0.3384806315104166
 20
-14.34839206271701
 10
-0.3083360460069444
 20
-14.41298760308159
 10
-0.2056722005208333
 20
-14.670853000217
 10
-0.1388373480902778
 20
-14.89133911132812
 10
-0.0668348524305556
 20
-15.12853393554687
 10
-0.0180867513020833
 20
-15.3435078938802
 10
-0.0008612738715278
 20
-15.4830342610677
 10
0.0168809678819444
 20
-15.3435078938802
 10
0.0656290690104167
 20
-15.12853393554687
 10
0.1374593098958333
 20
-14.89133911132812
 97
        0
 75
     0
 76
     1
 98
        1
 10
0.0
 20
0.0
  0
ENDBLK
  5
5E8
330
5E3
100
AcDbEntity
  8
レイヤー_1
100
AcDbBlockEnd
  0
BLOCK
  5
5EA
330
5E9
100
AcDbEntity
  8
レイヤー_1
 62
     7
100
AcDbBlockBegin
  2
AI9-BLK19
 70
     0
 10
0.0
 20
0.0
 30
0.0
  3
AI9-BLK19
  1

  0
INSERT
  5
5EB
330
5E9
100
AcDbEntity
  8
レイヤー_1
 62
     7
100
AcDbBlockReference
  2
AI9-BLK21
 10
0.0
 20
0.0
 30
0.0
  0
INSERT
  5
5EC
330
5E9
100
AcDbEntity
  8
レイヤー_1
 62
     7
100
AcDbBlockReference
  2
AI9-BLK20
 10
0.0
 20
0.0
 30
0.0
  0
ENDBLK
  5
5ED
330
5E9
100
AcDbEntity
  8
レイヤー_1
100
AcDbBlockEnd
  0
BLOCK
  5
5EF
330
5EE
100
AcDbEntity
  8
レイヤー_1
 62
     7
100
AcDbBlockBegin
  2
AI9-BLK20
 70
     0
 10
0.0
 20
0.0
 30
0.0
  3
AI9-BLK20
  1

  0
LINE
  5
5F0
330
5EE
100
AcDbEntity
  8
レイヤー_1
 62
     7
100
AcDbLine
 10
0.0
 20
-6.603041999999998
 30
0.0
 11
0.0
 21
6.603041999999998
 31
0.0
  0
HATCH
  5
5F1
330
5EE
100
AcDbEntity
  8
レイヤー_1
 62
     7
100
AcDbHatch
 10
0.0
 20
0.0
 30
0.0
210
0.0
220
0.0
230
1.0
  2
SOLID
 70
     1
 71
     0
 91
        1
 92
        1
 93
        1
 72
     4
 94
        3
 73
     0
 74
     0
 95
       20
 96
       16
 40
0.0
 40
0.0
 40
0.0
 40
0.0
 40
1.0
 40
1.0
 40
1.0
 40
2.0
 40
2.0
 40
2.0
 40
3.0
 40
3.0
 40
3.0
 40
4.0
 40
4.0
 40
4.0
 40
5.0
 40
5.0
 40
5.0
 40
5.0
 10
-0.1372870551215278
 20
6.919474283854166
 10
-0.2041219075520833
 20
6.697954644097221
 10
-0.2656168619791666
 20
6.553949652777777
 10
-0.3371025933159722
 20
6.376354980468748
 10
-0.3371025933159722
 20
6.376354980468748
 10
0.3386528862847222
 20
6.376354980468748
 10
0.3386528862847222
 20
6.376354980468748
 10
0.30850830078125
 20
6.4399169921875
 10
0.2056722005208333
 20
6.697954644097221
 10
0.1388373480902778
 20
6.919474283854166
 10
0.0671793619791667
 20
7.156496853298608
 10
0.0182590060763889
 20
7.371298556857636
 10
0.0006890190972222
 20
7.510824924045136
 10
-0.0167087131076389
 20
7.371298556857636
 10
-0.0656290690104167
 20
7.156496853298608
 10
-0.1372870551215278
 20
6.919474283854166
 97
        0
 75
     0
 76
     1
 98
        1
 10
0.0
 20
0.0
  0
HATCH
  5
5F2
330
5EE
100
AcDbEntity
  8
レイヤー_1
 62
     7
100
AcDbHatch
 10
0.0
 20
0.0
 30
0.0
210
0.0
220
0.0
230
1.0
  2
SOLID
 70
     1
 71
     0
 91
        1
 92
        1
 93
        1
 72
     4
 94
        3
 73
     0
 74
     0
 95
       20
 96
       16
 40
0.0
 40
0.0
 40
0.0
 40
0.0
 40
1.0
 40
1.0
 40
1.0
 40
2.0
 40
2.0
 40
2.0
 40
3.0
 40
3.0
 40
3.0
 40
4.0
 40
4.0
 40
4.0
 40
5.0
 40
5.0
 40
5.0
 40
5.0
 10
0.1372870551215278
 20
-6.919474283854166
 10
0.2041219075520833
 20
-6.697954644097221
 10
0.2656168619791666
 20
-6.553949652777777
 10
0.3371025933159722
 20
-6.376354980468748
 10
0.3371025933159722
 20
-6.376354980468748
 10
-0.3386528862847222
 20
-6.376354980468748
 10
-0.3386528862847222
 20
-6.376354980468748
 10
-0.30850830078125
 20
-6.4399169921875
 10
-0.2056722005208333
 20
-6.697954644097221
 10
-0.1388373480902778
 20
-6.919474283854166
 10
-0.0671793619791667
 20
-7.156496853298608
 10
-0.0182590060763889
 20
-7.371298556857636
 10
-0.0008612738715278
 20
-7.510824924045136
 10
0.0167087131076389
 20
-7.371298556857636
 10
0.0656290690104167
 20
-7.156496853298608
 10
0.1372870551215278
 20
-6.919474283854166
 97
        0
 75
     0
 76
     1
 98
        1
 10
0.0
 20
0.0
  0
ENDBLK
  5
5F3
330
5EE
100
AcDbEntity
  8
レイヤー_1
100
AcDbBlockEnd
  0
BLOCK
  5
5F5
330
5F4
100
AcDbEntity
  8
レイヤー_1
 62
     7
100
AcDbBlockBegin
  2
AI9-BLK21
 70
     0
 10
0.0
 20
0.0
 30
0.0
  3
AI9-BLK21
  1

  0
SPLINE
  5
5F6
330
5F4
100
AcDbEntity
  8
レイヤー_1
 62
     7
100
AcDbSpline
210
0.0
220
0.0
230
1.0
 70
    11
 71
     3
 72
    20
 73
    16
 74
     0
 42
0.0000000001
 43
0.0000000001
 40
0.0
 40
0.0
 40
0.0
 40
0.0
 40
1.0
 40
1.0
 40
1.0
 40
2.0
 40
2.0
 40
2.0
 40
3.0
 40
3.0
 40
3.0
 40
4.0
 40
4.0
 40
4.0
 40
5.0
 40
5.0
 40
5.0
 40
5.0
 10
-0.3613905164930555
 20
7.436238606770832
 30
0.0
 10
-0.5374348958333333
 20
6.852983940972221
 30
0.0
 10
-0.6996988932291666
 20
6.473851182725692
 30
0.0
 10
-0.8878011067708332
 20
6.006007215711804
 30
0.0
 10
-0.8878011067708332
 20
6.006007215711804
 30
0.0
 10
0.8919352213541666
 20
6.006007215711804
 30
0.0
 10
0.8919352213541666
 20
6.006007215711804
 30
0.0
 10
0.812353515625
 20
6.173438856336805
 30
0.0
 10
0.5415690104166666
 20
6.852983940972221
 30
0.0
 10
0.365869140625
 20
7.436238606770832
 30
0.0
 10
0.1770779079861111
 20
8.060489908854162
 30
0.0
 10
0.0482313368055556
 20
8.626519097222221
 30
0.0
 10
0.0020670572916667
 20
8.993594021267361
 30
0.0
 10
-0.0440972222222222
 20
8.626519097222221
 30
0.0
 10
-0.1729437934027778
 20
8.060489908854162
 30
0.0
 10
-0.3613905164930555
 20
7.436238606770832
 30
0.0
  0
SPLINE
  5
5F7
330
5F4
100
AcDbEntity
  8
レイヤー_1
 62
     7
100
AcDbSpline
210
0.0
220
0.0
230
1.0
 70
    11
 71
     3
 72
    20
 73
    16
 74
     0
 42
0.0000000001
 43
0.0000000001
 40
0.0
 40
0.0
 40
0.0
 40
0.0
 40
1.0
 40
1.0
 40
1.0
 40
2.0
 40
2.0
 40
2.0
 40
3.0
 40
3.0
 40
3.0
 40
4.0
 40
4.0
 40
4.0
 40
5.0
 40
5.0
 40
5.0
 40
5.0
 10
0.3613905164930555
 20
-7.436238606770832
 30
0.0
 10
0.5374348958333333
 20
-6.852983940972221
 30
0.0
 10
0.6996988932291666
 20
-6.473851182725692
 30
0.0
 10
0.8878011067708332
 20
-6.006007215711804
 30
0.0
 10
0.8878011067708332
 20
-6.006007215711804
 30
0.0
 10
-0.8919352213541666
 20
-6.006007215711804
 30
0.0
 10
-0.8919352213541666
 20
-6.006007215711804
 30
0.0
 10
-0.812353515625
 20
-6.173438856336805
 30
0.0
 10
-0.5415690104166666
 20
-6.852983940972221
 30
0.0
 10
-0.365869140625
 20
-7.436238606770832
 30
0.0
 10
-0.1770779079861111
 20
-8.060489908854162
 30
0.0
 10
-0.0482313368055556
 20
-8.626519097222221
 30
0.0
 10
-0.0020670572916667
 20
-8.993594021267361
 30
0.0
 10
0.0440972222222222
 20
-8.626519097222221
 30
0.0
 10
0.1729437934027778
 20
-8.060489908854162
 30
0.0
 10
0.3613905164930555
 20
-7.436238606770832
 30
0.0
  0
ENDBLK
  5
5F8
330
5F4
100
AcDbEntity
  8
レイヤー_1
100
AcDbBlockEnd
  0
BLOCK
  5
5FA
330
5F9
100
AcDbEntity
  8
レイヤー_1
 62
     7
100
AcDbBlockBegin
  2
AI9-BLK22
 70
     0
 10
0.0
 20
0.0
 30
0.0
  3
AI9-BLK22
  1

  0
LINE
  5
5FB
330
5F9
100
AcDbEntity
  8
レイヤー_1
 62
     7
100
AcDbLine
 10
-0.4471729999999999
 20
1.706011
 30
0.0
 11
0.446829
 21
-1.706011
 31
0.0
  0
LINE
  5
5FC
330
5F9
100
AcDbEntity
  8
レイヤー_1
 62
     7
100
AcDbLine
 10
-1.706011
 20
-0.4470010000000002
 30
0.0
 11
1.706011
 21
0.4470010000000002
 31
0.0
  0
ENDBLK
  5
5FD
330
5F9
100
AcDbEntity
  8
レイヤー_1
100
AcDbBlockEnd
  0
BLOCK
  5
5FF
330
5FE
100
AcDbEntity
  8
レイヤー_1
 62
     7
100
AcDbBlockBegin
  2
AI9-BLK23
 70
     0
 10
0.0
 20
0.0
 30
0.0
  3
AI9-BLK23
  1

  0
LINE
  5
600
330
5FE
100
AcDbEntity
  8
レイヤー_1
 62
     7
100
AcDbLine
 10
-0.446829
 20
1.705924999999998
 30
0.0
 11
0.4471729999999999
 21
-1.705924999999998
 31
0.0
  0
LINE
  5
601
330
5FE
100
AcDbEntity
  8
レイヤー_1
 62
     7
100
AcDbLine
 10
-1.706011
 20
-0.447087
 30
0.0
 11
1.706011
 21
0.4469149999999999
 31
0.0
  0
ENDBLK
  5
602
330
5FE
100
AcDbEntity
  8
レイヤー_1
100
AcDbBlockEnd
  0
BLOCK
  5
604
330
603
100
AcDbEntity
  8
レイヤー_1
 62
     7
100
AcDbBlockBegin
  2
AI9-BLK24
 70
     0
 10
0.0
 20
0.0
 30
0.0
  3
AI9-BLK24
  1

  0
LINE
  5
605
330
603
100
AcDbEntity
  8
レイヤー_1
 62
     7
100
AcDbLine
 10
-0.446829
 20
1.705666999999999
 30
0.0
 11
0.446829
 21
-1.705666999999999
 31
0.0
  0
LINE
  5
606
330
603
100
AcDbEntity
  8
レイヤー_1
 62
     7
100
AcDbLine
 10
-1.706011
 20
-0.446657
 30
0.0
 11
1.706011
 21
0.4473460000000001
 31
0.0
  0
ENDBLK
  5
607
330
603
100
AcDbEntity
  8
レイヤー_1
100
AcDbBlockEnd
  0
BLOCK
  5
609
330
608
100
AcDbEntity
  8
レイヤー_1
 62
     7
100
AcDbBlockBegin
  2
AI9-BLK25
 70
     0
 10
0.0
 20
0.0
 30
0.0
  3
AI9-BLK25
  1

  0
LINE
  5
60A
330
608
100
AcDbEntity
  8
レイヤー_1
 62
     7
100
AcDbLine
 10
-0.446829
 20
1.706011
 30
0.0
 11
0.4471729999999999
 21
-1.706011
 31
0.0
  0
LINE
  5
60B
330
608
100
AcDbEntity
  8
レイヤー_1
 62
     7
100
AcDbLine
 10
-1.706011
 20
-0.4470010000000002
 30
0.0
 11
1.706011
 21
0.4470010000000002
 31
0.0
  0
ENDBLK
  5
60C
330
608
100
AcDbEntity
  8
レイヤー_1
100
AcDbBlockEnd
  0
BLOCK
  5
60E
330
60D
100
AcDbEntity
  8
レイヤー_1
 62
     7
100
AcDbBlockBegin
  2
AI9-BLK26
 70
     0
 10
0.0
 20
0.0
 30
0.0
  3
AI9-BLK26
  1

  0
SPLINE
  5
60F
330
60D
100
AcDbEntity
  8
レイヤー_1
 62
     7
100
AcDbSpline
210
0.0
220
0.0
230
1.0
 70
     8
 71
     3
 72
    11
 73
     7
 74
     0
 42
0.0000000001
 43
0.0000000001
 40
0.0
 40
0.0
 40
0.0
 40
0.0
 40
1.0
 40
1.0
 40
1.0
 40
2.0
 40
2.0
 40
2.0
 40
2.0
 10
18.80513983832465
 20
1.48363037109375
 30
0.0
 10
18.80513983832465
 20
1.48363037109375
 30
0.0
 10
-18.69007364908853
 20
1.48363037109375
 30
0.0
 10
-18.69007364908853
 20
1.48363037109375
 30
0.0
 10
-18.69007364908853
 20
1.48363037109375
 30
0.0
 10
-17.4581075032552
 20
-1.4045654296875
 30
0.0
 10
-16.1897956000434
 20
-1.492415364583333
 30
0.0
  0
SPLINE
  5
610
330
60D
100
AcDbEntity
  8
レイヤー_1
 62
     7
100
AcDbSpline
210
0.0
220
0.0
230
1.0
 70
     8
 71
     3
 72
    11
 73
     7
 74
     0
 42
0.0000000001
 43
0.0000000001
 40
0.0
 40
0.0
 40
0.0
 40
0.0
 40
1.0
 40
1.0
 40
1.0
 40
2.0
 40
2.0
 40
2.0
 40
2.0
 10
18.80513983832465
 20
1.48363037109375
 30
0.0
 10
18.80513983832465
 20
1.48363037109375
 30
0.0
 10
17.41831665039062
 20
-1.10725368923611
 30
0.0
 10
16.30486178927952
 20
-1.481218804253471
 30
0.0
 10
16.30486178927952
 20
-1.481218804253471
 30
0.0
 10
-16.40804239908854
 20
-1.481218804253471
 30
0.0
 10
-16.40804239908854
 20
-1.481218804253471
 30
0.0
  0
ENDBLK
  5
611
330
60D
100
AcDbEntity
  8
レイヤー_1
100
AcDbBlockEnd
  0
BLOCK
  5
613
330
612
100
AcDbEntity
  8
レイヤー_1
 62
     7
100
AcDbBlockBegin
  2
AI9-BLK27
 70
     0
 10
0.0
 20
0.0
 30
0.0
  3
AI9-BLK27
  1

  0
POLYLINE
  5
614
330
612
100
AcDbEntity
  8
レイヤー_1
 62
     7
100
AcDb2dPolyline
 66
     1
 10
0.0
 20
0.0
 30
0.0
  0
VERTEX
  5
615
330
614
100
AcDbEntity
  8
レイヤー_1
 62
     7
100
AcDbVertex
100
AcDb2dVertex
 10
20.659376
 20
7.453636
 30
0.0
  0
VERTEX
  5
616
330
614
100
AcDbEntity
  8
レイヤー_1
 62
     7
100
AcDbVertex
100
AcDb2dVertex
 10
18.944408
 20
-7.341671
 30
0.0
  0
VERTEX
  5
617
330
614
100
AcDbEntity
  8
レイヤー_1
 62
     7
100
AcDbVertex
100
AcDb2dVertex
 10
-18.76354
 20
-7.341671
 30
0.0
  0
VERTEX
  5
618
330
614
100
AcDbEntity
  8
レイヤー_1
 62
     7
100
AcDbVertex
100
AcDb2dVertex
 10
-20.659721
 20
7.497733999999998
 30
0.0
  0
SEQEND
  5
619
330
614
100
AcDbEntity
  8
レイヤー_1
 62
     7
  0
ENDBLK
  5
61A
330
612
100
AcDbEntity
  8
レイヤー_1
100
AcDbBlockEnd
  0
BLOCK
  5
6C3
330
6C2
100
AcDbEntity
  8
0
100
AcDbBlockBegin
  2
*D30
 70
     1
 10
0.0
 20
0.0
 30
0.0
  3
*D30
  1

  0
LINE
  5
6F6
330
6C2
100
AcDbEntity
  8
AM_5
100
AcDbLine
 10
81.48011968276845
 20
229.8205054334664
 30
0.0
 11
81.48011968276845
 21
248.7340688334664
 31
0.0
  0
LINE
  5
6F7
330
6C2
100
AcDbEntity
  8
AM_5
100
AcDbLine
 10
21.97146190414209
 20
229.8205054334664
 30
0.0
 11
21.97146190414209
 21
248.7340688334664
 31
0.0
  0
LINE
  5
6F8
330
6C2
100
AcDbEntity
  8
AM_5
100
AcDbLine
 10
78.98011968276844
 20
247.7340688334664
 30
0.0
 11
24.47146190414209
 21
247.7340688334664
 31
0.0
  0
SOLID
  5
6F9
330
6C2
100
AcDbEntity
  8
AM_5
100
AcDbTrace
 10
78.98011968276844
 20
248.1507355001331
 30
0.0
 11
78.98011968276844
 21
247.3174021667997
 31
0.0
 12
81.48011968276845
 22
247.7340688334664
 32
0.0
 13
81.48011968276845
 23
247.7340688334664
 33
0.0
  0
SOLID
  5
6FA
330
6C2
100
AcDbEntity
  8
AM_5
100
AcDbTrace
 10
24.47146190414209
 20
248.1507355001331
 30
0.0
 11
24.47146190414209
 21
247.3174021667997
 31
0.0
 12
21.97146190414209
 22
247.7340688334664
 32
0.0
 13
21.97146190414209
 23
247.7340688334664
 33
0.0
  0
MTEXT
  5
6FB
330
6C2
100
AcDbEntity
  8
AM_5
 62
     2
100
AcDbMText
 10
51.72579079345528
 20
250.2340688334664
 30
0.0
 40
3.0
 41
0.0
 71
     5
 72
     1
  1
%%c143
 73
     1
 44
1.0
1001
ACAD
1000
MTEXTBEGIN
1070
    73
1070
     1
1070
    44
1040
1.0
1070
    74
1070
     0
1000
MTEXTEND
  0
POINT
  5
6FC
330
6C2
100
AcDbEntity
  8
Defpoints
 62
     0
100
AcDbPoint
 10
81.48011968276845
 20
228.8205054334664
 30
0.0
  0
POINT
  5
6FD
330
6C2
100
AcDbEntity
  8
Defpoints
 62
     0
100
AcDbPoint
 10
21.97146190414209
 20
228.8205054334664
 30
0.0
  0
POINT
  5
6FE
330
6C2
100
AcDbEntity
  8
Defpoints
 62
     0
100
AcDbPoint
 10
21.97146190414209
 20
247.7340688334664
 30
0.0
  0
ENDBLK
  5
6C4
330
6C2
100
AcDbEntity
  8
0
100
AcDbBlockEnd
  0
BLOCK
  5
701
330
700
100
AcDbEntity
  8
0
100
AcDbBlockBegin
  2
*D31
 70
     1
 10
0.0
 20
0.0
 30
0.0
  3
*D31
  1

  0
LINE
  5
903
330
700
100
AcDbEntity
  8
AM_5
100
AcDbLine
 10
94.23090185028653
 20
225.2058079034266
 30
0.0
 11
122.8974210902866
 21
225.2058079034266
 31
0.0
  0
LINE
  5
904
330
700
100
AcDbEntity
  8
AM_5
100
AcDbLine
 10
91.75068185028662
 20
203.3823947834267
 30
0.0
 11
122.8974210902866
 21
203.3823947834267
 31
0.0
  0
LINE
  5
905
330
700
100
AcDbEntity
  8
AM_5
100
AcDbLine
 10
121.8974210902866
 20
222.7058079034266
 30
0.0
 11
121.8974210902866
 21
205.8823947834266
 31
0.0
  0
SOLID
  5
906
330
700
100
AcDbEntity
  8
AM_5
100
AcDbTrace
 10
121.4807544236199
 20
222.7058079034266
 30
0.0
 11
122.3140877569532
 21
222.7058079034266
 31
0.0
 12
121.8974210902866
 22
225.2058079034266
 32
0.0
 13
121.8974210902866
 23
225.2058079034266
 33
0.0
  0
SOLID
  5
907
330
700
100
AcDbEntity
  8
AM_5
100
AcDbTrace
 10
121.4807544236199
 20
205.8823947834266
 30
0.0
 11
122.3140877569532
 21
205.8823947834266
 31
0.0
 12
121.8974210902866
 22
203.3823947834267
 32
0.0
 13
121.8974210902866
 23
203.3823947834267
 33
0.0
  0
MTEXT
  5
908
330
700
100
AcDbEntity
  8
AM_5
 62
     2
100
AcDbMText
 10
119.3974210902865
 20
214.2941013434267
 30
0.0
 40
3.0
 41
0.0
 71
     5
 72
     1
  1
46
 11
0.0000000000000001
 21
1.0
 31
0.0
 73
     1
 44
1.0
1001
ACAD
1000
MTEXTBEGIN
1070
    73
1070
     1
1070
    44
1040
1.0
1070
    74
1070
     0
1000
MTEXTEND
  0
POINT
  5
909
330
700
100
AcDbEntity
  8
Defpoints
 62
     0
100
AcDbPoint
 10
93.23090185028654
 20
225.2058079034266
 30
0.0
  0
POINT
  5
90A
330
700
100
AcDbEntity
  8
Defpoints
 62
     0
100
AcDbPoint
 10
90.7506818502866
 20
203.3823947834267
 30
0.0
  0
POINT
  5
90B
330
700
100
AcDbEntity
  8
Defpoints
 62
     0
100
AcDbPoint
 10
121.8974210902866
 20
203.3823947834267
 30
0.0
  0
ENDBLK
  5
702
330
700
100
AcDbEntity
  8
0
100
AcDbBlockEnd
  0
BLOCK
  5
722
330
721
100
AcDbEntity
  8
0
100
AcDbBlockBegin
  2
*D32
 70
     1
 10
0.0
 20
0.0
 30
0.0
  3
*D32
  1

  0
LINE
  5
90C
330
721
100
AcDbEntity
  8
AM_5
100
AcDbLine
 10
94.23090185028653
 20
225.2058079034266
 30
0.0
 11
132.8974210902866
 21
225.2058079034266
 31
0.0
  0
LINE
  5
90D
330
721
100
AcDbEntity
  8
AM_5
100
AcDbLine
 10
64.68198319242673
 20
180.5340536391524
 30
0.0
 11
132.8974210902865
 21
180.5340536391524
 31
0.0
  0
LINE
  5
90E
330
721
100
AcDbEntity
  8
AM_5
100
AcDbLine
 10
131.8974210902866
 20
222.7058079034266
 30
0.0
 11
131.8974210902865
 21
183.0340536391524
 31
0.0
  0
SOLID
  5
90F
330
721
100
AcDbEntity
  8
AM_5
100
AcDbTrace
 10
131.4807544236199
 20
222.7058079034266
 30
0.0
 11
132.3140877569532
 21
222.7058079034266
 31
0.0
 12
131.8974210902866
 22
225.2058079034266
 32
0.0
 13
131.8974210902866
 23
225.2058079034266
 33
0.0
  0
SOLID
  5
910
330
721
100
AcDbEntity
  8
AM_5
100
AcDbTrace
 10
131.4807544236199
 20
183.0340536391524
 30
0.0
 11
132.3140877569532
 21
183.0340536391524
 31
0.0
 12
131.8974210902865
 22
180.5340536391524
 32
0.0
 13
131.8974210902865
 23
180.5340536391524
 33
0.0
  0
MTEXT
  5
911
330
721
100
AcDbEntity
  8
AM_5
 62
     2
100
AcDbMText
 10
129.3974210902865
 20
202.8699307712895
 30
0.0
 40
3.0
 41
0.0
 71
     5
 72
     1
  1
102
 11
0.0000000000000001
 21
1.0
 31
0.0
 73
     1
 44
1.0
1001
ACAD
1000
MTEXTBEGIN
1070
    73
1070
     1
1070
    44
1040
1.0
1070
    74
1070
     0
1000
MTEXTEND
  0
POINT
  5
912
330
721
100
AcDbEntity
  8
Defpoints
 62
     0
100
AcDbPoint
 10
93.23090185028654
 20
225.2058079034266
 30
0.0
  0
POINT
  5
913
330
721
100
AcDbEntity
  8
Defpoints
 62
     0
100
AcDbPoint
 10
63.68198319242672
 20
180.5340536391524
 30
0.0
  0
POINT
  5
914
330
721
100
AcDbEntity
  8
Defpoints
 62
     0
100
AcDbPoint
 10
131.8974210902865
 20
180.5340536391524
 30
0.0
  0
ENDBLK
  5
723
330
721
100
AcDbEntity
  8
0
100
AcDbBlockEnd
  0
BLOCK
  5
79E
330
79D
100
AcDbEntity
  8
0
100
AcDbBlockBegin
  2
*D33
 70
     1
 10
0.0
 20
0.0
 30
0.0
  3
*D33
  1

  0
LINE
  5
915
330
79D
100
AcDbEntity
  8
AM_5
100
AcDbLine
 10
93.23090185028654
 20
226.2058079034266
 30
0.0
 11
93.23090185028654
 21
238.0722175506036
 31
0.0
  0
LINE
  5
916
330
79D
100
AcDbEntity
  8
AM_5
100
AcDbLine
 10
33.72224407166017
 20
226.2058079034266
 30
0.0
 11
33.72224407166017
 21
238.0722175506036
 31
0.0
  0
LINE
  5
917
330
79D
100
AcDbEntity
  8
AM_5
100
AcDbLine
 10
90.73090185028654
 20
237.0722175506036
 30
0.0
 11
36.22224407166017
 21
237.0722175506036
 31
0.0
  0
SOLID
  5
918
330
79D
100
AcDbEntity
  8
AM_5
100
AcDbTrace
 10
90.73090185028654
 20
237.4888842172702
 30
0.0
 11
90.73090185028654
 21
236.6555508839369
 31
0.0
 12
93.23090185028654
 22
237.0722175506036
 32
0.0
 13
93.23090185028654
 23
237.0722175506036
 33
0.0
  0
SOLID
  5
919
330
79D
100
AcDbEntity
  8
AM_5
100
AcDbTrace
 10
36.22224407166017
 20
237.4888842172702
 30
0.0
 11
36.22224407166017
 21
236.6555508839369
 31
0.0
 12
33.72224407166017
 22
237.0722175506036
 32
0.0
 13
33.72224407166017
 23
237.0722175506036
 33
0.0
  0
MTEXT
  5
91A
330
79D
100
AcDbEntity
  8
AM_5
 62
     2
100
AcDbMText
 10
63.47657296097334
 20
239.5722175506036
 30
0.0
 40
3.0
 41
0.0
 71
     5
 72
     1
  1
%%c143
 73
     1
 44
1.0
1001
ACAD
1000
MTEXTBEGIN
1070
    73
1070
     1
1070
    44
1040
1.0
1070
    74
1070
     0
1000
MTEXTEND
  0
POINT
  5
91B
330
79D
100
AcDbEntity
  8
Defpoints
 62
     0
100
AcDbPoint
 10
93.23090185028654
 20
225.2058079034266
 30
0.0
  0
POINT
  5
91C
330
79D
100
AcDbEntity
  8
Defpoints
 62
     0
100
AcDbPoint
 10
33.72224407166017
 20
225.2058079034266
 30
0.0
  0
POINT
  5
91D
330
79D
100
AcDbEntity
  8
Defpoints
 62
     0
100
AcDbPoint
 10
33.72224407166017
 20
237.0722175506036
 30
0.0
  0
ENDBLK
  5
79F
330
79D
100
AcDbEntity
  8
0
100
AcDbBlockEnd
  0
BLOCK
  5
7F7
330
7F6
100
AcDbEntity
  8
0
100
AcDbBlockBegin
  2
*D34
 70
     1
 10
0.0
 20
0.0
 30
0.0
  3
*D34
  1

  0
LINE
  5
91E
330
7F6
100
AcDbEntity
  8
AM_5
100
AcDbLine
 10
142.7199639734942
 20
148.2820291238918
 30
0.0
 11
175.4076019123384
 21
156.8094206357318
 31
0.0
  0
LINE
  5
91F
330
7F6
100
AcDbEntity
  8
AM_5
100
AcDbLine
 10
151.4779170247902
 20
114.7105907738787
 30
0.0
 11
184.1655549636344
 21
123.2379822857187
 31
0.0
  0
LINE
  5
920
330
7F6
100
AcDbEntity
  8
AM_5
100
AcDbLine
 10
175.0710532798987
 20
154.1379538068149
 30
0.0
 11
182.5668716775275
 21
125.4045952531686
 31
0.0
  0
SOLID
  5
921
330
7F6
100
AcDbEntity
  8
AM_5
100
AcDbTrace
 10
175.4742265962626
 20
154.2431316946205
 30
0.0
 11
174.6678799635348
 21
154.0327759190093
 31
0.0
 12
174.4399859530651
 22
156.5569937049983
 32
0.0
 13
174.4399859530651
 23
156.5569937049983
 33
0.0
  0
SOLID
  5
922
330
7F6
100
AcDbEntity
  8
AM_5
100
AcDbTrace
 10
182.9700449938914
 20
125.5097731409742
 30
0.0
 11
182.1636983611636
 21
125.299417365363
 31
0.0
 12
183.1979390043611
 22
122.9855553549852
 32
0.0
 13
183.1979390043611
 23
122.9855553549852
 33
0.0
  0
MTEXT
  5
923
330
7F6
100
AcDbEntity
  8
AM_5
 62
     2
100
AcDbMText
 10
181.2380023768964
 20
140.4023418568254
 30
0.0
 40
3.0
 41
0.0
 71
     5
 72
     1
  1
80
 11
0.2524269307334424
 21
-0.9676159592733544
 31
0.0
 73
     1
 44
1.0
1001
ACAD
1000
MTEXTBEGIN
1070
    73
1070
     1
1070
    44
1040
1.0
1070
    74
1070
     0
1000
MTEXTEND
  0
POINT
  5
924
330
7F6
100
AcDbEntity
  8
Defpoints
 62
     0
100
AcDbPoint
 10
141.7523480142209
 20
148.0296021931584
 30
0.0
  0
POINT
  5
925
330
7F6
100
AcDbEntity
  8
Defpoints
 62
     0
100
AcDbPoint
 10
150.5103010655169
 20
114.4581638431453
 30
0.0
  0
POINT
  5
926
330
7F6
100
AcDbEntity
  8
Defpoints
 62
     0
100
AcDbPoint
 10
183.1979390043611
 20
122.9855553549852
 30
0.0
  0
ENDBLK
  5
7F8
330
7F6
100
AcDbEntity
  8
0
100
AcDbBlockEnd
  0
BLOCK
  5
82A
330
829
100
AcDbEntity
  8
0
100
AcDbBlockBegin
  2
*D35
 70
     1
 10
0.0
 20
0.0
 30
0.0
  3
*D35
  1

  0
LINE
  5
930
330
829
100
AcDbEntity
  8
AM_5
100
AcDbLine
 10
161.3069401530005
 20
131.5523325465159
 30
0.0
 11
170.5394315472607
 21
96.28269801192558
 31
0.0
  0
LINE
  5
931
330
829
100
AcDbEntity
  8
AM_5
100
AcDbLine
 10
127.7915526264458
 20
122.7790483603488
 30
0.0
 11
137.024044020706
 21
87.50941382575851
 31
0.0
  0
LINE
  5
932
330
829
100
AcDbEntity
  8
AM_5
100
AcDbLine
 10
167.8676840997773
 20
96.61701160253507
 30
0.0
 11
139.1893187865453
 21
89.10990912047813
 31
0.0
  0
SOLID
  5
933
330
829
100
AcDbEntity
  8
AM_5
100
AcDbTrace
 10
167.7621689577682
 20
97.02009678697864
 30
0.0
 11
167.9731992417865
 21
96.21392641809151
 31
0.0
 12
170.2861952064387
 22
97.25010245459014
 32
0.0
 13
170.2861952064387
 23
97.25010245459014
 33
0.0
  0
SOLID
  5
934
330
829
100
AcDbEntity
  8
AM_5
100
AcDbTrace
 10
139.0838036445362
 20
89.51299430492166
 30
0.0
 11
139.2948339285545
 21
88.70682393603456
 31
0.0
 12
136.770807679884
 22
88.47681826842306
 32
0.0
 13
136.770807679884
 23
88.47681826842306
 33
0.0
  0
MTEXT
  5
935
330
829
100
AcDbEntity
  8
AM_5
 62
     2
100
AcDbMText
 10
152.8954105911063
 20
95.28197146816792
 30
0.0
 40
3.0
 41
0.0
 71
     5
 72
     1
  1
80
 11
0.9674044426645334
 21
0.2532363408220149
 31
0.0
 73
     1
 44
1.0
1001
ACAD
1000
MTEXTBEGIN
1070
    73
1070
     1
1070
    44
1040
1.0
1070
    74
1070
     0
1000
MTEXTEND
  0
POINT
  5
936
330
829
100
AcDbEntity
  8
Defpoints
 62
     0
100
AcDbPoint
 10
161.0537038121784
 20
132.5197369891804
 30
0.0
  0
POINT
  5
937
330
829
100
AcDbEntity
  8
Defpoints
 62
     0
100
AcDbPoint
 10
127.5383162856238
 20
123.7464528030133
 30
0.0
  0
POINT
  5
938
330
829
100
AcDbEntity
  8
Defpoints
 62
     0
100
AcDbPoint
 10
136.770807679884
 20
88.47681826842306
 30
0.0
  0
ENDBLK
  5
82B
330
829
100
AcDbEntity
  8
0
100
AcDbBlockEnd
  0
BLOCK
  5
85D
330
85C
100
AcDbEntity
  8
0
100
AcDbBlockBegin
  2
*D36
 70
     1
 10
0.0
 20
0.0
 30
0.0
  3
*D36
  1

  0
LINE
  5
89D
330
85C
100
AcDbEntity
  8
AM_5
100
AcDbLine
 10
136.6372489911076
 20
122.8325133369088
 30
0.0
 11
133.6548593685827
 21
122.382691150611
 31
0.0
  0
SOLID
  5
89E
330
85C
100
AcDbEntity
  8
AM_5
100
AcDbTrace
 10
136.5751076212387
 20
123.2445200859578
 30
0.0
 11
136.6993903609766
 21
122.4205065878598
 31
0.0
 12
139.1092894854016
 22
123.2053615561226
 32
0.0
 13
139.1092894854016
 23
123.2053615561226
 33
0.0
  0
MTEXT
  5
89F
330
85C
100
AcDbEntity
  8
AM_5
 62
     2
100
AcDbMText
 10
128.6215260352494
 20
125.632691150611
 30
0.0
 40
3.5
 41
0.0
 71
     5
 72
     1
  1
%%c16
 73
     1
 44
1.0
1001
ACAD
1000
MTEXTBEGIN
1070
    73
1070
     1
1070
    44
1040
1.0
1070
    74
1070
     0
1000
MTEXTEND
  0
POINT
  5
8A0
330
85C
100
AcDbEntity
  8
Defpoints
 62
     0
100
AcDbPoint
 10
139.1092894854016
 20
123.2053615561226
 30
0.0
  0
POINT
  5
8A1
330
85C
100
AcDbEntity
  8
Defpoints
 62
     0
100
AcDbPoint
 10
146.5695071079628
 20
124.3305570624016
 30
0.0
  0
ENDBLK
  5
85E
330
85C
100
AcDbEntity
  8
0
100
AcDbBlockEnd
  0
BLOCK
  5
99A
330
995
100
AcDbEntity
  8
0
100
AcDbBlockBegin
  2
*S4037
 70
     1
 10
0.0
 20
0.0
 30
0.0
  3
*S4037
  1

  0
LINE
  5
996
330
995
100
AcDbEntity
  8
AM_5
 62
     3
100
AcDbLine
 10
100.5142659559435
 20
156.7420425268041
 30
0.0
 11
117.809240702774
 21
156.7420425268041
 31
0.0
  0
LINE
  5
997
330
995
100
AcDbEntity
  8
AM_5
 62
     3
100
AcDbLine
 10
117.809240702774
 20
156.7420425268041
 30
0.0
 11
134.6235426306539
 21
149.4053387133442
 31
0.0
  0
TRACE
  5
998
330
995
100
AcDbEntity
  8
AM_5
  6
Continuous
 62
     3
100
AcDbTrace
 10
134.4392641416273
 20
148.9830081638102
 30
0.0
 11
134.8078211196805
 21
149.8276692628782
 31
0.0
 12
137.831461653519
 22
148.0056046161884
 32
0.0
 13
137.831461653519
 23
148.0056046161884
 33
0.0
  0
MTEXT
  5
999
330
995
100
AcDbEntity
  8
AM_5
 62
     2
100
AcDbMText
 10
114.309240702774
 20
158.4920425268041
 30
0.0
 40
3.5
 41
0.0
 71
     9
 72
     5
  1
4-%%c4.5
  7
ACISOTS
 73
     1
 44
1.0
1001
ACAD
1000
MTEXTBEGIN
1070
    73
1070
     1
1070
    44
1040
1.0
1070
    74
1070
     0
1000
MTEXTEND
  0
ENDBLK
  5
99B
330
995
100
AcDbEntity
  8
0
100
AcDbBlockEnd
  0
BLOCK
  5
9A2
330
99D
100
AcDbEntity
  8
0
100
AcDbBlockBegin
  2
*S4138
 70
     1
 10
0.0
 20
0.0
 30
0.0
  3
*S4138
  1

  0
LINE
  5
99E
330
99D
100
AcDbEntity
  8
AM_5
 62
     3
100
AcDbLine
 10
133.1399700416844
 20
122.4529431584455
 30
0.0
 11
143.1135920889285
 21
122.4529431584455
 31
0.0
  0
LINE
  5
99F
330
99D
100
AcDbEntity
  8
AM_5
 62
     3
100
AcDbLine
 10
143.1135920889285
 20
122.4529431584455
 30
0.0
 11
147.4596279927391
 21
121.5820834992314
 31
0.0
  0
TRACE
  5
9A0
330
99D
100
AcDbEntity
  8
AM_5
  6
Continuous
 62
     3
100
AcDbTrace
 10
147.3690956925058
 20
121.1302809348274
 30
0.0
 11
147.5501602929726
 21
122.0338860636354
 31
0.0
 12
150.8914091947625
 22
120.8944224043309
 32
0.0
 13
150.8914091947625
 23
120.8944224043309
 33
0.0
  0
MTEXT
  5
9A1
330
99D
100
AcDbEntity
  8
AM_5
 62
     2
100
AcDbMText
 10
139.6135920889285
 20
124.2029431584455
 30
0.0
 40
3.5
 41
0.0
 71
     9
 72
     5
  1
%%c16
  7
ACISOTS
 73
     1
 44
1.0
1001
ACAD
1000
MTEXTBEGIN
1070
    73
1070
     1
1070
    44
1040
1.0
1070
    74
1070
     0
1000
MTEXTEND
  0
ENDBLK
  5
9A3
330
99D
100
AcDbEntity
  8
0
100
AcDbBlockEnd
  0
ENDSEC
  0
SECTION
  2
ENTITIES
  0
MTEXT
  5
4CD
330
75
100
AcDbEntity
  8
レイヤー_1_0
 62
     7
100
AcDbMText
 10
70.25728877992214
 20
16.70127180995353
 30
0.0
 40
4.390912999999998
 41
0.0
 71
     1
 72
     2
  1
\fMS PGothic|b0|i0|c128;株式会社 ダイワインダストリ
  7
KANJISTD
 73
     1
 44
1.0
1001
ACAD
1000
MTEXTBEGIN
1070
    73
1070
     1
1070
    44
1040
1.0
1070
    74
1070
     0
1000
MTEXTEND
  0
LWPOLYLINE
  5
4CE
330
75
100
AcDbEntity
  8
枠
  6
Continuous
100
AcDbPolyline
 90
        4
 70
     1
 43
0.0
 10
0.000000550853656
 20
0.0000000500900796
 10
210.0000005508536
 20
0.0000000500900796
 10
210.0000005508536
 20
297.0000000500901
 10
0.0000005508536844
 20
297.0000000500901
1001
GENIUS_GENREC_14
1002
{
1000
PYDIR
1011
0.0000005508536742
1021
297.0000000500901
1031
0.0
1002
}
1002
{
1000
PXDIR
1011
210.0000005508536
1021
0.0000000500900796
1031
0.0
1002
}
1002
{
1000
PORI
1011
0.000000550853656
1021
0.0000000500900796
1031
0.0
1002
}
1002
{
1000
PINS
1011
0.000000550853656
1021
0.0000000500900796
1031
0.0
1002
}
1002
{
1000
PINS2
1011
210.0000005508536
1021
297.0000000500901
1031
0.0
1002
}
1002
{
1000
C
1070
     1
1002
}
1001
GENIUS_GENOBJ-N-REC_13
1002
{
1000
OWNER
1000
GEN
1002
}
1001
GENIUS_GENODEF_13
1002
{
1000
HIER
1070
     0
1002
}
1002
{
1000
MANEDIT
1070
     0
1002
}
1002
{
1000
NOSEL
1070
     0
1002
}
1002
{
1000
BEHIND
1070
     0
1002
}
1002
{
1000
OTHER
1070
     0
1002
}
1002
{
1000
REACTOR
1002
}
  0
LWPOLYLINE
  5
4CF
330
75
100
AcDbEntity
  8
外形線
  6
Continuous
100
AcDbPolyline
 90
        4
 70
     1
 43
0.0
 10
11.60259074931945
 20
280.2064264286265
 10
196.3427497561322
 20
280.2064264286265
 10
196.3427497561322
 20
24.16351350324334
 10
11.60259074931943
 20
24.16351350324335
1001
GENIUS_GENREC_14
1002
{
1000
PYDIR
1011
11.60259074931944
1021
24.16351350324334
1031
0.0
1002
}
1002
{
1000
PXDIR
1011
196.3427497561322
1021
280.2064264286265
1031
0.0
1002
}
1002
{
1000
PORI
1011
11.60259074931945
1021
280.2064264286265
1031
0.0
1002
}
1002
{
1000
PINS
1011
11.60259074931945
1021
280.2064264286265
1031
0.0
1002
}
1002
{
1000
PINS2
1011
196.3427497561322
1021
24.16351350324334
1031
0.0
1002
}
1002
{
1000
C
1070
     1
1002
}
1001
GENIUS_GENODEF_13
1002
{
1000
HIER
1070
     0
1002
}
1002
{
1000
MANEDIT
1070
     0
1002
}
1002
{
1000
NOSEL
1070
     0
1002
}
1002
{
1000
BEHIND
1070
     0
1002
}
1002
{
1000
OTHER
1070
     0
1002
}
1002
{
1000
REACTOR
1002
}
1001
GENIUS_GENOBJ-N-REC_13
1002
{
1000
OWNER
1000
GEN
1002
}
  0
MTEXT
  5
4D0
330
75
100
AcDbEntity
  8
外形線
  6
Continuous
100
AcDbMText
 10
13.91068447534917
 20
31.00153301435069
 30
0.0
 40
4.0
 41
85.59488932217835
 71
     1
 72
     5
  1
{\fMS PGothic|b0|i0|c128|p50;\W1;品名：\H0.55x;ワイドダイナミックバンダルドーム型カメラ}
 73
     1
 44
1.0
1001
ACAD
1000
MTEXTBEGIN
1070
    73
1070
     1
1070
    44
1040
1.0
1070
    74
1070
     0
1000
MTEXTEND
1000
ACAD_MTEXT_DEFINED_HEIGHT_BEGIN
1070
    46
1040
10.33309109091124
1000
ACAD_MTEXT_DEFINED_HEIGHT_END
  0
MTEXT
  5
4D1
330
75
100
AcDbEntity
  8
外形線
  6
Continuous
100
AcDbMText
 10
101.7136921323352
 20
30.65536781498315
 30
0.0
 40
4.0
 41
62.79417921438346
 71
     1
 72
     5
  1
{\fMS PGothic|b0|i0|c128|p50;\W1;品番：SE-2331VS}
 73
     1
 44
1.0
1001
ACAD
1000
MTEXTBEGIN
1070
    73
1070
     1
1070
    44
1040
1.0
1070
    74
1070
     0
1000
MTEXTEND
1000
ACAD_MTEXT_DEFINED_HEIGHT_BEGIN
1070
    46
1040
5.173549736409313
1000
ACAD_MTEXT_DEFINED_HEIGHT_END
  0
MTEXT
  5
4D2
330
75
100
AcDbEntity
  8
外形線
  6
Continuous
100
AcDbMText
 10
168.3287605797724
 20
29.84595809682572
 30
0.0
 40
3.5
 41
25.04345815552802
 71
     1
 72
     5
  1
{\fMS PGothic|b0|i0|c128|p50;\W1;No.：1/1}
 73
     1
 44
1.0
1001
ACAD
1000
MTEXTBEGIN
1070
    73
1070
     1
1070
    44
1040
1.0
1070
    74
1070
     0
1000
MTEXTEND
1000
ACAD_MTEXT_DEFINED_HEIGHT_BEGIN
1070
    46
1040
4.957403205357532
1000
ACAD_MTEXT_DEFINED_HEIGHT_END
  0
MTEXT
  5
4D3
330
75
100
AcDbEntity
  8
レイヤー_1_0
 62
     7
100
AcDbMText
 10
18.18553118368427
 20
271.3098662050245
 30
0.0
 40
2.744320999999998
 41
0.0
 71
     1
 72
     2
  1
\fMS PGothic|b0|i0|c128;■ 外形図
  7
KANJISTD
 73
     1
 44
1.0
1001
ACAD
1000
MTEXTBEGIN
1070
    73
1070
     1
1070
    44
1040
1.0
1070
    74
1070
     0
1000
MTEXTEND
  0
LINE
  5
4D4
330
75
100
AcDbEntity
  8
外形線
  6
Continuous
100
AcDbLine
 10
11.65926080913209
 20
32.11992876866442
 30
0.0
 11
196.3435302932867
 21
32.11992876866442
 31
0.0
  0
MTEXT
  5
4D5
330
75
100
AcDbEntity
  8
枠
  6
Continuous
100
AcDbMText
 10
178.9060871149622
 20
42.63997034107035
 30
0.0
 40
3.0
 41
18.0892528424788
 71
     1
 72
     5
  1
(mm)
 73
     1
 44
1.0
1001
ACAD
1000
MTEXTBEGIN
1070
    73
1070
     1
1070
    44
1040
1.0
1070
    74
1070
     0
1000
MTEXTEND
  0
LINE
  5
4D6
330
75
100
AcDbEntity
  8
外形線
  6
Continuous
100
AcDbLine
 10
100.124417523476
 20
32.10426787181911
 30
0.0
 11
100.124417523476
 21
24.16625253994717
 31
0.0
  0
LINE
  5
4D7
330
75
100
AcDbEntity
  8
外形線
  6
Continuous
100
AcDbLine
 10
166.2523584355317
 20
32.11784291450721
 30
0.0
 11
166.2523584355317
 21
24.17761279930403
 31
0.0
  0
SPLINE
  5
678
330
75
100
AcDbEntity
  8
外形線
 62
     7
100
AcDbSpline
210
0.0
220
0.0
230
1.0
 70
     8
 71
     3
 72
     8
 73
     4
 74
     0
 42
0.0000000001
 43
0.0000000001
 40
0.0
 40
0.0
 40
0.0
 40
0.0
 40
1.0
 40
1.0
 40
1.0
 40
1.0
 10
148.8196184154503
 20
108.7904819235971
 30
0.0
 10
148.8196184154503
 20
108.7904819235971
 30
0.0
 10
143.8239543529503
 20
107.3510659079721
 30
0.0
 10
138.5455168529503
 20
108.821487782972
 30
0.0
  0
CIRCLE
  5
679
330
75
100
AcDbEntity
  8
外形線
 62
     7
100
AcDbCircle
 10
143.4015302242003
 20
130.8882342592221
 30
0.0
 40
29.80258416
  0
CIRCLE
  5
67A
330
75
100
AcDbEntity
  8
外形線
 62
     7
100
AcDbCircle
 10
64.10858665028659
 20
129.2842234751874
 30
0.0
 40
29.802708
  0
LINE
  5
67B
330
75
100
AcDbEntity
  8
外形線
 62
     7
100
AcDbLine
 10
58.60008553028656
 20
100.0541314751874
 30
0.0
 11
69.87778537028653
 21
100.0541314751874
 31
0.0
  0
INSERT
  5
67C
330
75
100
AcDbEntity
  8
外形線
 62
     7
100
AcDbBlockReference
  2
AI9-BLK1
 10
64.4304280902866
 20
103.9087796351874
 30
0.0
 41
1.439999999999996
 42
1.440000000000004
 43
1.439999999999999
  0
INSERT
  5
67D
330
75
100
AcDbEntity
  8
外形線
 62
     7
100
AcDbBlockReference
  2
AI9-BLK3
 10
64.24439305028662
 20
153.9506242751874
 30
0.0
 41
1.439999999999996
 42
1.440000000000004
 43
1.439999999999999
  0
INSERT
  5
67E
330
75
100
AcDbEntity
  8
外形線
 62
     7
100
AcDbBlockReference
  2
AI9-BLK5
 10
39.4880743302866
 20
128.7223973951874
 30
0.0
 41
1.439999999999996
 42
1.440000000000004
 43
1.439999999999999
  0
INSERT
  5
67F
330
75
100
AcDbEntity
  8
外形線
 62
     7
100
AcDbBlockReference
  2
AI9-BLK7
 10
89.52979513028656
 20
128.9079356351874
 30
0.0
 41
1.439999999999996
 42
1.440000000000004
 43
1.439999999999999
  0
CIRCLE
  5
680
330
75
100
AcDbEntity
  8
外形線
 62
     7
100
AcDbCircle
 10
64.50508921028661
 20
128.9275311551874
 30
0.0
 40
26.67520944
  0
CIRCLE
  5
681
330
75
100
AcDbEntity
  8
外形線
 62
     7
100
AcDbCircle
 10
64.50533833028656
 20
128.9275311551874
 30
0.0
 40
26.1520776
  0
CIRCLE
  5
682
330
75
100
AcDbEntity
  8
外形線
 62
     7
100
AcDbCircle
 10
64.50521449028655
 20
128.9275311551874
 30
0.0
 40
19.19771136
  0
CIRCLE
  5
683
330
75
100
AcDbEntity
  8
外形線
 62
     7
100
AcDbCircle
 10
64.50533833028656
 20
128.9275311551874
 30
0.0
 40
23.77454832
  0
INSERT
  5
698
102
{ACAD_REACTORS
330
836
102
}
330
75
100
AcDbEntity
  8
外形線_2
 62
     7
370
    13
100
AcDbBlockReference
  2
AI9-BLK22
 10
160.4102700521784
 20
134.9763928291804
 30
0.0
 41
1.439999999999996
 42
1.440000000000004
 43
1.439999999999999
  0
INSERT
  5
699
102
{ACAD_REACTORS
330
836
102
}
330
75
100
AcDbEntity
  8
外形線_2
 62
     7
370
    13
100
AcDbBlockReference
  2
AI9-BLK23
 10
126.8943871656238
 20
126.2029848030133
 30
0.0
 41
1.439999999999996
 42
1.440000000000004
 43
1.439999999999999
  0
INSERT
  5
69A
102
{ACAD_REACTORS
330
803
102
}
330
75
100
AcDbEntity
  8
外形線_2
 62
     7
370
    13
100
AcDbBlockReference
  2
AI9-BLK24
 10
148.0536452255169
 20
113.8139856031453
 30
0.0
 41
1.439999999999996
 42
1.440000000000004
 43
1.439999999999999
  0
INSERT
  5
69B
102
{ACAD_REACTORS
330
803
102
}
330
75
100
AcDbEntity
  8
外形線_2
 62
     7
370
    13
100
AcDbBlockReference
  2
AI9-BLK25
 10
139.2956921742209
 20
147.3859207531584
 30
0.0
 41
1.439999999999996
 42
1.440000000000004
 43
1.439999999999999
  0
CIRCLE
  5
69E
330
75
100
AcDbEntity
  8
外形線
 62
     7
100
AcDbCircle
 10
154.5901804642003
 20
120.1532617792221
 30
0.0
 40
3.772297439999998
  0
CIRCLE
  5
69F
330
75
100
AcDbEntity
  8
外形線
 62
     7
100
AcDbCircle
 10
160.4081203042003
 20
135.0159812992221
 30
0.0
 40
1.559030399999999
  0
CIRCLE
  5
6A0
330
75
100
AcDbEntity
  8
外形線
 62
     7
100
AcDbCircle
 10
126.8930188642003
 20
126.234750419222
 30
0.0
 40
1.559149919999999
  0
CIRCLE
  5
6A1
330
75
100
AcDbEntity
  8
外形線
 62
     7
100
AcDbCircle
 10
148.0419921442003
 20
113.8662649792221
 30
0.0
 40
1.558789919999999
  0
CIRCLE
  5
6A2
330
75
100
AcDbEntity
  8
外形線
 62
     7
100
AcDbCircle
 10
139.2603883042004
 20
147.3821108992221
 30
0.0
 40
1.559030399999999
  0
CIRCLE
  5
6A3
330
75
100
AcDbEntity
  8
外形線
 62
     7
100
AcDbCircle
 10
143.6555303842003
 20
130.6974860992221
 30
0.0
 40
2.078385119999999
  0
SPLINE
  5
6A4
330
75
100
AcDbEntity
  8
外形線
 62
     7
100
AcDbSpline
210
0.0
220
0.0
230
1.0
 70
    11
 71
     3
 72
    20
 73
    16
 74
     0
 42
0.0000000001
 43
0.0000000001
 40
0.0
 40
0.0
 40
0.0
 40
0.0
 40
1.0
 40
1.0
 40
1.0
 40
2.0
 40
2.0
 40
2.0
 40
3.0
 40
3.0
 40
3.0
 40
4.0
 40
4.0
 40
4.0
 40
5.0
 40
5.0
 40
5.0
 40
5.0
 10
138.5896691967003
 20
109.620198720472
 30
0.0
 10
129.0944348217003
 20
112.1091010642221
 30
0.0
 10
121.9427473217004
 20
120.490604970472
 30
0.0
 10
121.9427473217004
 20
130.7371733298471
 30
0.0
 10
121.9427473217004
 20
142.7277592673469
 30
0.0
 10
131.6656887279503
 20
152.449212392347
 30
0.0
 10
143.6572668529503
 20
152.449212392347
 30
0.0
 10
155.6473566967003
 20
152.449212392347
 30
0.0
 10
165.3693059154503
 20
142.7277592673469
 30
0.0
 10
165.3693059154503
 20
130.7371733298471
 30
0.0
 10
165.3693059154503
 20
120.4474448142221
 30
0.0
 10
158.2062082592003
 20
111.8307924704721
 30
0.0
 10
148.5988566967004
 20
109.5906811423471
 30
0.0
 10
148.5988566967004
 20
109.5906811423471
 30
0.0
 10
143.1765520092003
 20
108.4179155173471
 30
0.0
 10
138.5896691967003
 20
109.620198720472
 30
0.0
  0
SPLINE
  5
6A5
330
75
100
AcDbEntity
  8
外形線
 62
     7
100
AcDbSpline
210
0.0
220
0.0
230
1.0
 70
     8
 71
     3
 72
    44
 73
    40
 74
     0
 42
0.0000000001
 43
0.0000000001
 40
0.0096982242304719
 40
0.0096982242304719
 40
0.0096982242304719
 40
0.0096982242304719
 40
1.0
 40
1.0
 40
1.0
 40
2.0
 40
2.0
 40
2.0
 40
3.0
 40
3.0
 40
3.0
 40
4.0
 40
4.0
 40
4.0
 40
5.0
 40
5.0
 40
5.0
 40
6.0
 40
6.0
 40
6.0
 40
7.0
 40
7.0
 40
7.0
 40
8.0
 40
8.0
 40
8.0
 40
9.0
 40
9.0
 40
9.0
 40
10.0
 40
10.0
 40
10.0
 40
11.0
 40
11.0
 40
11.0
 40
12.0
 40
12.0
 40
12.0
 40
12.98658311890262
 40
12.98658311890262
 40
12.98658311890262
 40
12.98658311890262
 10
122.2754624826229
 20
138.2137329587993
 30
0.0
 10
121.4798221394247
 20
135.9048249780688
 30
0.0
 10
121.0477941967003
 20
133.4267922387095
 30
0.0
 10
121.0477941967003
 20
130.848050282972
 30
0.0
 10
121.0477941967003
 20
120.120022939222
 30
0.0
 10
128.5219426342003
 20
111.137997548597
 30
0.0
 10
138.5455168529503
 20
108.821487782972
 30
0.0
 10
138.5455168529503
 20
108.821487782972
 30
0.0
 10
138.5455168529503
 20
102.9273979392221
 30
0.0
 10
138.5455168529503
 20
102.9273979392221
 30
0.0
 10
137.9447473217003
 20
102.673397939222
 30
0.0
 10
137.4709777904504
 20
102.6843120017221
 30
0.0
 10
137.4709777904504
 20
102.6843120017221
 30
0.0
 10
124.3239973217003
 20
105.4202690329721
 30
0.0
 10
114.4487551342003
 20
117.071278798597
 30
0.0
 10
114.4487551342003
 20
131.0293725485971
 30
0.0
 10
114.4487551342003
 20
147.0202104392221
 30
0.0
 10
127.4097004467003
 20
159.9831401267221
 30
0.0
 10
143.4027707592004
 20
159.9831401267221
 30
0.0
 10
159.3933606029503
 20
159.9831401267221
 30
0.0
 10
172.3538098217001
 20
147.0202104392221
 30
0.0
 10
172.3538098217001
 20
131.0293725485971
 30
0.0
 10
172.3538098217001
 20
117.033823720472
 30
0.0
 10
162.4269738842003
 20
105.358009267347
 30
0.0
 10
149.2298879467002
 20
102.6614916892221
 30
0.0
 10
149.2298879467002
 20
102.6614916892221
 30
0.0
 10
148.9649738842003
 20
102.609897939222
 30
0.0
 10
148.8022551342003
 20
102.8956479392221
 30
0.0
 10
148.8022551342003
 20
102.8956479392221
 30
0.0
 10
148.8022551342003
 20
108.829673329847
 30
0.0
 10
148.8022551342003
 20
108.829673329847
 30
0.0
 10
158.8064816967004
 20
111.1620580954721
 30
0.0
 10
166.2642590404503
 20
120.134161611097
 30
0.0
 10
166.2642590404503
 20
130.848050282972
 30
0.0
 10
166.2642590404503
 20
143.3329936423471
 30
0.0
 10
156.1414660717003
 20
153.4552905173471
 30
0.0
 10
143.6572668529503
 20
153.4552905173471
 30
0.0
 10
141.0108771055436
 20
153.4552905173471
 30
0.0
 10
138.4707189762583
 20
153.000426043391
 30
0.0
 10
136.1106332822556
 20
152.1647761088246
 30
0.0
  0
LINE
  5
6A6
102
{ACAD_REACTORS
330
7AA
102
}
330
75
100
AcDbEntity
  8
外形線
 62
     7
100
AcDbLine
 10
93.21109102949804
 20
225.2058079034266
 30
0.0
 11
33.72224407166017
 21
225.2058079034266
 31
0.0
  0
POLYLINE
  5
6A7
330
75
100
AcDbEntity
  8
外形線
 62
     7
100
AcDb2dPolyline
 66
     1
 10
0.0
 20
0.0
 30
0.0
 70
     1
  0
VERTEX
  5
6A8
330
6A7
100
AcDbEntity
  8
外形線
 62
     7
100
AcDbVertex
100
AcDb2dVertex
 10
64.75908937028657
 20
200.6962951034265
 30
0.0
  0
VERTEX
  5
6A9
330
6A7
100
AcDbEntity
  8
外形線
 62
     7
100
AcDbVertex
100
AcDb2dVertex
 10
64.75908937028657
 20
199.9248698234266
 30
0.0
  0
VERTEX
  5
6AA
330
6A7
100
AcDbEntity
  8
外形線
 62
     7
100
AcDbVertex
100
AcDb2dVertex
 10
62.60529865028662
 20
199.9248698234266
 30
0.0
  0
VERTEX
  5
6AB
330
6A7
100
AcDbEntity
  8
外形線
 62
     7
100
AcDbVertex
100
AcDb2dVertex
 10
62.60529865028662
 20
200.6962951034265
 30
0.0
  0
SEQEND
  5
6AC
330
6A7
100
AcDbEntity
  8
外形線
 62
     7
  0
SPLINE
  5
6AD
330
75
100
AcDbEntity
  8
外形線
 62
     7
100
AcDbSpline
210
0.0
220
0.0
230
1.0
 70
    11
 71
     3
 72
    17
 73
    13
 74
     0
 42
0.0000000001
 43
0.0000000001
 40
0.0
 40
0.0
 40
0.0
 40
0.0
 40
1.0
 40
1.0
 40
1.0
 40
2.0
 40
2.0
 40
2.0
 40
3.0
 40
3.0
 40
3.0
 40
4.0
 40
4.0
 40
4.0
 40
4.0
 10
65.30082420091161
 20
200.8853075346766
 30
0.0
 10
65.30082420091161
 20
200.8853075346766
 30
0.0
 10
65.30082420091161
 20
199.8043192534266
 30
0.0
 10
65.30082420091161
 20
199.8043192534266
 30
0.0
 10
65.30082420091161
 20
199.8043192534266
 30
0.0
 10
63.86388865403656
 20
198.7131610503015
 30
0.0
 10
62.0638124821616
 20
199.7140301909265
 30
0.0
 10
62.0638124821616
 20
199.7140301909265
 30
0.0
 10
62.0638124821616
 20
200.8853075346766
 30
0.0
 10
62.0638124821616
 20
200.8853075346766
 30
0.0
 10
62.0638124821616
 20
200.8853075346766
 30
0.0
 10
65.30082420091161
 20
200.8853075346766
 30
0.0
 10
65.30082420091161
 20
200.8853075346766
 30
0.0
  0
SPLINE
  5
6B0
330
75
100
AcDbEntity
  8
外形線
 62
     7
100
AcDbSpline
210
0.0
220
0.0
230
1.0
 70
     8
 71
     3
 72
    11
 73
     7
 74
     0
 42
0.0000000001
 43
0.0000000001
 40
0.0
 40
0.0
 40
0.0
 40
0.0
 40
1.0
 40
1.0
 40
1.0
 40
2.0
 40
2.0
 40
2.0
 40
2.0
 10
44.18831443528655
 20
198.9765868315514
 30
0.0
 10
44.66233201341156
 20
188.7119110503015
 30
0.0
 10
53.20729881028656
 20
180.5340536284265
 30
0.0
 10
63.68132615403656
 20
180.5340536284265
 30
0.0
 10
74.15584959153655
 20
180.5340536284265
 30
0.0
 10
82.70205662278653
 20
188.7119110503015
 30
0.0
 10
83.17607420091162
 20
198.9765868315514
 30
0.0
  0
DIMENSION
  5
6FF
330
75
100
AcDbEntity
  8
AM_5
100
AcDbDimension
  2
*D31
 10
121.8974210902866
 20
203.3823947834267
 30
0.0
 11
119.3974210902865
 21
214.2941013434267
 31
0.0
 70
    32
  1
46
 71
     5
 42
21.82341311999994
  3
AM_ISO$0
100
AcDbAlignedDimension
 13
93.23090185028654
 23
225.2058079034266
 33
0.0
 14
90.7506818502866
 24
203.3823947834267
 34
0.0
 50
90.0
100
AcDbRotatedDimension
1001
ACAD_DSTYLE_DIMINSPECT
1070
   396
1000
100%
1070
   395
1000

1070
   394
1070
    33
1070
   393
1070
     0
  0
DIMENSION
  5
720
330
75
100
AcDbEntity
  8
AM_5
100
AcDbDimension
  2
*D32
 10
131.8974210902865
 20
180.5340536391524
 30
0.0
 11
129.3974210902865
 21
202.8699307712895
 31
0.0
 70
    32
  1
102
 71
     5
 42
44.67175426427417
  3
AM_ISO$0
100
AcDbAlignedDimension
 13
93.23090185028654
 23
225.2058079034266
 33
0.0
 14
63.68198319242672
 24
180.5340536391524
 34
0.0
 50
90.0
100
AcDbRotatedDimension
1001
ACAD_DSTYLE_DIMINSPECT
1070
   396
1000
100%
1070
   395
1000

1070
   394
1070
    33
1070
   393
1070
     0
  0
DIMENSION
  5
79C
102
{ACAD_XDICTIONARY
360
7A9
102
}
102
{ACAD_REACTORS
330
7AA
102
}
330
75
100
AcDbEntity
  8
AM_5
100
AcDbDimension
  2
*D33
 10
33.72224407166017
 20
237.0722175506036
 30
0.0
 11
63.47657296097334
 21
239.5722175506036
 31
0.0
 70
    32
  1
%%c143
 71
     5
 42
59.50865777862638
  3
AM_ISO$0
100
AcDbAlignedDimension
 13
93.23090185028654
 23
225.2058079034266
 33
0.0
 14
33.72224407166017
 24
225.2058079034266
 34
0.0
100
AcDbRotatedDimension
1001
ACAD_DSTYLE_DIMINSPECT
1070
   396
1000
100%
1070
   395
1000

1070
   394
1070
    33
1070
   393
1070
     0
  0
DIMENSION
  5
7F5
102
{ACAD_XDICTIONARY
360
802
102
}
102
{ACAD_REACTORS
330
803
102
}
330
75
100
AcDbEntity
  8
AM_5
100
AcDbDimension
  2
*D34
 10
183.1979390043611
 20
122.9855553549852
 30
0.0
 11
181.2380023768964
 21
140.4023418568254
 31
0.0
 70
    33
  1
80
 71
     5
 42
34.69500273148046
  3
AM_ISO$0
100
AcDbAlignedDimension
 13
141.7523480142209
 23
148.0296021931584
 33
0.0
 14
150.5103010655169
 24
114.4581638431453
 34
0.0
1001
ACAD_DSTYLE_DIMINSPECT
1070
   396
1000
100%
1070
   395
1000

1070
   394
1070
    33
1070
   393
1070
     0
  0
DIMENSION
  5
828
102
{ACAD_XDICTIONARY
360
835
102
}
102
{ACAD_REACTORS
330
836
102
}
330
75
100
AcDbEntity
  8
AM_5
100
AcDbDimension
  2
*D35
 10
136.770807679884
 20
88.47681826842306
 30
0.0
 11
152.8954105911063
 21
95.28197146816792
 31
0.0
 70
    33
  1
80
 71
     5
 42
34.64464917510908
  3
AM_ISO$0
100
AcDbAlignedDimension
 13
161.0537038121784
 23
132.5197369891804
 33
0.0
 14
127.5383162856238
 24
123.7464528030133
 34
0.0
1001
ACAD_DSTYLE_DIMINSPECT
1070
   396
1000
100%
1070
   395
1000

1070
   394
1070
    33
1070
   393
1070
     0
  0
INSERT
  5
8A3
330
75
100
AcDbEntity
  8
AM_5
100
AcDbBlockReference
  2
*S4037
 10
0.0
 20
0.0
 30
0.0
  0
INSERT
  5
8A7
330
75
100
AcDbEntity
  8
AM_5
100
AcDbBlockReference
  2
*S4138
 10
0.0
 20
0.0
 30
0.0
  0
SPLINE
  5
96F
330
75
100
AcDbEntity
  8
外形線
 62
     7
100
AcDbSpline
210
0.0
220
0.0
230
1.0
 70
    24
 71
     3
 72
     8
 73
     4
 74
     0
 42
0.0000000001
 43
0.0000000001
 40
0.1201338888660079
 40
0.1201338888660079
 40
0.1201338888660079
 40
0.1201338888660079
 40
1.0
 40
1.0
 40
1.0
 40
1.0
 10
122.2754624826229
 20
138.2137329587992
 30
0.0
 10
121.6769552361001
 20
138.418449012825
 30
0.0
 10
119.1859543529504
 20
139.270481923597
 30
0.0
 10
119.1859543529504
 20
139.270481923597
 30
0.0
  0
SPLINE
  5
970
330
75
100
AcDbEntity
  8
外形線
 62
     7
100
AcDbSpline
210
0.0
220
0.0
230
1.0
 70
    24
 71
     3
 72
     8
 73
     4
 74
     0
 42
0.0000000001
 43
0.0000000001
 40
1.0
 40
1.0
 40
1.0
 40
1.0
 40
2.0
 40
2.0
 40
2.0
 40
2.0
 10
119.1859543529504
 20
139.270481923597
 30
0.0
 10
119.1859543529504
 20
139.270481923597
 30
0.0
 10
119.0768137279503
 20
139.3922729392221
 30
0.0
 10
119.0768137279503
 20
139.3922729392221
 30
0.0
  0
SPLINE
  5
971
330
75
100
AcDbEntity
  8
外形線
 62
     7
100
AcDbSpline
210
0.0
220
0.0
230
1.0
 70
     8
 71
     3
 72
     8
 73
     4
 74
     0
 42
0.0000000001
 43
0.0000000001
 40
2.0
 40
2.0
 40
2.0
 40
2.0
 40
3.0
 40
3.0
 40
3.0
 40
3.0
 10
119.0768137279503
 20
139.3922729392221
 30
0.0
 10
121.4922941967004
 20
146.2381186423471
 30
0.0
 10
126.6868918529504
 20
151.7727885642221
 30
0.0
 10
133.3057746654504
 20
154.641202626722
 30
0.0
  0
SPLINE
  5
972
330
75
100
AcDbEntity
  8
外形線
 62
     7
100
AcDbSpline
210
0.0
220
0.0
230
1.0
 70
     8
 71
     3
 72
     8
 73
     4
 74
     0
 42
0.0000000001
 43
0.0000000001
 40
3.0
 40
3.0
 40
3.0
 40
3.0
 40
4.0
 40
4.0
 40
4.0
 40
4.0
 10
133.3057746654504
 20
154.641202626722
 30
0.0
 10
133.8266731029504
 20
154.866925282972
 30
0.0
 10
134.3560051342003
 20
155.076028798597
 30
0.0
 10
134.8937707592003
 20
155.2680170798471
 30
0.0
  0
SPLINE
  5
973
330
75
100
AcDbEntity
  8
外形線
 62
     7
100
AcDbSpline
210
0.0
220
0.0
230
1.0
 70
    24
 71
     3
 72
     8
 73
     4
 74
     0
 42
0.0000000001
 43
0.0000000001
 40
4.0
 40
4.0
 40
4.0
 40
4.0
 40
5.0
 40
5.0
 40
5.0
 40
5.0
 10
134.8937707592003
 20
155.2680170798471
 30
0.0
 10
134.8937707592003
 20
155.2680170798471
 30
0.0
 10
135.0187863842003
 20
155.187897939222
 30
0.0
 10
135.0187863842003
 20
155.187897939222
 30
0.0
  0
SPLINE
  5
974
330
75
100
AcDbEntity
  8
外形線
 62
     7
100
AcDbSpline
210
0.0
220
0.0
230
1.0
 70
    24
 71
     3
 72
     8
 73
     4
 74
     0
 42
0.0000000001
 43
0.0000000001
 40
5.0
 40
5.0
 40
5.0
 40
5.0
 40
5.946890912642452
 40
5.946890912642452
 40
5.946890912642452
 40
5.946890912642452
 10
135.0187863842003
 20
155.187897939222
 30
0.0
 10
135.0187863842003
 20
155.187897939222
 30
0.0
 10
136.0057950259056
 20
152.4550538226661
 30
0.0
 10
136.1106332822556
 20
152.1647761088246
 30
0.0
  0
LINE
  5
975
330
75
100
AcDbEntity
  8
外形線
 62
     7
100
AcDbLine
 10
93.21109102949804
 20
225.2058079034266
 30
0.0
 11
90.74274457028662
 21
203.9109827834266
 31
0.0
  0
LINE
  5
976
330
75
100
AcDbEntity
  8
外形線
 62
     7
100
AcDbLine
 10
90.74274457028662
 20
203.9109827834266
 30
0.0
 11
36.44329945028657
 21
203.9109827834266
 31
0.0
  0
LINE
  5
977
330
75
100
AcDbEntity
  8
外形線
 62
     7
100
AcDbLine
 10
36.44329945028657
 20
203.9109827834266
 30
0.0
 11
33.72224407166011
 21
225.2058079034266
 31
0.0
  0
SPLINE
  5
978
330
75
100
AcDbEntity
  8
外形線
 62
     7
100
AcDbSpline
210
0.0
220
0.0
230
1.0
 70
     8
 71
     3
 72
    11
 73
     7
 74
     0
 42
0.0000000001
 43
0.0000000001
 40
0.0
 40
0.0
 40
0.0
 40
0.0
 40
1.0
 40
1.0
 40
1.0
 40
2.0
 40
2.0
 40
2.0
 40
2.0
 10
90.67825249747407
 20
203.3967823578016
 30
0.0
 10
90.67825249747407
 20
203.3967823578016
 30
0.0
 10
36.68514507559905
 20
203.3967823578016
 30
0.0
 10
36.68514507559905
 20
203.3967823578016
 30
0.0
 10
36.68514507559905
 20
203.3967823578016
 30
0.0
 10
38.45917632559905
 20
199.2377804046766
 30
0.0
 10
40.28554546622404
 20
199.1112764984265
 30
0.0
  0
SPLINE
  5
979
330
75
100
AcDbEntity
  8
外形線
 62
     7
100
AcDbSpline
210
0.0
220
0.0
230
1.0
 70
     8
 71
     3
 72
    11
 73
     7
 74
     0
 42
0.0000000001
 43
0.0000000001
 40
0.0
 40
0.0
 40
0.0
 40
0.0
 40
1.0
 40
1.0
 40
1.0
 40
2.0
 40
2.0
 40
2.0
 40
2.0
 10
90.67825249747407
 20
203.3967823578016
 30
0.0
 10
90.67825249747407
 20
203.3967823578016
 30
0.0
 10
88.68122710684906
 20
199.6659093109266
 30
0.0
 10
87.07785210684908
 20
199.1273995453015
 30
0.0
 10
87.07785210684908
 20
199.1273995453015
 30
0.0
 10
39.97127007559905
 20
199.1273995453015
 30
0.0
 10
39.97127007559905
 20
199.1273995453015
 30
0.0
  0
ENDSEC
  0
SECTION
  2
OBJECTS
  0
DICTIONARY
  5
C
330
0
100
AcDbDictionary
281
     1
  3
ACAD_2007HEADERVARS_RT
350
A41
  3
ACAD_COLOR
350
6B
  3
ACAD_GROUP
350
D
  3
ACAD_LAYOUT
350
6A
  3
ACAD_MATERIAL
350
10
  3
ACAD_MLEADERSTYLE
350
6E
  3
ACAD_MLINESTYLE
350
67
  3
ACAD_PLOTSETTINGS
350
69
  3
ACAD_PLOTSTYLENAME
350
E
  3
ACAD_SCALELIST
350
3A
  3
ACAD_TABLESTYLE
350
6C
  3
ACAD_VISUALSTYLE
350
29
  3
ACDB_RECOMPOSE_DATA
350
163
  3
AcDbVariableDictionary
350
164
  3
AcmDictionary
350
DC
  3
AMG
350
7F
  3
AMGSNAPSETTINGS
350
13A
  3
ASE_INDEX_DICTIONARY
350
A3D
  3
DWGPROPS
350
A40
  0
DICTIONARY
  5
12A
330
2
100
AcDbDictionary
280
     1
281
     1
  3
ACAD_LAYERSTATES
360
12B
  3
AMLAYER_GROUPCOLORS
360
1BE
  0
DICTIONARY
  5
158
330
5C
100
AcDbDictionary
280
     1
281
     1
  3
ADSK_XREC_LAYER_RECONCILED
360
159
  0
DICTIONARY
  5
11A
330
119
100
AcDbDictionary
280
     1
281
     1
  3
ADSK_XREC_LAYER_RECONCILED
360
15A
  0
DICTIONARY
  5
11C
330
11B
100
AcDbDictionary
280
     1
281
     1
  3
ADSK_XREC_LAYER_RECONCILED
360
15B
  0
DICTIONARY
  5
15C
330
11D
100
AcDbDictionary
280
     1
281
     1
  3
ADSK_XREC_LAYER_RECONCILED
360
15D
  0
DICTIONARY
  5
78E
330
75
100
AcDbDictionary
280
     1
281
     1
  3
ACAD_SORTENTS
360
78F
  0
DICTIONARY
  5
7A9
330
79C
100
AcDbDictionary
280
     1
281
     1
  3
ACAD_DIMASSOC
360
7AA
  0
DICTIONARY
  5
802
330
7F5
100
AcDbDictionary
280
     1
281
     1
  3
ACAD_DIMASSOC
360
803
  0
DICTIONARY
  5
835
330
828
100
AcDbDictionary
280
     1
281
     1
  3
ACAD_DIMASSOC
360
836
  0
DICTIONARY
  5
A41
102
{ACAD_REACTORS
330
C
102
}
330
C
100
AcDbDictionary
281
     1
  3
DIMARCSYM
350
A42
  3
DIMJOGANG
350
A43
  0
DICTIONARY
  5
6B
102
{ACAD_REACTORS
330
C
102
}
330
C
100
AcDbDictionary
281
     1
  0
DICTIONARY
  5
D
102
{ACAD_REACTORS
330
C
102
}
330
C
100
AcDbDictionary
281
     1
  0
DICTIONARY
  5
6A
102
{ACAD_REACTORS
330
C
102
}
330
C
100
AcDbDictionary
281
     1
  3
Model
350
78
  3
レイアウト1
350
74
  3
レイアウト2
350
7C
  0
DICTIONARY
  5
10
102
{ACAD_REACTORS
330
C
102
}
330
C
100
AcDbDictionary
281
     1
  3
ByBlock
350
19
  3
ByLayer
350
11
  3
Global
350
21
  0
DICTIONARY
  5
6E
102
{ACAD_REACTORS
330
C
102
}
330
C
100
AcDbDictionary
281
     1
  3
Standard
350
6F
  0
DICTIONARY
  5
67
102
{ACAD_REACTORS
330
C
102
}
330
C
100
AcDbDictionary
281
     1
  3
Standard
350
68
  0
DICTIONARY
  5
69
102
{ACAD_REACTORS
330
C
102
}
330
C
100
AcDbDictionary
281
     1
  0
ACDBDICTIONARYWDFLT
  5
E
102
{ACAD_REACTORS
330
C
102
}
330
C
100
AcDbDictionary
281
     1
  3
Normal
350
F
100
AcDbDictionaryWithDefault
340
F
  0
DICTIONARY
  5
3A
102
{ACAD_REACTORS
330
C
102
}
330
C
100
AcDbDictionary
281
     1
  3
A0
350
3B
  3
A1
350
3C
  3
A2
350
3D
  3
A3
350
3E
  3
A4
350
3F
  3
A5
350
40
  3
A6
350
41
  3
A7
350
42
  3
A8
350
43
  3
A9
350
44
  3
B0
350
45
  3
B1
350
46
  3
B2
350
47
  3
B3
350
48
  3
B4
350
49
  3
B5
350
4A
  3
B6
350
4B
  3
B7
350
4C
  3
B8
350
4D
  3
B9
350
4E
  3
C0
350
4F
  3
C1
350
50
  3
C2
350
51
  3
C3
350
52
  3
C4
350
53
  3
C5
350
54
  3
C6
350
55
  3
C7
350
56
  3
C8
350
57
  3
C9
350
58
  3
D0
350
59
  3
D1
350
5A
  3
D2
350
5B
  0
DICTIONARY
  5
6C
102
{ACAD_REACTORS
330
C
102
}
330
C
100
AcDbDictionary
281
     1
  3
Standard
350
6D
  0
DICTIONARY
  5
29
102
{ACAD_REACTORS
330
C
102
}
330
C
100
AcDbDictionary
281
     1
  3
2dWireframe
350
2F
  3
3D Hidden
350
31
  3
3dWireframe
350
30
  3
Basic
350
2E
  3
Brighten
350
35
  3
ColorChange
350
39
  3
Conceptual
350
32
  3
Dim
350
34
  3
Facepattern
350
38
  3
Flat
350
2A
  3
FlatWithEdges
350
2B
  3
Gouraud
350
2C
  3
GouraudWithEdges
350
2D
  3
Linepattern
350
37
  3
Realistic
350
33
  3
Thicken
350
36
  0
XRECORD
  5
163
102
{ACAD_REACTORS
330
C
102
}
330
C
100
AcDbXrecord
280
     1
 90
        1
330
6D
  0
DICTIONARY
  5
164
102
{ACAD_REACTORS
330
C
102
}
330
C
100
AcDbDictionary
281
     1
  3
CANNOSCALE
350
167
  3
CMLEADERSTYLE
350
166
  3
CTABLESTYLE
350
165
  3
DIMASSOC
350
240
  3
HIDETEXT
350
23F
  3
INDEXCTL
350
23E
  3
LIGHTINGUNITS
350
23C
  3
MSLTSCALE
350
23B
  3
SORTENTS
350
23D
  0
DICTIONARY
  5
DC
102
{ACAD_REACTORS
330
C
102
}
330
C
100
AcDbDictionary
281
     1
  3
AcmStdDictionary
350
DE
  3
AMDTSECTSYM_ARROWCOLOR
350
F6
  0
DICTIONARY
  5
7F
102
{ACAD_REACTORS
330
C
102
}
330
C
100
AcDbDictionary
281
     1
  0
DICTIONARY
  5
13A
102
{ACAD_REACTORS
330
C
102
}
330
C
100
AcDbDictionary
281
     1
  0
DICTIONARY
  5
A3D
102
{ACAD_REACTORS
330
C
102
}
330
C
100
AcDbDictionary
281
     1
  3
ASEBlockHierarchyIndexRecord
350
A3E
1001
DCO15
1040
1689508091.656
  0
XRECORD
  5
A40
102
{ACAD_REACTORS
330
C
102
}
330
C
100
AcDbXrecord
280
     1
  1
DWGPROPS COOKIE
  2

  3

  4

  6

  7

  8
Administrator
  9

300
=
301
=
302
=
303
=
304
=
305
=
306
=
307
=
308
=
309
=
 40
0.0949560300925926
 41
2454313.581725069
 42
2455357.703653426
  1

 90
        0
  0
DICTIONARY
  5
12B
102
{ACAD_REACTORS
330
12A
102
}
330
12A
100
AcDbDictionary
281
     1
  0
DICTIONARY
  5
1BE
102
{ACAD_REACTORS
330
12A
102
}
330
12A
100
AcDbDictionary
280
     1
281
     1
  0
XRECORD
  5
159
102
{ACAD_REACTORS
330
158
102
}
330
158
100
AcDbXrecord
280
     1
290
     1
  0
XRECORD
  5
15A
102
{ACAD_REACTORS
330
11A
102
}
330
11A
100
AcDbXrecord
280
     1
290
     1
  0
XRECORD
  5
15B
102
{ACAD_REACTORS
330
11C
102
}
330
11C
100
AcDbXrecord
280
     1
290
     1
  0
XRECORD
  5
15D
102
{ACAD_REACTORS
330
15C
102
}
330
15C
100
AcDbXrecord
280
     1
290
     1
  0
SORTENTSTABLE
  5
78F
102
{ACAD_REACTORS
330
78E
102
}
330
78E
100
AcDbSortentsTable
330
75
331
720
  5
974
331
8A3
  5
978
331
979
  5
8A7
331
978
  5
8A3
331
977
  5
971
331
976
  5
970
331
975
  5
96F
331
974
  5
67D
331
973
  5
67C
331
972
  5
67B
331
971
  5
67A
331
970
  5
679
331
6AD
  5
79C
331
96F
  5
678
331
6A7
  5
796
331
6A6
  5
790
331
6B0
  5
972
331
6A5
  5
788
331
6A4
  5
720
331
67F
  5
699
331
6A3
  5
6AE
331
67E
  5
698
331
6A2
  5
6AD
331
828
  5
977
331
67D
  5
683
331
6A1
  5
6A7
331
6A0
  5
6A6
331
67C
  5
682
331
67B
  5
681
331
7F5
  5
976
331
67A
  5
680
331
679
  5
67F
331
683
  5
69F
331
682
  5
69E
331
678
  5
67E
331
681
  5
69B
331
6FF
  5
973
331
680
  5
69A
331
4D7
  5
4D7
331
4D6
  5
4D6
331
4D5
  5
4D5
331
4D4
  5
4D4
331
4D3
  5
4D3
331
79C
  5
975
331
4D2
  5
4D2
331
4D1
  5
4D1
331
4D0
  5
4D0
331
69F
  5
6A5
331
4CF
  5
4CF
331
4CE
  5
4CE
331
69E
  5
6A4
331
4CD
  5
4CD
331
69B
  5
6A3
331
69A
  5
6A2
331
699
  5
6A1
331
8A7
  5
979
331
698
  5
6A0
  0
DIMASSOC
  5
7AA
102
{ACAD_REACTORS
330
7A9
102
}
330
7A9
100
AcDbDimAssoc
330
79C
 90
        2
 70
     0
 71
     0
  1
AcDbOsnapPointRef
 72
     1
331
6A6
 73
     0
 91
        0
 40
0.0
 10
0.0
 20
0.0
 30
2.000000000000000E+50
 75
     0
  0
DIMASSOC
  5
803
102
{ACAD_REACTORS
330
802
102
}
330
802
100
AcDbDimAssoc
330
7F5
 90
        3
 70
     0
 71
     0
  1
AcDbOsnapPointRef
 72
     1
331
69B
331
60B
 73
     0
 91
        0
 40
0.0
 10
0.0
 20
0.0
 30
2.000000000000000E+50
 75
     0
  1
AcDbOsnapPointRef
 72
     1
331
69A
331
606
 73
     0
 91
        0
 40
0.0
 10
0.0
 20
0.0
 30
2.000000000000000E+50
 75
     0
  0
DIMASSOC
  5
836
102
{ACAD_REACTORS
330
835
102
}
330
835
100
AcDbDimAssoc
330
828
 90
        3
 70
     0
 71
     0
  1
AcDbOsnapPointRef
 72
     1
331
698
331
5FB
 73
     0
 91
        0
 40
0.0
 10
0.0
 20
0.0
 30
2.000000000000000E+50
 75
     0
  1
AcDbOsnapPointRef
 72
     1
331
699
331
600
 73
     0
 91
        0
 40
0.0
 10
0.0
 20
0.0
 30
2.000000000000000E+50
 75
     0
  0
XRECORD
  5
A42
102
{ACAD_REACTORS
330
A41
102
}
330
A41
100
AcDbXrecord
280
     1
 70
     1
  0
XRECORD
  5
A43
102
{ACAD_REACTORS
330
A41
102
}
330
A41
100
AcDbXrecord
280
     1
 40
1.570796326794896
  0
LAYOUT
  5
78
102
{ACAD_XDICTIONARY
360
A47
102
}
102
{ACAD_REACTORS
330
6A
102
}
330
6A
100
AcDbPlotSettings
  1

  2
LP-S9000(ネットワーク)
  4
A4
  6

 40
5.873749732971191
 41
5.873717308044432
 42
5.873748779296875
 43
5.873748779296875
 44
209.9733276367186
 45
297.0106506347656
 46
-5.887085437774657
 47
-5.868407726287839
 48
0.0
 49
0.0
140
0.0
141
0.0
142
1.0
143
1.0
 70
 11940
 72
     1
 73
     0
 74
     2
  7
monochrome.ctb
 75
     0
147
0.6674270340890596
148
0.0
149
0.0
100
AcDbLayout
  1
Model
 70
     1
 71
     0
 10
0.0
 20
0.0
 11
12.0
 21
9.0
 12
0.0
 22
0.0
 32
0.0
 14
0.0
 24
0.0
 34
0.0
 15
0.0
 25
0.0
 35
0.0
146
0.0
 13
0.0
 23
0.0
 33
0.0
 16
1.0
 26
0.0
 36
0.0
 17
0.0
 27
1.0
 37
0.0
 76
     0
330
75
331
5F
1001
ACAD_PSEXT
1000
LP-S9000(ネットワーク)
1000
EPSON LP-S9000
1000
192.168.0.95:LP-S9000
1000

1070
     0
  0
LAYOUT
  5
74
102
{ACAD_XDICTIONARY
360
A45
102
}
102
{ACAD_REACTORS
330
6A
102
}
330
6A
100
AcDbPlotSettings
  1

  2
EPSON LP-8800C
  4

  6

 40
0.0
 41
0.0
 42
0.0
 43
0.0
 44
0.0
 45
0.0
 46
0.0
 47
0.0
 48
0.0
 49
0.0
140
0.0
141
0.0
142
1.0
143
1.0
 70
   688
 72
     0
 73
     0
 74
     5
  7
monochrome.ctb
 75
    16
147
1.0
148
0.0
149
0.0
100
AcDbLayout
  1
レイアウト1
 70
     1
 71
     1
 10
0.0
 20
0.0
 11
420.0
 21
297.0
 12
0.0
 22
0.0
 32
0.0
 14
1.000000000000000E+20
 24
1.000000000000000E+20
 34
1.000000000000000E+20
 15
-1.000000000000000E+20
 25
-1.000000000000000E+20
 35
-1.000000000000000E+20
146
0.0
 13
0.0
 23
0.0
 33
0.0
 16
1.0
 26
0.0
 36
0.0
 17
0.0
 27
1.0
 37
0.0
 76
     0
330
71
  0
LAYOUT
  5
7C
102
{ACAD_XDICTIONARY
360
A49
102
}
102
{ACAD_REACTORS
330
6A
102
}
330
6A
100
AcDbPlotSettings
  1

  2
EPSON LP-8800C
  4

  6

 40
0.0
 41
0.0
 42
0.0
 43
0.0
 44
0.0
 45
0.0
 46
0.0
 47
0.0
 48
0.0
 49
0.0
140
0.0
141
0.0
142
1.0
143
1.0
 70
   688
 72
     0
 73
     0
 74
     5
  7
monochrome.ctb
 75
    16
147
1.0
148
0.0
149
0.0
100
AcDbLayout
  1
レイアウト2
 70
     1
 71
     2
 10
0.0
 20
0.0
 11
12.0
 21
9.0
 12
0.0
 22
0.0
 32
0.0
 14
0.0
 24
0.0
 34
0.0
 15
0.0
 25
0.0
 35
0.0
146
0.0
 13
0.0
 23
0.0
 33
0.0
 16
1.0
 26
0.0
 36
0.0
 17
0.0
 27
1.0
 37
0.0
 76
     0
330
79
  0
MATERIAL
  5
19
102
{ACAD_XDICTIONARY
360
1A
102
}
102
{ACAD_REACTORS
330
10
102
}
330
10
100
AcDbMaterial
  1
ByBlock
 72
     0
 43
0.0208333333333333
 43
0.0
 43
0.0
 43
0.0
 43
0.0
 43
0.0208333333333333
 43
0.0
 43
0.0
 43
0.0
 43
0.0
 43
1.0
 43
0.0
 43
0.0
 43
0.0
 43
0.0
 43
1.0
 77
     0
 47
0.0208333333333333
 47
0.0
 47
0.0
 47
0.0
 47
0.0
 47
0.0208333333333333
 47
0.0
 47
0.0
 47
0.0
 47
0.0
 47
1.0
 47
0.0
 47
0.0
 47
0.0
 47
0.0
 47
1.0
171
     0
 49
0.0208333333333333
 49
0.0
 49
0.0
 49
0.0
 49
0.0
 49
0.0208333333333333
 49
0.0
 49
0.0
 49
0.0
 49
0.0
 49
1.0
 49
0.0
 49
0.0
 49
0.0
 49
0.0
 49
1.0
175
     0
142
0.0208333333333333
142
0.0
142
0.0
142
0.0
142
0.0
142
0.0208333333333333
142
0.0
142
0.0
142
0.0
142
0.0
142
1.0
142
0.0
142
0.0
142
0.0
142
0.0
142
1.0
179
     0
144
0.0208333333333333
144
0.0
144
0.0
144
0.0
144
0.0
144
0.0208333333333333
144
0.0
144
0.0
144
0.0
144
0.0
144
1.0
144
0.0
144
0.0
144
0.0
144
0.0
144
1.0
147
0.0208333333333333
147
0.0
147
0.0
147
0.0
147
0.0
147
0.0208333333333333
147
0.0
147
0.0
147
0.0
147
0.0
147
1.0
147
0.0
147
0.0
147
0.0
147
0.0
147
1.0
  0
MATERIAL
  5
11
102
{ACAD_XDICTIONARY
360
12
102
}
102
{ACAD_REACTORS
330
10
102
}
330
10
100
AcDbMaterial
  1
ByLayer
 72
     0
 43
0.0208333333333333
 43
0.0
 43
0.0
 43
0.0
 43
0.0
 43
0.0208333333333333
 43
0.0
 43
0.0
 43
0.0
 43
0.0
 43
1.0
 43
0.0
 43
0.0
 43
0.0
 43
0.0
 43
1.0
 77
     0
 47
0.0208333333333333
 47
0.0
 47
0.0
 47
0.0
 47
0.0
 47
0.0208333333333333
 47
0.0
 47
0.0
 47
0.0
 47
0.0
 47
1.0
 47
0.0
 47
0.0
 47
0.0
 47
0.0
 47
1.0
171
     0
 49
0.0208333333333333
 49
0.0
 49
0.0
 49
0.0
 49
0.0
 49
0.0208333333333333
 49
0.0
 49
0.0
 49
0.0
 49
0.0
 49
1.0
 49
0.0
 49
0.0
 49
0.0
 49
0.0
 49
1.0
175
     0
142
0.0208333333333333
142
0.0
142
0.0
142
0.0
142
0.0
142
0.0208333333333333
142
0.0
142
0.0
142
0.0
142
0.0
142
1.0
142
0.0
142
0.0
142
0.0
142
0.0
142
1.0
179
     0
144
0.0208333333333333
144
0.0
144
0.0
144
0.0
144
0.0
144
0.0208333333333333
144
0.0
144
0.0
144
0.0
144
0.0
144
1.0
144
0.0
144
0.0
144
0.0
144
0.0
144
1.0
147
0.0208333333333333
147
0.0
147
0.0
147
0.0
147
0.0
147
0.0208333333333333
147
0.0
147
0.0
147
0.0
147
0.0
147
1.0
147
0.0
147
0.0
147
0.0
147
0.0
147
1.0
  0
MATERIAL
  5
21
102
{ACAD_XDICTIONARY
360
22
102
}
102
{ACAD_REACTORS
330
10
102
}
330
10
100
AcDbMaterial
  1
Global
 72
     0
 43
0.0208333333333333
 43
0.0
 43
0.0
 43
0.0
 43
0.0
 43
0.0208333333333333
 43
0.0
 43
0.0
 43
0.0
 43
0.0
 43
1.0
 43
0.0
 43
0.0
 43
0.0
 43
0.0
 43
1.0
 77
     0
 47
0.0208333333333333
 47
0.0
 47
0.0
 47
0.0
 47
0.0
 47
0.0208333333333333
 47
0.0
 47
0.0
 47
0.0
 47
0.0
 47
1.0
 47
0.0
 47
0.0
 47
0.0
 47
0.0
 47
1.0
171
     0
 49
0.0208333333333333
 49
0.0
 49
0.0
 49
0.0
 49
0.0
 49
0.0208333333333333
 49
0.0
 49
0.0
 49
0.0
 49
0.0
 49
1.0
 49
0.0
 49
0.0
 49
0.0
 49
0.0
 49
1.0
175
     0
142
0.0208333333333333
142
0.0
142
0.0
142
0.0
142
0.0
142
0.0208333333333333
142
0.0
142
0.0
142
0.0
142
0.0
142
1.0
142
0.0
142
0.0
142
0.0
142
0.0
142
1.0
179
     0
144
0.0208333333333333
144
0.0
144
0.0
144
0.0
144
0.0
144
0.0208333333333333
144
0.0
144
0.0
144
0.0
144
0.0
144
1.0
144
0.0
144
0.0
144
0.0
144
0.0
144
1.0
147
0.0208333333333333
147
0.0
147
0.0
147
0.0
147
0.0
147
0.0208333333333333
147
0.0
147
0.0
147
0.0
147
0.0
147
1.0
147
0.0
147
0.0
147
0.0
147
0.0
147
1.0
  0
MLEADERSTYLE
  5
6F
102
{ACAD_REACTORS
330
6E
102
}
330
6E
100
AcDbMLeaderStyle
170
     2
171
     1
172
     0
 90
        2
 40
0.0
 41
0.0
173
     1
 91
-1056964608
340
63
 92
       -2
290
     1
 42
0.09
291
     1
 43
0.36
  3
Standard
 44
0.18
300

342
5D
174
     1
178
     6
175
     1
176
     0
 93
-1056964608
 45
0.18
292
     0
297
     0
 46
0.18
 94
-1056964608
 47
1.0
 49
1.0
140
1.0
293
     1
141
0.0
294
     1
177
     0
142
1.0
295
     0
296
     0
143
0.125
1001
ACAD_MLEADERVER
1070
     2
  0
MLINESTYLE
  5
68
102
{ACAD_REACTORS
330
67
102
}
330
67
100
AcDbMlineStyle
  2
STANDARD
 70
     0
  3

 62
   256
 51
90.0
 52
90.0
 71
     2
 49
0.5
 62
   256
  6
BYLAYER
 49
-0.5
 62
   256
  6
BYLAYER
  0
ACDBPLACEHOLDER
  5
F
102
{ACAD_REACTORS
330
E
102
}
330
E
  0
SCALE
  5
3B
102
{ACAD_REACTORS
330
3A
102
}
330
3A
100
AcDbScale
 70
     0
300
1:1
140
1.0
141
1.0
290
     1
  0
SCALE
  5
3C
102
{ACAD_REACTORS
330
3A
102
}
330
3A
100
AcDbScale
 70
     0
300
1:2
140
1.0
141
2.0
290
     0
  0
SCALE
  5
3D
102
{ACAD_REACTORS
330
3A
102
}
330
3A
100
AcDbScale
 70
     0
300
1:4
140
1.0
141
4.0
290
     0
  0
SCALE
  5
3E
102
{ACAD_REACTORS
330
3A
102
}
330
3A
100
AcDbScale
 70
     0
300
1:5
140
1.0
141
5.0
290
     0
  0
SCALE
  5
3F
102
{ACAD_REACTORS
330
3A
102
}
330
3A
100
AcDbScale
 70
     0
300
1:8
140
1.0
141
8.0
290
     0
  0
SCALE
  5
40
102
{ACAD_REACTORS
330
3A
102
}
330
3A
100
AcDbScale
 70
     0
300
1:10
140
1.0
141
10.0
290
     0
  0
SCALE
  5
41
102
{ACAD_REACTORS
330
3A
102
}
330
3A
100
AcDbScale
 70
     0
300
1:16
140
1.0
141
16.0
290
     0
  0
SCALE
  5
42
102
{ACAD_REACTORS
330
3A
102
}
330
3A
100
AcDbScale
 70
     0
300
1:20
140
1.0
141
20.0
290
     0
  0
SCALE
  5
43
102
{ACAD_REACTORS
330
3A
102
}
330
3A
100
AcDbScale
 70
     0
300
1:30
140
1.0
141
30.0
290
     0
  0
SCALE
  5
44
102
{ACAD_REACTORS
330
3A
102
}
330
3A
100
AcDbScale
 70
     0
300
1:40
140
1.0
141
40.0
290
     0
  0
SCALE
  5
45
102
{ACAD_REACTORS
330
3A
102
}
330
3A
100
AcDbScale
 70
     0
300
1:50
140
1.0
141
50.0
290
     0
  0
SCALE
  5
46
102
{ACAD_REACTORS
330
3A
102
}
330
3A
100
AcDbScale
 70
     0
300
1:100
140
1.0
141
100.0
290
     0
  0
SCALE
  5
47
102
{ACAD_REACTORS
330
3A
102
}
330
3A
100
AcDbScale
 70
     0
300
2:1
140
2.0
141
1.0
290
     0
  0
SCALE
  5
48
102
{ACAD_REACTORS
330
3A
102
}
330
3A
100
AcDbScale
 70
     0
300
4:1
140
4.0
141
1.0
290
     0
  0
SCALE
  5
49
102
{ACAD_REACTORS
330
3A
102
}
330
3A
100
AcDbScale
 70
     0
300
8:1
140
8.0
141
1.0
290
     0
  0
SCALE
  5
4A
102
{ACAD_REACTORS
330
3A
102
}
330
3A
100
AcDbScale
 70
     0
300
10:1
140
10.0
141
1.0
290
     0
  0
SCALE
  5
4B
102
{ACAD_REACTORS
330
3A
102
}
330
3A
100
AcDbScale
 70
     0
300
100:1
140
100.0
141
1.0
290
     0
  0
SCALE
  5
4C
102
{ACAD_REACTORS
330
3A
102
}
330
3A
100
AcDbScale
 70
     0
300
1/128" = 1'-0"
140
0.0078125
141
12.0
290
     0
  0
SCALE
  5
4D
102
{ACAD_REACTORS
330
3A
102
}
330
3A
100
AcDbScale
 70
     0
300
1/64" = 1'-0"
140
0.015625
141
12.0
290
     0
  0
SCALE
  5
4E
102
{ACAD_REACTORS
330
3A
102
}
330
3A
100
AcDbScale
 70
     0
300
1/32" = 1'-0"
140
0.03125
141
12.0
290
     0
  0
SCALE
  5
4F
102
{ACAD_REACTORS
330
3A
102
}
330
3A
100
AcDbScale
 70
     0
300
1/16" = 1'-0"
140
0.0625
141
12.0
290
     0
  0
SCALE
  5
50
102
{ACAD_REACTORS
330
3A
102
}
330
3A
100
AcDbScale
 70
     0
300
3/32" = 1'-0"
140
0.09375
141
12.0
290
     0
  0
SCALE
  5
51
102
{ACAD_REACTORS
330
3A
102
}
330
3A
100
AcDbScale
 70
     0
300
1/8" = 1'-0"
140
0.125
141
12.0
290
     0
  0
SCALE
  5
52
102
{ACAD_REACTORS
330
3A
102
}
330
3A
100
AcDbScale
 70
     0
300
3/16" = 1'-0"
140
0.1875
141
12.0
290
     0
  0
SCALE
  5
53
102
{ACAD_REACTORS
330
3A
102
}
330
3A
100
AcDbScale
 70
     0
300
1/4" = 1'-0"
140
0.25
141
12.0
290
     0
  0
SCALE
  5
54
102
{ACAD_REACTORS
330
3A
102
}
330
3A
100
AcDbScale
 70
     0
300
3/8" = 1'-0"
140
0.375
141
12.0
290
     0
  0
SCALE
  5
55
102
{ACAD_REACTORS
330
3A
102
}
330
3A
100
AcDbScale
 70
     0
300
1/2" = 1'-0"
140
0.5
141
12.0
290
     0
  0
SCALE
  5
56
102
{ACAD_REACTORS
330
3A
102
}
330
3A
100
AcDbScale
 70
     0
300
3/4" = 1'-0"
140
0.75
141
12.0
290
     0
  0
SCALE
  5
57
102
{ACAD_REACTORS
330
3A
102
}
330
3A
100
AcDbScale
 70
     0
300
1" = 1'-0"
140
1.0
141
12.0
290
     0
  0
SCALE
  5
58
102
{ACAD_REACTORS
330
3A
102
}
330
3A
100
AcDbScale
 70
     0
300
1-1/2" = 1'-0"
140
1.5
141
12.0
290
     0
  0
SCALE
  5
59
102
{ACAD_REACTORS
330
3A
102
}
330
3A
100
AcDbScale
 70
     0
300
3" = 1'-0"
140
3.0
141
12.0
290
     0
  0
SCALE
  5
5A
102
{ACAD_REACTORS
330
3A
102
}
330
3A
100
AcDbScale
 70
     0
300
6" = 1'-0"
140
6.0
141
12.0
290
     0
  0
SCALE
  5
5B
102
{ACAD_REACTORS
330
3A
102
}
330
3A
100
AcDbScale
 70
     0
300
1'-0" = 1'-0"
140
12.0
141
12.0
290
     0
  0
TABLESTYLE
  5
6D
102
{ACAD_XDICTIONARY
360
161
102
}
102
{ACAD_REACTORS
330
6C
102
}
330
6C
100
AcDbTableStyle
  3
Standard
 70
     0
 71
     0
 40
1.5
 41
1.5
280
     0
281
     0
  7
STANDARD
140
4.5
170
     2
 62
     0
 63
     7
283
     0
274
    -2
284
     1
 64
     0
275
    -2
285
     1
 65
     0
276
    -2
286
     1
 66
     0
277
    -2
287
     1
 67
     0
278
    -2
288
     1
 68
     0
279
    -2
289
     1
 69
     0
  7
STANDARD
140
6.0
170
     5
 62
     0
 63
     7
283
     0
274
    -2
284
     1
 64
     0
275
    -2
285
     1
 65
     0
276
    -2
286
     1
 66
     0
277
    -2
287
     1
 67
     0
278
    -2
288
     1
 68
     0
279
    -2
289
     1
 69
     0
  7
STANDARD
140
4.5
170
     5
 62
     0
 63
     7
283
     0
274
    -2
284
     1
 64
     0
275
    -2
285
     1
 65
     0
276
    -2
286
     1
 66
     0
277
    -2
287
     1
 67
     0
278
    -2
288
     1
 68
     0
279
    -2
289
     1
 69
     0
  0
VISUALSTYLE
  5
2F
102
{ACAD_REACTORS
330
29
102
}
330
29
100
AcDbVisualStyle
  2
2dWireframe
 70
     4
 71
     0
 72
     2
 73
     0
 90
        0
 40
-0.6
 41
-30.0
 62
     5
 63
     7
 74
     1
 91
        4
 64
     7
 65
   257
 75
     1
175
     1
 42
1.0
 92
        0
 66
   257
 43
1.0
 76
     1
 77
     6
 78
     2
 67
     7
 79
     5
170
     0
171
     0
290
     0
174
     0
 93
        1
 44
0.0
173
     0
291
     0
 45
0.0
1001
ACAD
1000
AcDbSavedByObjectVersion
1070
     0
1000
AcDbSavedByObjectVersion
1070
     0
1000
AcDbSavedByObjectVersion
1070
     0
1000
AcDbSavedByObjectVersion
1070
     0
1000
AcDbSavedByObjectVersion
1070
     0
1000
AcDbSavedByObjectVersion
1070
     0
1000
AcDbSavedByObjectVersion
1070
     0
  0
VISUALSTYLE
  5
31
102
{ACAD_REACTORS
330
29
102
}
330
29
100
AcDbVisualStyle
  2
3D Hidden
 70
     6
 71
     1
 72
     2
 73
     2
 90
        0
 40
-0.6
 41
-30.0
 62
     5
 63
     7
 74
     2
 91
        2
 64
     7
 65
   257
 75
     2
175
     1
 42
40.0
 92
        0
 66
   257
 43
1.0
 76
     1
 77
     6
 78
     2
 67
     7
 79
     3
170
     0
171
     0
290
     0
174
     0
 93
        1
 44
0.0
173
     0
291
     0
 45
0.0
1001
ACAD
1000
AcDbSavedByObjectVersion
1070
     0
1000
AcDbSavedByObjectVersion
1070
     0
1000
AcDbSavedByObjectVersion
1070
     0
1000
AcDbSavedByObjectVersion
1070
     0
1000
AcDbSavedByObjectVersion
1070
     0
1000
AcDbSavedByObjectVersion
1070
     0
1000
AcDbSavedByObjectVersion
1070
     0
  0
VISUALSTYLE
  5
30
102
{ACAD_REACTORS
330
29
102
}
330
29
100
AcDbVisualStyle
  2
3dWireframe
 70
     5
 71
     0
 72
     2
 73
     0
 90
        0
 40
-0.6
 41
-30.0
 62
     5
 63
     7
 74
     1
 91
        4
 64
     7
 65
   257
 75
     1
175
     1
 42
1.0
 92
        0
 66
   257
 43
1.0
 76
     1
 77
     6
 78
     2
 67
     7
 79
     5
170
     0
171
     0
290
     0
174
     0
 93
        1
 44
0.0
173
     0
291
     0
 45
0.0
1001
ACAD
1000
AcDbSavedByObjectVersion
1070
     0
1000
AcDbSavedByObjectVersion
1070
     0
1000
AcDbSavedByObjectVersion
1070
     0
1000
AcDbSavedByObjectVersion
1070
     0
1000
AcDbSavedByObjectVersion
1070
     0
1000
AcDbSavedByObjectVersion
1070
     0
1000
AcDbSavedByObjectVersion
1070
     0
  0
VISUALSTYLE
  5
2E
102
{ACAD_REACTORS
330
29
102
}
330
29
100
AcDbVisualStyle
  2
Basic
 70
     7
 71
     1
 72
     0
 73
     1
 90
        0
 40
-0.6
 41
-30.0
 62
     5
 63
     7
 74
     0
 91
        4
 64
     7
 65
   257
 75
     1
175
     1
 42
1.0
 92
        8
 66
     7
 43
1.0
 76
     1
 77
     6
 78
     2
 67
     7
 79
     5
170
     0
171
     0
290
     0
174
     0
 93
        1
 44
0.0
173
     0
291
     1
 45
0.0
1001
ACAD
1000
AcDbSavedByObjectVersion
1070
     0
1000
AcDbSavedByObjectVersion
1070
     0
1000
AcDbSavedByObjectVersion
1070
     0
1000
AcDbSavedByObjectVersion
1070
     0
1000
AcDbSavedByObjectVersion
1070
     0
1000
AcDbSavedByObjectVersion
1070
     0
1000
AcDbSavedByObjectVersion
1070
     0
  0
VISUALSTYLE
  5
35
102
{ACAD_REACTORS
330
29
102
}
330
29
100
AcDbVisualStyle
  2
Brighten
 70
    12
 71
     2
 72
     2
 73
     0
 90
        0
 40
-0.6
 41
-30.0
 62
     5
 63
     7
 74
     1
 91
        4
 64
     7
 65
   257
 75
     1
175
     1
 42
1.0
 92
        8
 66
     7
 43
1.0
 76
     1
 77
     6
 78
     2
 67
     7
 79
     5
170
     0
171
     0
290
     0
174
     0
 93
        1
 44
50.0
173
     0
291
     1
 45
0.0
1001
ACAD
1000
AcDbSavedByObjectVersion
1070
     0
1000
AcDbSavedByObjectVersion
1070
     0
1000
AcDbSavedByObjectVersion
1070
     0
1000
AcDbSavedByObjectVersion
1070
     0
1000
AcDbSavedByObjectVersion
1070
     0
1000
AcDbSavedByObjectVersion
1070
     0
1000
AcDbSavedByObjectVersion
1070
     0
  0
VISUALSTYLE
  5
39
102
{ACAD_REACTORS
330
29
102
}
330
29
100
AcDbVisualStyle
  2
ColorChange
 70
    16
 71
     2
 72
     2
 73
     3
 90
        0
 40
-0.6
 41
-30.0
 62
     5
 63
     8
 74
     1
 91
        4
 64
     7
 65
   257
 75
     1
175
     1
 42
1.0
 92
        8
 66
     8
 43
1.0
 76
     1
 77
     6
 78
     2
 67
     7
 79
     5
170
     0
171
     0
290
     0
174
     0
 93
        1
 44
0.0
173
     0
291
     1
 45
0.0
1001
ACAD
1000
AcDbSavedByObjectVersion
1070
     0
1000
AcDbSavedByObjectVersion
1070
     0
1000
AcDbSavedByObjectVersion
1070
     0
1000
AcDbSavedByObjectVersion
1070
     0
1000
AcDbSavedByObjectVersion
1070
     0
1000
AcDbSavedByObjectVersion
1070
     0
1000
AcDbSavedByObjectVersion
1070
     0
  0
VISUALSTYLE
  5
32
102
{ACAD_REACTORS
330
29
102
}
330
29
100
AcDbVisualStyle
  2
Conceptual
 70
     9
 71
     3
 72
     2
 73
     0
 90
        0
 40
-0.6
 41
-30.0
 62
     5
 63
     7
 74
     2
 91
        2
 64
     7
 65
   257
 75
     1
175
     1
 42
40.0
 92
        8
 66
     7
 43
1.0
 76
     1
 77
     6
 78
     2
 67
     7
 79
     3
170
     0
171
     0
290
     0
174
     0
 93
        1
 44
0.0
173
     0
291
     0
 45
0.0
1001
ACAD
1000
AcDbSavedByObjectVersion
1070
     0
1000
AcDbSavedByObjectVersion
1070
     0
1000
AcDbSavedByObjectVersion
1070
     0
1000
AcDbSavedByObjectVersion
1070
     0
1000
AcDbSavedByObjectVersion
1070
     0
1000
AcDbSavedByObjectVersion
1070
     0
1000
AcDbSavedByObjectVersion
1070
     0
  0
VISUALSTYLE
  5
34
102
{ACAD_REACTORS
330
29
102
}
330
29
100
AcDbVisualStyle
  2
Dim
 70
    11
 71
     2
 72
     2
 73
     0
 90
        0
 40
-0.6
 41
-30.0
 62
     5
 63
     7
 74
     1
 91
        4
 64
     7
 65
   257
 75
     1
175
     1
 42
1.0
 92
        8
 66
     7
 43
1.0
 76
     1
 77
     6
 78
     2
 67
     7
 79
     5
170
     0
171
     0
290
     0
174
     0
 93
        1
 44
-50.0
173
     0
291
     1
 45
0.0
1001
ACAD
1000
AcDbSavedByObjectVersion
1070
     0
1000
AcDbSavedByObjectVersion
1070
     0
1000
AcDbSavedByObjectVersion
1070
     0
1000
AcDbSavedByObjectVersion
1070
     0
1000
AcDbSavedByObjectVersion
1070
     0
1000
AcDbSavedByObjectVersion
1070
     0
1000
AcDbSavedByObjectVersion
1070
     0
  0
VISUALSTYLE
  5
38
102
{ACAD_REACTORS
330
29
102
}
330
29
100
AcDbVisualStyle
  2
Facepattern
 70
    15
 71
     2
 72
     2
 73
     0
 90
        0
 40
-0.6
 41
-30.0
 62
     5
 63
     7
 74
     1
 91
        4
 64
     7
 65
   257
 75
     1
175
     1
 42
1.0
 92
        8
 66
     7
 43
1.0
 76
     1
 77
     6
 78
     2
 67
     7
 79
     5
170
     0
171
     0
290
     0
174
     0
 93
        1
 44
0.0
173
     0
291
     1
 45
0.0
1001
ACAD
1000
AcDbSavedByObjectVersion
1070
     0
1000
AcDbSavedByObjectVersion
1070
     0
1000
AcDbSavedByObjectVersion
1070
     0
1000
AcDbSavedByObjectVersion
1070
     0
1000
AcDbSavedByObjectVersion
1070
     0
1000
AcDbSavedByObjectVersion
1070
     0
1000
AcDbSavedByObjectVersion
1070
     0
  0
VISUALSTYLE
  5
2A
102
{ACAD_REACTORS
330
29
102
}
330
29
100
AcDbVisualStyle
  2
Flat
 70
     0
 71
     2
 72
     1
 73
     1
 90
        2
 40
-0.6
 41
30.0
 62
     5
 63
     7
 74
     0
 91
        4
 64
     7
 65
   257
 75
     1
175
     1
 42
1.0
 92
        8
 66
     7
 43
1.0
 76
     1
 77
     6
 78
     2
 67
     7
 79
     5
170
     0
171
     0
290
     0
174
     0
 93
       13
 44
0.0
173
     0
291
     1
 45
0.0
1001
ACAD
1000
AcDbSavedByObjectVersion
1070
     0
1000
AcDbSavedByObjectVersion
1070
     0
1000
AcDbSavedByObjectVersion
1070
     0
1000
AcDbSavedByObjectVersion
1070
     0
1000
AcDbSavedByObjectVersion
1070
     0
1000
AcDbSavedByObjectVersion
1070
     0
1000
AcDbSavedByObjectVersion
1070
     0
  0
VISUALSTYLE
  5
2B
102
{ACAD_REACTORS
330
29
102
}
330
29
100
AcDbVisualStyle
  2
FlatWithEdges
 70
     1
 71
     2
 72
     1
 73
     1
 90
        2
 40
-0.6
 41
30.0
 62
     5
 63
     7
 74
     1
 91
        4
 64
     7
 65
   257
 75
     1
175
     1
 42
1.0
 92
        0
 66
   257
 43
1.0
 76
     1
 77
     6
 78
     2
 67
     7
 79
     5
170
     0
171
     0
290
     0
174
     0
 93
       13
 44
0.0
173
     0
291
     1
 45
0.0
1001
ACAD
1000
AcDbSavedByObjectVersion
1070
     0
1000
AcDbSavedByObjectVersion
1070
     0
1000
AcDbSavedByObjectVersion
1070
     0
1000
AcDbSavedByObjectVersion
1070
     0
1000
AcDbSavedByObjectVersion
1070
     0
1000
AcDbSavedByObjectVersion
1070
     0
1000
AcDbSavedByObjectVersion
1070
     0
  0
VISUALSTYLE
  5
2C
102
{ACAD_REACTORS
330
29
102
}
330
29
100
AcDbVisualStyle
  2
Gouraud
 70
     2
 71
     2
 72
     2
 73
     1
 90
        2
 40
-0.6
 41
30.0
 62
     5
 63
     7
 74
     0
 91
        4
 64
     7
 65
   257
 75
     1
175
     1
 42
1.0
 92
        0
 66
     7
 43
1.0
 76
     1
 77
     6
 78
     2
 67
     7
 79
     5
170
     0
171
     0
290
     0
174
     0
 93
       13
 44
0.0
173
     0
291
     1
 45
0.0
1001
ACAD
1000
AcDbSavedByObjectVersion
1070
     0
1000
AcDbSavedByObjectVersion
1070
     0
1000
AcDbSavedByObjectVersion
1070
     0
1000
AcDbSavedByObjectVersion
1070
     0
1000
AcDbSavedByObjectVersion
1070
     0
1000
AcDbSavedByObjectVersion
1070
     0
1000
AcDbSavedByObjectVersion
1070
     0
  0
VISUALSTYLE
  5
2D
102
{ACAD_REACTORS
330
29
102
}
330
29
100
AcDbVisualStyle
  2
GouraudWithEdges
 70
     3
 71
     2
 72
     2
 73
     1
 90
        2
 40
-0.6
 41
30.0
 62
     5
 63
     7
 74
     1
 91
        4
 64
     7
 65
   257
 75
     1
175
     1
 42
1.0
 92
        0
 66
   257
 43
1.0
 76
     1
 77
     6
 78
     2
 67
     7
 79
     5
170
     0
171
     0
290
     0
174
     0
 93
       13
 44
0.0
173
     0
291
     1
 45
0.0
1001
ACAD
1000
AcDbSavedByObjectVersion
1070
     0
1000
AcDbSavedByObjectVersion
1070
     0
1000
AcDbSavedByObjectVersion
1070
     0
1000
AcDbSavedByObjectVersion
1070
     0
1000
AcDbSavedByObjectVersion
1070
     0
1000
AcDbSavedByObjectVersion
1070
     0
1000
AcDbSavedByObjectVersion
1070
     0
  0
VISUALSTYLE
  5
37
102
{ACAD_REACTORS
330
29
102
}
330
29
100
AcDbVisualStyle
  2
Linepattern
 70
    14
 71
     2
 72
     2
 73
     0
 90
        0
 40
-0.6
 41
-30.0
 62
     5
 63
     7
 74
     1
 91
        4
 64
     7
 65
   257
 75
     7
175
     7
 42
1.0
 92
        8
 66
     7
 43
1.0
 76
     1
 77
     6
 78
     2
 67
     7
 79
     5
170
     0
171
     0
290
     0
174
     0
 93
        1
 44
0.0
173
     0
291
     1
 45
0.0
1001
ACAD
1000
AcDbSavedByObjectVersion
1070
     0
1000
AcDbSavedByObjectVersion
1070
     0
1000
AcDbSavedByObjectVersion
1070
     0
1000
AcDbSavedByObjectVersion
1070
     0
1000
AcDbSavedByObjectVersion
1070
     0
1000
AcDbSavedByObjectVersion
1070
     0
1000
AcDbSavedByObjectVersion
1070
     0
  0
VISUALSTYLE
  5
33
102
{ACAD_REACTORS
330
29
102
}
330
29
100
AcDbVisualStyle
  2
Realistic
 70
     8
 71
     2
 72
     2
 73
     0
 90
        0
 40
-0.6
 41
-30.0
 62
     5
 63
     7
 74
     1
 91
        0
 64
     7
 65
   257
 75
     1
175
     1
 42
1.0
 92
        8
 66
     8
 43
1.0
 76
     1
 77
     6
 78
     2
 67
     7
 79
     5
170
     0
171
     0
290
     0
174
     0
 93
       13
 44
0.0
173
     0
291
     0
 45
0.0
1001
ACAD
1000
AcDbSavedByObjectVersion
1070
     0
1000
AcDbSavedByObjectVersion
1070
     0
1000
AcDbSavedByObjectVersion
1070
     0
1000
AcDbSavedByObjectVersion
1070
     0
1000
AcDbSavedByObjectVersion
1070
     0
1000
AcDbSavedByObjectVersion
1070
     0
1000
AcDbSavedByObjectVersion
1070
     0
  0
VISUALSTYLE
  5
36
102
{ACAD_REACTORS
330
29
102
}
330
29
100
AcDbVisualStyle
  2
Thicken
 70
    13
 71
     2
 72
     2
 73
     0
 90
        0
 40
-0.6
 41
-30.0
 62
     5
 63
     7
 74
     1
 91
        4
 64
     7
 65
   257
 75
     1
175
     1
 42
1.0
 92
       12
 66
     7
 43
1.0
 76
     1
 77
     6
 78
     2
 67
     7
 79
     5
170
     0
171
     0
290
     0
174
     0
 93
        1
 44
0.0
173
     0
291
     1
 45
0.0
1001
ACAD
1000
AcDbSavedByObjectVersion
1070
     0
1000
AcDbSavedByObjectVersion
1070
     0
1000
AcDbSavedByObjectVersion
1070
     0
1000
AcDbSavedByObjectVersion
1070
     0
1000
AcDbSavedByObjectVersion
1070
     0
1000
AcDbSavedByObjectVersion
1070
     0
1000
AcDbSavedByObjectVersion
1070
     0
  0
DICTIONARYVAR
  5
167
102
{ACAD_REACTORS
330
164
102
}
330
164
100
DictionaryVariables
280
     0
  1
1:1
  0
DICTIONARYVAR
  5
166
102
{ACAD_REACTORS
330
164
102
}
330
164
100
DictionaryVariables
280
     0
  1
STANDARD
  0
DICTIONARYVAR
  5
165
102
{ACAD_REACTORS
330
164
102
}
330
164
100
DictionaryVariables
280
     0
  1
STANDARD
  0
DICTIONARYVAR
  5
240
102
{ACAD_REACTORS
330
164
102
}
330
164
100
DictionaryVariables
280
     0
  1
2
  0
DICTIONARYVAR
  5
23F
102
{ACAD_REACTORS
330
164
102
}
330
164
100
DictionaryVariables
280
     0
  1
1
  0
DICTIONARYVAR
  5
23E
102
{ACAD_REACTORS
330
164
102
}
330
164
100
DictionaryVariables
280
     0
  1
0
  0
DICTIONARYVAR
  5
23C
102
{ACAD_REACTORS
330
164
102
}
330
164
100
DictionaryVariables
280
     0
  1
2
  0
DICTIONARYVAR
  5
23B
102
{ACAD_REACTORS
330
164
102
}
330
164
100
DictionaryVariables
280
     0
  1
1
  0
DICTIONARYVAR
  5
23D
102
{ACAD_REACTORS
330
164
102
}
330
164
100
DictionaryVariables
280
     0
  1
127
  0
DICTIONARY
  5
DE
102
{ACAD_REACTORS
330
DC
102
}
330
DC
100
AcDbDictionary
281
     1
  0
XRECORD
  5
F6
102
{ACAD_REACTORS
330
DC
102
}
330
DC
100
AcDbXrecord
280
     1
 90
-1023410169
  0
XRECORD
  5
A3E
102
{ACAD_REACTORS
330
A3D
102
}
330
A3D
100
AcDbXrecord
280
     1
330
698
330
699
330
69A
330
69B
330
67C
330
67D
330
67E
330
67F
330
8A3
330
8A7
330
573
330
584
330
595
330
5A6
330
5B5
330
5B6
330
5C5
330
5C6
330
5D5
330
5D6
330
5EB
330
5EC
  0
DICTIONARY
  5
A47
330
78
100
AcDbDictionary
280
     1
281
     1
  3
ACAD_XREC_ROUNDTRIP
360
A48
  0
DICTIONARY
  5
A45
330
74
100
AcDbDictionary
280
     1
281
     1
  3
ACAD_XREC_ROUNDTRIP
360
A46
  0
DICTIONARY
  5
A49
330
7C
100
AcDbDictionary
280
     1
281
     1
  3
ACAD_XREC_ROUNDTRIP
360
A4A
  0
DICTIONARY
  5
1A
330
19
100
AcDbDictionary
280
     1
281
     1
  3
ACAD_XREC_ROUNDTRIP
360
246
  3
BUMPTILE
360
1C
  3
DIFFUSETILE
360
1B
  3
OPACITYTILE
360
1F
  3
REFLECTIONTILE
360
1E
  3
REFRACTIONTILE
360
20
  3
SPECULARTILE
360
1D
  0
DICTIONARY
  5
12
330
11
100
AcDbDictionary
280
     1
281
     1
  3
ACAD_XREC_ROUNDTRIP
360
245
  3
BUMPTILE
360
14
  3
DIFFUSETILE
360
13
  3
OPACITYTILE
360
17
  3
REFLECTIONTILE
360
16
  3
REFRACTIONTILE
360
18
  3
SPECULARTILE
360
15
  0
DICTIONARY
  5
22
330
21
100
AcDbDictionary
280
     1
281
     1
  3
ACAD_XREC_ROUNDTRIP
360
247
  3
BUMPTILE
360
24
  3
DIFFUSETILE
360
23
  3
OPACITYTILE
360
27
  3
REFLECTIONTILE
360
26
  3
REFRACTIONTILE
360
28
  3
SPECULARTILE
360
25
  0
DICTIONARY
  5
161
330
6D
100
AcDbDictionary
280
     1
281
     1
  3
ACAD_ROUNDTRIP_2008_TABLESTYLE_CELLSTYLEMAP
360
A3F
  3
ACAD_XREC_ROUNDTRIP
360
A44
  0
XRECORD
  5
A48
102
{ACAD_REACTORS
330
A47
102
}
330
A47
100
AcDbXrecord
280
     1
102
SHADEPLOT
 70
     0
102
SHADEPLOTRESLEVEL
 70
     2
102
SHADEPLOTCUSTOMDPI
 70
   300
  0
XRECORD
  5
A46
102
{ACAD_REACTORS
330
A45
102
}
330
A45
100
AcDbXrecord
280
     1
102
SHADEPLOT
 70
     0
102
SHADEPLOTRESLEVEL
 70
     2
102
SHADEPLOTCUSTOMDPI
 70
   300
  0
XRECORD
  5
A4A
102
{ACAD_REACTORS
330
A49
102
}
330
A49
100
AcDbXrecord
280
     1
102
SHADEPLOT
 70
     0
102
SHADEPLOTRESLEVEL
 70
     2
102
SHADEPLOTCUSTOMDPI
 70
   300
  0
XRECORD
  5
246
102
{ACAD_REACTORS
330
1A
102
}
330
1A
100
AcDbXrecord
280
     1
102
MATERIAL
148
0.0
149
0.0
149
0.0
 93
        0
 94
      127
282
     0
 72
     0
 77
     0
171
     0
175
     0
179
     0
273
     0
  0
XRECORD
  5
1C
102
{ACAD_REACTORS
330
1A
102
}
330
1A
100
AcDbXrecord
280
     1
270
     1
271
     1
  0
XRECORD
  5
1B
102
{ACAD_REACTORS
330
1A
102
}
330
1A
100
AcDbXrecord
280
     1
270
     1
271
     1
  0
XRECORD
  5
1F
102
{ACAD_REACTORS
330
1A
102
}
330
1A
100
AcDbXrecord
280
     1
270
     1
271
     1
  0
XRECORD
  5
1E
102
{ACAD_REACTORS
330
1A
102
}
330
1A
100
AcDbXrecord
280
     1
270
     1
271
     1
  0
XRECORD
  5
20
102
{ACAD_REACTORS
330
1A
102
}
330
1A
100
AcDbXrecord
280
     1
270
     1
271
     1
  0
XRECORD
  5
1D
102
{ACAD_REACTORS
330
1A
102
}
330
1A
100
AcDbXrecord
280
     1
270
     1
271
     1
  0
XRECORD
  5
245
102
{ACAD_REACTORS
330
12
102
}
330
12
100
AcDbXrecord
280
     1
102
MATERIAL
148
0.0
149
0.0
149
0.0
 93
        0
 94
      127
282
     0
 72
     0
 77
     0
171
     0
175
     0
179
     0
273
     0
  0
XRECORD
  5
14
102
{ACAD_REACTORS
330
12
102
}
330
12
100
AcDbXrecord
280
     1
270
     1
271
     1
  0
XRECORD
  5
13
102
{ACAD_REACTORS
330
12
102
}
330
12
100
AcDbXrecord
280
     1
270
     1
271
     1
  0
XRECORD
  5
17
102
{ACAD_REACTORS
330
12
102
}
330
12
100
AcDbXrecord
280
     1
270
     1
271
     1
  0
XRECORD
  5
16
102
{ACAD_REACTORS
330
12
102
}
330
12
100
AcDbXrecord
280
     1
270
     1
271
     1
  0
XRECORD
  5
18
102
{ACAD_REACTORS
330
12
102
}
330
12
100
AcDbXrecord
280
     1
270
     1
271
     1
  0
XRECORD
  5
15
102
{ACAD_REACTORS
330
12
102
}
330
12
100
AcDbXrecord
280
     1
270
     1
271
     1
  0
XRECORD
  5
247
102
{ACAD_REACTORS
330
22
102
}
330
22
100
AcDbXrecord
280
     1
102
MATERIAL
148
0.0
149
0.0
149
0.0
 93
        0
 94
      127
282
     0
 72
     0
 77
     0
171
     0
175
     0
179
     0
273
     0
  0
XRECORD
  5
24
102
{ACAD_REACTORS
330
22
102
}
330
22
100
AcDbXrecord
280
     1
270
     1
271
     1
  0
XRECORD
  5
23
102
{ACAD_REACTORS
330
22
102
}
330
22
100
AcDbXrecord
280
     1
270
     1
271
     1
  0
XRECORD
  5
27
102
{ACAD_REACTORS
330
22
102
}
330
22
100
AcDbXrecord
280
     1
270
     1
271
     1
  0
XRECORD
  5
26
102
{ACAD_REACTORS
330
22
102
}
330
22
100
AcDbXrecord
280
     1
270
     1
271
     1
  0
XRECORD
  5
28
102
{ACAD_REACTORS
330
22
102
}
330
22
100
AcDbXrecord
280
     1
270
     1
271
     1
  0
XRECORD
  5
25
102
{ACAD_REACTORS
330
22
102
}
330
22
100
AcDbXrecord
280
     1
270
     1
271
     1
  0
CELLSTYLEMAP
  5
A3F
102
{ACAD_REACTORS
330
161
102
}
330
161
100
AcDbCellStyleMap
 90
        3
300
CELLSTYLE
  1
TABLEFORMAT_BEGIN
 90
        5
170
     1
 91
        0
 92
    32768
 62
   257
 93
        1
300
CONTENTFORMAT
  1
CONTENTFORMAT_BEGIN
 90
        0
 91
        0
 92
      512
 93
        0
300

 40
0.0
140
1.0
 94
        5
 62
     0
340
5D
144
6.0
309
CONTENTFORMAT_END
171
     1
301
MARGIN
  1
CELLMARGIN_BEGIN
 40
1.5
 40
1.5
 40
1.5
 40
1.5
 40
0.18
 40
0.18
309
CELLMARGIN_END
 94
        6
 95
        1
302
GRIDFORMAT
  1
GRIDFORMAT_BEGIN
 90
        0
 91
        1
 62
     0
 92
       -2
340
0
 93
        0
 40
1.125
309
GRIDFORMAT_END
 95
        2
302
GRIDFORMAT
  1
GRIDFORMAT_BEGIN
 90
        0
 91
        1
 62
     0
 92
       -2
340
0
 93
        0
 40
1.125
309
GRIDFORMAT_END
 95
        4
302
GRIDFORMAT
  1
GRIDFORMAT_BEGIN
 90
        0
 91
        1
 62
     0
 92
       -2
340
0
 93
        0
 40
1.125
309
GRIDFORMAT_END
 95
        8
302
GRIDFORMAT
  1
GRIDFORMAT_BEGIN
 90
        0
 91
        1
 62
     0
 92
       -2
340
0
 93
        0
 40
1.125
309
GRIDFORMAT_END
 95
       16
302
GRIDFORMAT
  1
GRIDFORMAT_BEGIN
 90
        0
 91
        1
 62
     0
 92
       -2
340
0
 93
        0
 40
1.125
309
GRIDFORMAT_END
 95
       32
302
GRIDFORMAT
  1
GRIDFORMAT_BEGIN
 90
        0
 91
        1
 62
     0
 92
       -2
340
0
 93
        0
 40
1.125
309
GRIDFORMAT_END
309
TABLEFORMAT_END
  1
CELLSTYLE_BEGIN
 90
        1
 91
        1
300
_TITLE
309
CELLSTYLE_END
300
CELLSTYLE
  1
TABLEFORMAT_BEGIN
 90
        5
170
     1
 91
        0
 92
        0
 62
   257
 93
        1
300
CONTENTFORMAT
  1
CONTENTFORMAT_BEGIN
 90
        0
 91
        0
 92
      512
 93
        0
300

 40
0.0
140
1.0
 94
        5
 62
     0
340
5D
144
4.5
309
CONTENTFORMAT_END
171
     1
301
MARGIN
  1
CELLMARGIN_BEGIN
 40
1.5
 40
1.5
 40
1.5
 40
1.5
 40
0.18
 40
0.18
309
CELLMARGIN_END
 94
        6
 95
        1
302
GRIDFORMAT
  1
GRIDFORMAT_BEGIN
 90
        0
 91
        1
 62
     0
 92
       -2
340
0
 93
        0
 40
1.125
309
GRIDFORMAT_END
 95
        2
302
GRIDFORMAT
  1
GRIDFORMAT_BEGIN
 90
        0
 91
        1
 62
     0
 92
       -2
340
0
 93
        0
 40
1.125
309
GRIDFORMAT_END
 95
        4
302
GRIDFORMAT
  1
GRIDFORMAT_BEGIN
 90
        0
 91
        1
 62
     0
 92
       -2
340
0
 93
        0
 40
1.125
309
GRIDFORMAT_END
 95
        8
302
GRIDFORMAT
  1
GRIDFORMAT_BEGIN
 90
        0
 91
        1
 62
     0
 92
       -2
340
0
 93
        0
 40
1.125
309
GRIDFORMAT_END
 95
       16
302
GRIDFORMAT
  1
GRIDFORMAT_BEGIN
 90
        0
 91
        1
 62
     0
 92
       -2
340
0
 93
        0
 40
1.125
309
GRIDFORMAT_END
 95
       32
302
GRIDFORMAT
  1
GRIDFORMAT_BEGIN
 90
        0
 91
        1
 62
     0
 92
       -2
340
0
 93
        0
 40
1.125
309
GRIDFORMAT_END
309
TABLEFORMAT_END
  1
CELLSTYLE_BEGIN
 90
        2
 91
        1
300
_HEADER
309
CELLSTYLE_END
300
CELLSTYLE
  1
TABLEFORMAT_BEGIN
 90
        5
170
     1
 91
        0
 92
        0
 62
   257
 93
        1
300
CONTENTFORMAT
  1
CONTENTFORMAT_BEGIN
 90
        0
 91
        0
 92
      512
 93
        0
300

 40
0.0
140
1.0
 94
        2
 62
     0
340
5D
144
4.5
309
CONTENTFORMAT_END
171
     1
301
MARGIN
  1
CELLMARGIN_BEGIN
 40
1.5
 40
1.5
 40
1.5
 40
1.5
 40
0.18
 40
0.18
309
CELLMARGIN_END
 94
        6
 95
        1
302
GRIDFORMAT
  1
GRIDFORMAT_BEGIN
 90
        0
 91
        1
 62
     0
 92
       -2
340
0
 93
        0
 40
1.125
309
GRIDFORMAT_END
 95
        2
302
GRIDFORMAT
  1
GRIDFORMAT_BEGIN
 90
        0
 91
        1
 62
     0
 92
       -2
340
0
 93
        0
 40
1.125
309
GRIDFORMAT_END
 95
        4
302
GRIDFORMAT
  1
GRIDFORMAT_BEGIN
 90
        0
 91
        1
 62
     0
 92
       -2
340
0
 93
        0
 40
1.125
309
GRIDFORMAT_END
 95
        8
302
GRIDFORMAT
  1
GRIDFORMAT_BEGIN
 90
        0
 91
        1
 62
     0
 92
       -2
340
0
 93
        0
 40
1.125
309
GRIDFORMAT_END
 95
       16
302
GRIDFORMAT
  1
GRIDFORMAT_BEGIN
 90
        0
 91
        1
 62
     0
 92
       -2
340
0
 93
        0
 40
1.125
309
GRIDFORMAT_END
 95
       32
302
GRIDFORMAT
  1
GRIDFORMAT_BEGIN
 90
        0
 91
        1
 62
     0
 92
       -2
340
0
 93
        0
 40
1.125
309
GRIDFORMAT_END
309
TABLEFORMAT_END
  1
CELLSTYLE_BEGIN
 90
        3
 91
        2
300
_DATA
309
CELLSTYLE_END
  0
XRECORD
  5
A44
102
{ACAD_REACTORS
330
161
102
}
330
161
100
AcDbXrecord
280
     1
102
ACAD_ROUNDTRIP_PRE2007_TABLESTYLE
 90
      512
 91
        0
  1

 92
      512
 93
        0
  2

 94
      512
 95
        0
  3

  0
ENDSEC
  0
EOF
