  0
SECTION
  2
HEADER
  9
$ACADVER
  1
AC1015
  9
$ACADMAINTVER
 70
    20
  9
$DWGCODEPAGE
  3
ANSI_932
  9
$INSBASE
 10
0.0
 20
0.0
 30
0.0
  9
$EXTMIN
 10
0.0000005962378964
 20
0.0000004583823738
 30
0.0
  9
$EXTMAX
 10
210.0000005962379
 20
297.0000004583824
 30
0.0
  9
$LIMMIN
 10
0.0
 20
0.0
  9
$LIMMAX
 10
210.0
 20
297.0
  9
$ORTHOMODE
 70
     1
  9
$REGENMODE
 70
     1
  9
$FILLMODE
 70
     1
  9
$QTEXTMODE
 70
     0
  9
$MIRRTEXT
 70
     0
  9
$LTSCALE
 40
1.0
  9
$ATTMODE
 70
     1
  9
$TEXTSIZE
 40
2.5
  9
$TRACEWID
 40
1.0
  9
$TEXTSTYLE
  7
STANDARD
  9
$CLAYER
  8
0
  9
$CELTYPE
  6
ByLayer
  9
$CECOLOR
 62
   256
  9
$CELTSCALE
 40
1.0
  9
$DISPSILH
 70
     0
  9
$DIMSCALE
 40
1.0
  9
$DIMASZ
 40
2.5
  9
$DIMEXO
 40
1.0
  9
$DIMDLI
 40
10.0
  9
$DIMRND
 40
0.0
  9
$DIMDLE
 40
0.0
  9
$DIMEXE
 40
1.0
  9
$DIMTP
 40
0.1
  9
$DIMTM
 40
0.1
  9
$DIMTXT
 40
3.0
  9
$DIMCEN
 40
0.0
  9
$DIMTSZ
 40
0.0
  9
$DIMTOL
 70
     0
  9
$DIMLIM
 70
     0
  9
$DIMTIH
 70
     0
  9
$DIMTOH
 70
     0
  9
$DIMSE1
 70
     0
  9
$DIMSE2
 70
     0
  9
$DIMTAD
 70
     1
  9
$DIMZIN
 70
     8
  9
$DIMBLK
  1

  9
$DIMASO
 70
     1
  9
$DIMSHO
 70
     1
  9
$DIMPOST
  1

  9
$DIMAPOST
  1
"
  9
$DIMALT
 70
     0
  9
$DIMALTD
 70
     2
  9
$DIMALTF
 40
0.0393701
  9
$DIMLFAC
 40
1.0
  9
$DIMTOFL
 70
     1
  9
$DIMTVP
 40
0.0
  9
$DIMTIX
 70
     0
  9
$DIMSOXD
 70
     0
  9
$DIMSAH
 70
     0
  9
$DIMBLK1
  1

  9
$DIMBLK2
  1

  9
$DIMSTYLE
  2
AM_ISO
  9
$DIMCLRD
 70
   256
  9
$DIMCLRE
 70
   256
  9
$DIMCLRT
 70
     2
  9
$DIMTFAC
 40
0.71
  9
$DIMGAP
 40
1.0
  9
$DIMJUST
 70
     0
  9
$DIMSD1
 70
     0
  9
$DIMSD2
 70
     0
  9
$DIMTOLJ
 70
     0
  9
$DIMTZIN
 70
     8
  9
$DIMALTZ
 70
     0
  9
$DIMALTTZ
 70
     0
  9
$DIMUPT
 70
     0
  9
$DIMDEC
 70
     2
  9
$DIMTDEC
 70
     2
  9
$DIMALTU
 70
     2
  9
$DIMALTTD
 70
     2
  9
$DIMTXSTY
  7
STANDARD
  9
$DIMAUNIT
 70
     0
  9
$DIMADEC
 70
     0
  9
$DIMALTRND
 40
0.0
  9
$DIMAZIN
 70
     2
  9
$DIMDSEP
 70
    46
  9
$DIMATFIT
 70
     3
  9
$DIMFRAC
 70
     0
  9
$DIMLDRBLK
  1

  9
$DIMLUNIT
 70
     2
  9
$DIMLWD
 70
    -1
  9
$DIMLWE
 70
    -1
  9
$DIMTMOVE
 70
     0
  9
$LUNITS
 70
     2
  9
$LUPREC
 70
     2
  9
$SKETCHINC
 40
1.0
  9
$FILLETRAD
 40
2.5
  9
$AUNITS
 70
     0
  9
$AUPREC
 70
     0
  9
$MENU
  1
.
  9
$ELEVATION
 40
0.0
  9
$PELEVATION
 40
0.0
  9
$THICKNESS
 40
0.0
  9
$LIMCHECK
 70
     0
  9
$CHAMFERA
 40
2.5
  9
$CHAMFERB
 40
2.5
  9
$CHAMFERC
 40
0.0
  9
$CHAMFERD
 40
0.0
  9
$SKPOLY
 70
     0
  9
$TDCREATE
 40
2454313.581725069
  9
$TDUCREATE
 40
2454313.206725069
  9
$TDUPDATE
 40
2454768.568298785
  9
$TDUUPDATE
 40
2454768.193298785
  9
$TDINDWG
 40
0.0307490509
  9
$TDUSRTIMER
 40
0.0307479630
  9
$USRTIMER
 70
     1
  9
$ANGBASE
 50
0.0
  9
$ANGDIR
 70
     0
  9
$PDMODE
 70
     0
  9
$PDSIZE
 40
0.0
  9
$PLINEWID
 40
0.0
  9
$SPLFRAME
 70
     0
  9
$SPLINETYPE
 70
     6
  9
$SPLINESEGS
 70
     8
  9
$HANDSEED
  5
12FA
  9
$SURFTAB1
 70
     6
  9
$SURFTAB2
 70
     6
  9
$SURFTYPE
 70
     6
  9
$SURFU
 70
     6
  9
$SURFV
 70
     6
  9
$UCSBASE
  2

  9
$UCSNAME
  2

  9
$UCSORG
 10
0.0
 20
0.0
 30
0.0
  9
$UCSXDIR
 10
1.0
 20
0.0
 30
0.0
  9
$UCSYDIR
 10
0.0
 20
1.0
 30
0.0
  9
$UCSORTHOREF
  2

  9
$UCSORTHOVIEW
 70
     0
  9
$UCSORGTOP
 10
0.0
 20
0.0
 30
0.0
  9
$UCSORGBOTTOM
 10
0.0
 20
0.0
 30
0.0
  9
$UCSORGLEFT
 10
0.0
 20
0.0
 30
0.0
  9
$UCSORGRIGHT
 10
0.0
 20
0.0
 30
0.0
  9
$UCSORGFRONT
 10
0.0
 20
0.0
 30
0.0
  9
$UCSORGBACK
 10
0.0
 20
0.0
 30
0.0
  9
$PUCSBASE
  2

  9
$PUCSNAME
  2

  9
$PUCSORG
 10
0.0
 20
0.0
 30
0.0
  9
$PUCSXDIR
 10
1.0
 20
0.0
 30
0.0
  9
$PUCSYDIR
 10
0.0
 20
1.0
 30
0.0
  9
$PUCSORTHOREF
  2

  9
$PUCSORTHOVIEW
 70
     0
  9
$PUCSORGTOP
 10
0.0
 20
0.0
 30
0.0
  9
$PUCSORGBOTTOM
 10
0.0
 20
0.0
 30
0.0
  9
$PUCSORGLEFT
 10
0.0
 20
0.0
 30
0.0
  9
$PUCSORGRIGHT
 10
0.0
 20
0.0
 30
0.0
  9
$PUCSORGFRONT
 10
0.0
 20
0.0
 30
0.0
  9
$PUCSORGBACK
 10
0.0
 20
0.0
 30
0.0
  9
$USERI1
 70
     0
  9
$USERI2
 70
     0
  9
$USERI3
 70
     0
  9
$USERI4
 70
     0
  9
$USERI5
 70
     0
  9
$USERR1
 40
0.0
  9
$USERR2
 40
0.0
  9
$USERR3
 40
0.0
  9
$USERR4
 40
0.0
  9
$USERR5
 40
0.0
  9
$WORLDVIEW
 70
     1
  9
$SHADEDGE
 70
     3
  9
$SHADEDIF
 70
    70
  9
$TILEMODE
 70
     1
  9
$MAXACTVP
 70
    64
  9
$PINSBASE
 10
0.0
 20
0.0
 30
0.0
  9
$PLIMCHECK
 70
     0
  9
$PEXTMIN
 10
1.000000000000000E+20
 20
1.000000000000000E+20
 30
1.000000000000000E+20
  9
$PEXTMAX
 10
-1.000000000000000E+20
 20
-1.000000000000000E+20
 30
-1.000000000000000E+20
  9
$PLIMMIN
 10
0.0
 20
0.0
  9
$PLIMMAX
 10
420.0
 20
297.0
  9
$UNITMODE
 70
     0
  9
$VISRETAIN
 70
     1
  9
$PLINEGEN
 70
     0
  9
$PSLTSCALE
 70
     1
  9
$TREEDEPTH
 70
  3020
  9
$CMLSTYLE
  2
Standard
  9
$CMLJUST
 70
     0
  9
$CMLSCALE
 40
20.0
  9
$PROXYGRAPHICS
 70
     1
  9
$MEASUREMENT
 70
     1
  9
$CELWEIGHT
370
    -1
  9
$ENDCAPS
280
     0
  9
$JOINSTYLE
280
     0
  9
$LWDISPLAY
290
     0
  9
$INSUNITS
 70
     4
  9
$HYPERLINKBASE
  1

  9
$STYLESHEET
  1
MONOCHROME.CTB
  9
$XEDIT
290
     1
  9
$CEPSNTYPE
380
     0
  9
$PSTYLEMODE
290
     1
  9
$FINGERPRINTGUID
  2
{AD501973-C1A7-47D2-B6FF-3A238122188F}
  9
$VERSIONGUID
  2
{0A468692-0E01-400E-812F-5EC73F46C4F3}
  9
$EXTNAMES
290
     1
  9
$PSVPSCALE
 40
0.0
  9
$OLESTARTUP
290
     0
  0
ENDSEC
  0
SECTION
  2
CLASSES
  0
CLASS
  1
ACDBDICTIONARYWDFLT
  2
AcDbDictionaryWithDefault
  3
ObjectDBX Classes
 90
        0
280
     0
281
     0
  0
CLASS
  1
MATERIAL
  2
AcDbMaterial
  3
ObjectDBX Classes
 90
     1153
280
     0
281
     0
  0
CLASS
  1
VISUALSTYLE
  2
AcDbVisualStyle
  3
ObjectDBX Classes
 90
     4095
280
     0
281
     0
  0
CLASS
  1
SCALE
  2
AcDbScale
  3
ObjectDBX Classes
 90
     1153
280
     0
281
     0
  0
CLASS
  1
TABLESTYLE
  2
AcDbTableStyle
  3
ObjectDBX Classes
 90
     4095
280
     0
281
     0
  0
CLASS
  1
MLEADERSTYLE
  2
AcDbMLeaderStyle
  3
ACDB_MLEADERSTYLE_CLASS
 90
     4095
280
     0
281
     0
  0
CLASS
  1
AMGSETTINGSOBJ
  2
AmgSettingsObj
  3
"AcadM|Product Description: AutoCAD Mechanical|Company: Autodesk, Inc."
 90
     1024
280
     0
281
     0
  0
CLASS
  1
ACME_DOCUMENT
  2
AcMeDbDoc
  3
AcMeServices
 90
     1024
280
     0
281
     0
  0
CLASS
  1
ACMESCOPE
  2
AcMeScope
  3
AcMeServices
 90
     1024
280
     0
281
     0
  0
CLASS
  1
ACMECOMMANDHISTORY
  2
AcMeCommandHistory
  3
AcMeServices
 90
     1024
280
     0
281
     0
  0
CLASS
  1
ACIMSYSVARMAN
  2
AcImSysVarManager
  3
AcMeServices
 90
     1024
280
     0
281
     0
  0
CLASS
  1
ACIMINTSYSVAR
  2
AcImIntSysVar
  3
AcMeServices
 90
     1024
280
     0
281
     0
  0
CLASS
  1
ACMEDRAWINGMAN
  2
AcMeDrawingMan
  3
AcMeServices
 90
     1024
280
     0
281
     0
  0
CLASS
  1
ACMEVIEW
  2
AcMeView
  3
AcMeServices
 90
     1024
280
     0
281
     0
  0
CLASS
  1
ACDBENTITYCACHE
  2
AcMeEntityCache
  3
AcMeServices
 90
     1024
280
     0
281
     0
  0
CLASS
  1
GSMANAGER
  2
AcMeGSManager
  3
AcMeServices
 90
     1024
280
     0
281
     0
  0
CLASS
  1
AMDTINTERNALREACTOR
  2
AmdtInternalReactor
  3
AcMeServices
 90
     1024
280
     0
281
     0
  0
CLASS
  1
ACMESTATEMGR
  2
AcMeStateMgr
  3
AcMeServices
 90
     1024
280
     0
281
     0
  0
CLASS
  1
ACGREFMASTER
  2
AcGrefMaster
  3
AcAttribServices
 90
     1024
280
     0
281
     0
  0
CLASS
  1
AM_DRAWING_MGR
  2
AcDmDwgMgr
  3
AcMechDwgViewMgmt
 90
     1024
280
     0
281
     0
  0
CLASS
  1
AM_DWG_DOCUMENT
  2
AcDmDwgDocument
  3
AcMechDwgViewMgmt
 90
     1024
280
     0
281
     0
  0
CLASS
  1
AM_DWG_SHEET
  2
AcDmSheet
  3
AcMechDwgViewMgmt
 90
     1024
280
     0
281
     0
  0
CLASS
  1
AM_VIEWDIMPARMAP
  2
AcDmViewDimParMap
  3
AcMechDwgViewMgmt
 90
     1024
280
     0
281
     0
  0
CLASS
  1
ACIMREALSYSVAR
  2
AcImRealSysVar
  3
AcMeServices
 90
     1024
280
     0
281
     0
  0
CLASS
  1
AM_DWGMGR_NAME
  2
AcDmDwgMgrName
  3
AcMechDwgViewMgmt
 90
     1024
280
     0
281
     0
  0
CLASS
  1
ACME_DATABASE
  2
AcMeDbDatabase
  3
AcMeServices
 90
     1024
280
     0
281
     0
  0
CLASS
  1
ACRFINSADJUSTERMGR
  2
AcRfInsAdjusterMgr
  3
AcMeServices
 90
     1024
280
     0
281
     0
  0
CLASS
  1
ACGREFACADMASTER
  2
AcGrefacadMaster
  3
AcGrefServices
 90
     1024
280
     0
281
     0
  0
CLASS
  1
AMDTMENUSTATEMGR
  2
AmdtMenuStateMgr
  3
McadcomServices
 90
     1024
280
     0
281
     0
  0
CLASS
  1
AMDTMCOMMENUSTATE
  2
AmdtMcomMenuState
  3
McadcomServices
 90
     1024
280
     0
281
     0
  0
CLASS
  1
AMIMASTER
  2
AmiMaster
  3
AmiServices
 90
     1024
280
     0
281
     0
  0
CLASS
  1
MAPIAMMOUDLE
  2
MApiAmModule
  3
MApiAmServices
 90
     1024
280
     0
281
     0
  0
CLASS
  1
ACIMSTRSYSVAR
  2
AcImStrSysVar
  3
AcMeServices
 90
     1024
280
     0
281
     0
  0
CLASS
  1
AMDTADMENUSTATE
  2
AmdtAdMenuState
  3
DesignerServices
 90
     1024
280
     0
281
     0
  0
CLASS
  1
ADAPPL
  2
AcAdAppl
  3
DesignerServices
 90
     1024
280
     0
281
     0
  0
CLASS
  1
DEPMGR
  2
AcAdDepMgr
  3
DesignerServices
 90
     1024
280
     0
281
     0
  0
CLASS
  1
PARAMMGR
  2
AcAdParamMgr
  3
DesignerServices
 90
     1024
280
     0
281
     0
  0
CLASS
  1
PARAMSCOPE
  2
AcAdParamScope
  3
DesignerServices
 90
     1024
280
     0
281
     0
  0
CLASS
  1
NAMEDAPPL
  2
AcAdNamedAppl
  3
DesignerServices
 90
     1024
280
     0
281
     0
  0
CLASS
  1
AMDTDMMENUSTATE
  2
AmdtDmMenuState
  3
AcMechDwgViewMgmt
 90
     1024
280
     0
281
     0
  0
CLASS
  1
AMDTAMMENUSTATE
  2
AmdtAmMenuState
  3
DesignerAssemblies
 90
     1024
280
     0
281
     0
  0
CLASS
  1
ACAMPROJECT
  2
AcAmProject
  3
DesignerAssemblies
 90
     1024
280
     0
281
     0
  0
CLASS
  1
ACAMGRCOMPDEF
  2
AcAmGrCompDef
  3
DesignerAssemblies
 90
     1024
280
     0
281
     0
  0
CLASS
  1
ACCMCONTEXT
  2
AcCmContext
  3
DesignerAssemblies
 90
     1024
280
     0
281
     0
  0
CLASS
  1
ACAMCOMPDEF
  2
AcAmCompDef
  3
DesignerAssemblies
 90
     1024
280
     0
281
     0
  0
CLASS
  1
ACAMCOMPDEFMGR
  2
AcAmCompDefMgr
  3
DesignerAssemblies
 90
     1024
280
     0
281
     0
  0
CLASS
  1
AMCONTEXTMGR
  2
AcAmContextMgr
  3
DesignerAssemblies
 90
     1024
280
     0
281
     0
  0
CLASS
  1
ACAMCONTEXTMODELER
  2
AcAmContextModeler
  3
DesignerAssemblies
 90
     1024
280
     0
281
     0
  0
CLASS
  1
ACMDATADICTIONARY
  2
AcmDataDictionary
  3
"AcmSymBB|Product Description: AutoCAD Mechanical|Company: Autodesk, Inc."
 90
     1024
280
     0
281
     0
  0
CLASS
  1
ACMSTANDARDISO
  2
AcmStandardISO
  3
"Amdt_StdImp|Product Description: AutoCAD Mechanical|Company: Autodesk, Inc."
 90
     1024
280
     0
281
     0
  0
CLASS
  1
AMGOBJPROPCFG
  2
AmgObjPropCfg
  3
"AmgLay|Product Description: AutoCAD Mechanical|Company: Autodesk, Inc."
 90
     1025
280
     0
281
     0
  0
CLASS
  1
AMDTEDGESTANDARDISO13715
  2
AmdtEdgeStdISO13715
  3
"Amdt_StdImp|Product Description: AutoCAD Mechanical|Company: Autodesk, Inc."
 90
     1024
280
     0
281
     0
  0
CLASS
  1
ACMSURFSTANDARDISO2002
  2
AcmSurfTextStdISO2002
  3
"Amdt_StdImp|Product Description: AutoCAD Mechanical|Company: Autodesk, Inc."
 90
     1024
280
     0
281
     0
  0
CLASS
  1
ACMFCFSTANDARDISO
  2
AcmFCFStdISO
  3
"Amdt_StdImp|Product Description: AutoCAD Mechanical|Company: Autodesk, Inc."
 90
     1024
280
     0
281
     0
  0
CLASS
  1
ACMWELDSTANDARDISO
  2
AcmWeldingStdISO
  3
"Amdt_StdImp|Product Description: AutoCAD Mechanical|Company: Autodesk, Inc."
 90
     1024
280
     0
281
     0
  0
CLASS
  1
ACMIDSTANDARDISO
  2
AcmIdStdISO
  3
"Amdt_StdImp|Product Description: AutoCAD Mechanical|Company: Autodesk, Inc."
 90
     1024
280
     0
281
     0
  0
CLASS
  1
ACMDATUMSTANDARDISO
  2
AcmDatumStdISO
  3
"Amdt_StdImp|Product Description: AutoCAD Mechanical|Company: Autodesk, Inc."
 90
     1024
280
     0
281
     0
  0
CLASS
  1
ACMBOMSTANDARDISO
  2
AcmBOMStdISO
  3
"Amdt_StdImp|Product Description: AutoCAD Mechanical|Company: Autodesk, Inc."
 90
     1024
280
     0
281
     0
  0
CLASS
  1
ACMDETAILSTANDARDISO
  2
AmdtDetailSymStdISO
  3
"Amdt_StdImp|Product Description: AutoCAD Mechanical|Company: Autodesk, Inc."
 90
     1024
280
     0
281
     0
  0
CLASS
  1
ACMSECTIONSTANDARDISO2001
  2
AmdtSectionSymStdISO2001
  3
"Amdt_StdImp|Product Description: AutoCAD Mechanical|Company: Autodesk, Inc."
 90
     1024
280
     0
281
     0
  0
CLASS
  1
ACMCENTERLINESTANDARDISO
  2
AmdtCenterLineStdISO
  3
"Amdt_StdImp|Product Description: AutoCAD Mechanical|Company: Autodesk, Inc."
 90
     1024
280
     0
281
     0
  0
CLASS
  1
ACMTHREADLINESTANDARDISO
  2
AmdtThreadLineStdISO
  3
"Amdt_StdImp|Product Description: AutoCAD Mechanical|Company: Autodesk, Inc."
 90
     1024
280
     0
281
     0
  0
CLASS
  1
ACMNOTESTANDARDISO
  2
AmdtNoteStdISO
  3
"Amdt_StdImp|Product Description: AutoCAD Mechanical|Company: Autodesk, Inc."
 90
     1024
280
     0
281
     0
  0
CLASS
  1
ACMTAPERSTANDARDISO
  2
AcmTaperStdISO
  3
"Amdt_StdImp|Product Description: AutoCAD Mechanical|Company: Autodesk, Inc."
 90
     1024
280
     0
281
     0
  0
CLASS
  1
ACMANOOTATIONVIEWSTANDARDISO
  2
AmdtAnViewStdISO
  3
"Amdt_StdImp|Product Description: AutoCAD Mechanical|Company: Autodesk, Inc."
 90
     1024
280
     0
281
     0
  0
CLASS
  1
AMDTNOTETEMPLATEDB
  2
AmdtNoteTemplateDB
  3
AcmSymBB|Product Description: AutoCAD Mechanical|Company: Autodesk, Inc.
 90
     1024
280
     0
281
     0
  0
CLASS
  1
ACAMGLAYSTD
  2
AcAmgLayStd
  3
"AmgLay|Product Description: AutoCAD Mechanical|Company: Autodesk, Inc."
 90
     1024
280
     0
281
     0
  0
CLASS
  1
ACAMGDIMSTD
  2
AcAmgDimStd
  3
"AmgDim|Product Description: AutoCAD Mechanical|Company: Autodesk, Inc."
 90
     1024
280
     0
281
     0
  0
CLASS
  1
ACAMGHOLECHARTSTDISO
  2
AcAmgHoleChartStdISO
  3
AmgDim|Product Description: AutoCAD Mechanical|Company: Autodesk, Inc.
 90
     1024
280
     0
281
     0
  0
CLASS
  1
ACAMGTITLESTD
  2
AcAmgTitleStd
  3
"AmgTitle|Product Description: AutoCAD Mechanical|Company: Autodesk, Inc."
 90
     4095
280
     0
281
     0
  0
CLASS
  1
CATALOGSTATE
  2
AcAmCatalogState
  3
DesignerAssemblies
 90
     1024
280
     0
281
     0
  0
CLASS
  1
ACAMGRCOMPDEFSET
  2
AcAmGrCompDefSet
  3
DesignerAssemblies
 90
     1024
280
     0
281
     0
  0
CLASS
  1
AMDTBROWSERDBTAB
  2
AmdtBrowserDbTab
  3
McadcomServices
 90
     1024
280
     0
281
     0
  0
CLASS
  1
CBROWSERAPPOBJECT
  2
CBrowserAppObject
  3
McadcomServices
 90
     1024
280
     0
281
     0
  0
CLASS
  1
DM_PLACEHOLDER
  2
AcDmSelsetPlaceholder
  3
AcMechDwgViewMgmt
 90
     1024
280
     0
281
     0
  0
CLASS
  1
SORTENTSTABLE
  2
AcDbSortentsTable
  3
ObjectDBX Classes
 90
    32768
280
     0
281
     0
  0
CLASS
  1
ACMDATAENTRYBLOCK
  2
AcmDataEntryBlock
  3
AcmSymBB|Product Description: AutoCAD Mechanical|Company: Autodesk, Inc.
 90
    33792
280
     0
281
     0
  0
CLASS
  1
ACAMGFILTERDAT
  2
AcAmgFilterDat
  3
"AcadM|Product Description: AutoCAD Mechanical|Company: Autodesk, Inc."
 90
    33792
280
     0
281
     0
  0
CLASS
  1
CAMSSTRUCTBTNSTATE
  2
StructBtnState
  3
DesignerAssemblies
 90
    33792
280
     0
281
     0
  0
CLASS
  1
CELLSTYLEMAP
  2
AcDbCellStyleMap
  3
ObjectDBX Classes
 90
     1152
280
     0
281
     0
  0
CLASS
  1
DICTIONARYVAR
  2
AcDbDictionaryVar
  3
ObjectDBX Classes
 90
        0
280
     0
281
     0
  0
CLASS
  1
ACMSTANDARDANSI
  2
AcmStandardANSI
  3
"Amdt_StdImp|Product Description: AutoCAD Mechanical|Company: Autodesk, Inc."
 90
    33792
280
     0
281
     0
  0
CLASS
  1
ACMSURFSTANDARDANSI
  2
AcmSurfTextStdANSI
  3
"Amdt_StdImp|Product Description: AutoCAD Mechanical|Company: Autodesk, Inc."
 90
    33792
280
     0
281
     0
  0
CLASS
  1
ACMFCFSTANDARDANSI
  2
AcmFCFStdANSI
  3
"Amdt_StdImp|Product Description: AutoCAD Mechanical|Company: Autodesk, Inc."
 90
    33792
280
     0
281
     0
  0
CLASS
  1
ACMWELDSTANDARDANSI
  2
AcmWeldingStdANSI
  3
"Amdt_StdImp|Product Description: AutoCAD Mechanical|Company: Autodesk, Inc."
 90
    33792
280
     0
281
     0
  0
CLASS
  1
ACMIDSTANDARDANSI
  2
AcmIdStdANSI
  3
"Amdt_StdImp|Product Description: AutoCAD Mechanical|Company: Autodesk, Inc."
 90
    33792
280
     0
281
     0
  0
CLASS
  1
ACMDATUMSTANDARDANSI
  2
AcmDatumStdANSI
  3
"Amdt_StdImp|Product Description: AutoCAD Mechanical|Company: Autodesk, Inc."
 90
    33792
280
     0
281
     0
  0
CLASS
  1
ACMBOMSTANDARDANSI
  2
AcmBOMStdANSI
  3
"Amdt_StdImp|Product Description: AutoCAD Mechanical|Company: Autodesk, Inc."
 90
    33792
280
     0
281
     0
  0
CLASS
  1
ACMDETAILSTANDARDANSI
  2
AmdtDetailSymStdANSI
  3
"Amdt_StdImp|Product Description: AutoCAD Mechanical|Company: Autodesk, Inc."
 90
    33792
280
     0
281
     0
  0
CLASS
  1
ACMSECTIONSTANDARDANSI
  2
AmdtSectionSymStdANSI
  3
"Amdt_StdImp|Product Description: AutoCAD Mechanical|Company: Autodesk, Inc."
 90
    33792
280
     0
281
     0
  0
CLASS
  1
ACMCENTERLINESTANDARDANSI
  2
AmdtCenterLineStdANSI
  3
"Amdt_StdImp|Product Description: AutoCAD Mechanical|Company: Autodesk, Inc."
 90
    33792
280
     0
281
     0
  0
CLASS
  1
ACMTHREADLINESTANDARDANSI
  2
AmdtThreadLineStdANSI
  3
"Amdt_StdImp|Product Description: AutoCAD Mechanical|Company: Autodesk, Inc."
 90
    33792
280
     0
281
     0
  0
CLASS
  1
ACMNOTESTANDARDANSI
  2
AmdtNoteStdANSI
  3
"Amdt_StdImp|Product Description: AutoCAD Mechanical|Company: Autodesk, Inc."
 90
    33792
280
     0
281
     0
  0
CLASS
  1
ACMTAPERSTANDARDANSI
  2
AcmTaperStdANSI
  3
"Amdt_StdImp|Product Description: AutoCAD Mechanical|Company: Autodesk, Inc."
 90
    33792
280
     0
281
     0
  0
CLASS
  1
ACMANOOTATIONVIEWSTANDARDANSI
  2
AmdtAnViewStdANSI
  3
"Amdt_StdImp|Product Description: AutoCAD Mechanical|Company: Autodesk, Inc."
 90
    33792
280
     0
281
     0
  0
CLASS
  1
ACAMGHOLECHARTSTDANSI
  2
AcAmgHoleChartStdANSI
  3
AmgDim|Product Description: AutoCAD Mechanical|Company: Autodesk, Inc.
 90
    33792
280
     0
281
     0
  0
CLASS
  1
ACDBPLACEHOLDER
  2
AcDbPlaceHolder
  3
ObjectDBX Classes
 90
        0
280
     0
281
     0
  0
CLASS
  1
LAYOUT
  2
AcDbLayout
  3
ObjectDBX Classes
 90
        0
280
     0
281
     0
  0
CLASS
  1
DIMASSOC
  2
AcDbDimAssoc
  3
"AcDbDimAssoc|Product Desc:     AcDim ARX App For Dimension|Company:          Autodesk, Inc.|WEB Address:      www.autodesk.com"
 90
        0
280
     0
281
     0
  0
CLASS
  1
AMDTNOTE
  2
AmdtNote
  3
"AcmSymBB|Product Description: AutoCAD Mechanical|Company: Autodesk, Inc."
 90
    36863
280
     0
281
     1
  0
CLASS
  1
AMDTFORMULAUPDATEDISPATCHER
  2
AmdtFormulaUpdateDispatcher
  3
AcMeServices
 90
    33792
280
     0
281
     0
  0
ENDSEC
  0
SECTION
  2
TABLES
  0
TABLE
  2
VPORT
  5
8
330
0
100
AcDbSymbolTable
 70
     1
  0
VPORT
  5
5F
330
8
100
AcDbSymbolTableRecord
100
AcDbViewportTableRecord
  2
*Active
 70
     0
 10
0.0
 20
0.0
 11
1.0
 21
1.0
 12
118.9821180462792
 22
81.63364452429556
 13
0.0
 23
0.0
 14
2.5
 24
2.5
 15
10.0
 25
10.0
 16
0.0
 26
0.0
 36
1.0
 17
0.0
 27
0.0
 37
0.0
 40
219.5094476779549
 41
1.255347593582887
 42
50.0
 43
0.0
 44
0.0
 50
0.0
 51
0.0
 71
     0
 72
  1000
 73
     1
 74
     3
 75
     0
 76
     0
 77
     0
 78
     0
281
     0
 65
     0
110
0.0
120
0.0
130
0.0
111
1.0
121
0.0
131
0.0
112
0.0
122
1.0
132
0.0
 79
     0
146
0.0
  0
ENDTAB
  0
TABLE
  2
LTYPE
  5
5
330
0
100
AcDbSymbolTable
 70
    15
  0
LTYPE
  5
63
330
5
100
AcDbSymbolTableRecord
100
AcDbLinetypeTableRecord
  2
ByBlock
 70
     0
  3

 72
    65
 73
     0
 40
0.0
  0
LTYPE
  5
64
330
5
100
AcDbSymbolTableRecord
100
AcDbLinetypeTableRecord
  2
ByLayer
 70
     0
  3

 72
    65
 73
     0
 40
0.0
  0
LTYPE
  5
65
330
5
100
AcDbSymbolTableRecord
100
AcDbLinetypeTableRecord
  2
Continuous
 70
     0
  3
Solid line
 72
    65
 73
     0
 40
0.0
  0
LTYPE
  5
B3
330
5
100
AcDbSymbolTableRecord
100
AcDbLinetypeTableRecord
  2
HIDDEN
 70
     0
  3
Hidden __ __ __ __ __ __ __ __ __ __ __ __ __ _
 72
    65
 73
     2
 40
9.524999999999996
 49
6.349999999999997
 74
     0
 49
-3.174999999999998
 74
     0
  0
LTYPE
  5
B4
330
5
100
AcDbSymbolTableRecord
100
AcDbLinetypeTableRecord
  2
PHANTOM2
 70
     0
  3
Phantom (.5x) ___ _ _ ___ _ _ ___ _ _ ___ _ _
 72
    65
 73
     6
 40
31.75
 49
15.875
 74
     0
 49
-3.174999999999998
 74
     0
 49
3.174999999999998
 74
     0
 49
-3.174999999999998
 74
     0
 49
3.174999999999998
 74
     0
 49
-3.174999999999998
 74
     0
  0
LTYPE
  5
B5
330
5
100
AcDbSymbolTableRecord
100
AcDbLinetypeTableRecord
  2
CENTER
 70
     0
  3
Center ____ _ ____ _ ____ _ ____ _ ____ _ ____
 72
    65
 73
     4
 40
50.8
 49
31.75
 74
     0
 49
-6.349999999999997
 74
     0
 49
6.349999999999997
 74
     0
 49
-6.349999999999997
 74
     0
  0
LTYPE
  5
F1
330
5
100
AcDbSymbolTableRecord
100
AcDbLinetypeTableRecord
  2
ACISOWELD
 70
     0
  3
_ _ _ _ _
 72
    65
 73
     2
 40
2.0
 49
2.0
 74
     0
 49
-1.0
 74
     0
  0
LTYPE
  5
F2
330
5
100
AcDbSymbolTableRecord
100
AcDbLinetypeTableRecord
  2
ACISOTGB
 70
     0
  3
__ . . __ . .
 72
    65
 73
     6
 40
9.0
 49
4.0
 74
     0
 49
-1.0
 74
     0
 49
1.0
 74
     0
 49
-1.0
 74
     0
 49
1.0
 74
     0
 49
-1.0
 74
     0
  0
LTYPE
  5
F3
330
5
100
AcDbSymbolTableRecord
100
AcDbLinetypeTableRecord
  2
ACISOTGL
 70
     0
  3
_ _ _ _ _
 72
    65
 73
     2
 40
3.0
 49
2.0
 74
     0
 49
-1.0
 74
     0
  0
LTYPE
  5
185
330
5
100
AcDbSymbolTableRecord
100
AcDbLinetypeTableRecord
  2
CENTER2
 70
     0
  3
Center (.5x) ___ _ ___ _ ___ _ ___ _ ___ _ ___
 72
    65
 73
     4
 40
1.125
 49
0.75
 74
     0
 49
-0.125
 74
     0
 49
0.125
 74
     0
 49
-0.125
 74
     0
  0
LTYPE
  5
186
330
5
100
AcDbSymbolTableRecord
100
AcDbLinetypeTableRecord
  2
HIDDEN2
 70
     0
  3
Hidden (.5x) _ _ _ _ _ _ _ _ _ _ _ _ _ _ _ _ _
 72
    65
 73
     2
 40
0.1875
 49
0.125
 74
     0
 49
-0.0625
 74
     0
  0
LTYPE
  5
187
330
5
100
AcDbSymbolTableRecord
100
AcDbLinetypeTableRecord
  2
ACANSTGBM
 70
     0
  3
__ . . __ . .
 72
    65
 73
     6
 40
9.0
 49
4.0
 74
     0
 49
-1.0
 74
     0
 49
1.0
 74
     0
 49
-1.0
 74
     0
 49
1.0
 74
     0
 49
-1.0
 74
     0
  0
LTYPE
  5
188
330
5
100
AcDbSymbolTableRecord
100
AcDbLinetypeTableRecord
  2
ACANSTGLM
 70
     0
  3
_ _ _ _ _
 72
    65
 73
     2
 40
3.0
 49
2.0
 74
     0
 49
-1.0
 74
     0
  0
LTYPE
  5
55B
330
5
100
AcDbSymbolTableRecord
100
AcDbLinetypeTableRecord
  2
AI9-LType1
 70
     0
  3
Illustrator Dash Style No.1
 72
    65
 73
     4
 40
6.434667
 49
4.021666999999998
 74
     0
 49
-0.8043329999999999
 74
     0
 49
0.8043329999999999
 74
     0
 49
-0.8043329999999999
 74
     0
  0
LTYPE
  5
55C
330
5
100
AcDbSymbolTableRecord
100
AcDbLinetypeTableRecord
  2
AI9-LType2
 70
     0
  3
Illustrator Dash Style No.2
 72
    65
 73
     1
 40
0.4826350000000001
 49
0.4826350000000001
 74
     0
  0
LTYPE
  5
55D
330
5
100
AcDbSymbolTableRecord
100
AcDbLinetypeTableRecord
  2
ACANSTGB
 70
     0
  3
__ . . __ . .
 72
    65
 73
     6
 40
0.35433070866
 49
0.15748031496
 74
     0
 49
-0.03937007874
 74
     0
 49
0.03937007874
 74
     0
 49
-0.03937007874
 74
     0
 49
0.03937007874
 74
     0
 49
-0.03937007874
 74
     0
  0
LTYPE
  5
55E
330
5
100
AcDbSymbolTableRecord
100
AcDbLinetypeTableRecord
  2
ACANSTGL
 70
     0
  3
_ _ _ _ _
 72
    65
 73
     2
 40
0.11811023622
 49
0.07874015748
 74
     0
 49
-0.03937007874
 74
     0
  0
ENDTAB
  0
TABLE
  2
LAYER
  5
2
102
{ACAD_XDICTIONARY
360
12A
102
}
330
0
100
AcDbSymbolTable
 70
     8
  0
LAYER
  5
5C
102
{ACAD_XDICTIONARY
360
158
102
}
330
2
100
AcDbSymbolTableRecord
100
AcDbLayerTableRecord
  2
0
 70
     0
 62
     7
  6
Continuous
370
    -3
390
F
  0
LAYER
  5
119
102
{ACAD_XDICTIONARY
360
11A
102
}
330
2
100
AcDbSymbolTableRecord
100
AcDbLayerTableRecord
  2
外形線
 70
     0
 62
     7
  6
Continuous
370
    40
390
F
  0
LAYER
  5
11B
102
{ACAD_XDICTIONARY
360
11C
102
}
330
2
100
AcDbSymbolTableRecord
100
AcDbLayerTableRecord
  2
枠
 70
     0
 62
   130
  6
CENTER
370
    50
390
F
1001
AcAecLayerStandard
1000

1000

  0
LAYER
  5
11D
102
{ACAD_XDICTIONARY
360
15C
102
}
330
2
100
AcDbSymbolTableRecord
100
AcDbLayerTableRecord
  2
レイヤー_1_0
 70
     0
 62
   160
  6
Continuous
370
    -3
390
F
  0
LAYER
  5
189
330
2
100
AcDbSymbolTableRecord
100
AcDbLayerTableRecord
  2
AM_0
 70
     0
 62
     7
  6
Continuous
370
    50
390
F
1001
AcAecLayerStandard
1000

1000

  0
LAYER
  5
1B8
330
2
100
AcDbSymbolTableRecord
100
AcDbLayerTableRecord
  2
AM_5
 70
     0
 62
     3
  6
Continuous
370
    25
390
F
1001
AcAecLayerStandard
1000

1000

  0
LAYER
  5
55F
330
2
100
AcDbSymbolTableRecord
100
AcDbLayerTableRecord
  2
レイヤー_1
 70
     0
 62
   160
  6
Continuous
370
    -3
390
F
  0
LAYER
  5
EE6
330
2
100
AcDbSymbolTableRecord
100
AcDbLayerTableRecord
  2
Defpoints
 70
     0
 62
     7
  6
Continuous
290
     0
370
    -3
390
F
  0
ENDTAB
  0
TABLE
  2
STYLE
  5
3
330
0
100
AcDbSymbolTable
 70
    11
  0
STYLE
  5
5D
330
3
100
AcDbSymbolTableRecord
100
AcDbTextStyleTableRecord
  2
STANDARD
 70
     0
 40
0.0
 41
0.8
 50
0.0
 71
     0
 42
2.5
  3
romans.shx
  4
bigfont.shx
  0
STYLE
  5
62
330
3
100
AcDbSymbolTableRecord
100
AcDbTextStyleTableRecord
  2
Annotative
 70
     0
 40
0.0
 41
1.0
 50
0.0
 71
     0
 42
0.2
  3

  4

1001
AcadAnnotative
1000
AnnotativeData
1002
{
1070
     1
1070
     1
1002
}
  0
STYLE
  5
E1
330
3
100
AcDbSymbolTableRecord
100
AcDbTextStyleTableRecord
  2
ACISOTS
 70
     0
 40
1.0
 41
1.0
 50
0.0
 71
     0
 42
2.5
  3
isocp.shx
  4
extfont.shx
  0
STYLE
  5
F0
330
3
100
AcDbSymbolTableRecord
100
AcDbTextStyleTableRecord
  2
ACISOGDT
 70
     0
 40
0.0
 41
1.0
 50
0.0
 71
     0
 42
2.5
  3
amgdt.shx
  4

  0
STYLE
  5
115
330
3
100
AcDbSymbolTableRecord
100
AcDbTextStyleTableRecord
  2
USER1
 70
     0
 40
0.0
 41
1.0
 50
0.0
 71
     0
 42
2.5
  3
TXT.SHX
  4

  0
STYLE
  5
116
330
3
100
AcDbSymbolTableRecord
100
AcDbTextStyleTableRecord
  2
USER2
 70
     0
 40
0.0
 41
1.0
 50
0.0
 71
     0
 42
2.5
  3
SIMPLEX.SHX
  4

  0
STYLE
  5
117
330
3
100
AcDbSymbolTableRecord
100
AcDbTextStyleTableRecord
  2
USER3
 70
     0
 40
0.0
 41
1.0
 50
0.0
 71
     0
 42
2.5
  3
ITALIC.SHX
  4

  0
STYLE
  5
11E
330
3
100
AcDbSymbolTableRecord
100
AcDbTextStyleTableRecord
  2
KANJISTD
 70
     0
 40
0.0
 41
1.0
 50
0.0
 71
     0
 42
0.0
  3
txt
  4
extfont
  0
STYLE
  5
18A
330
3
100
AcDbSymbolTableRecord
100
AcDbTextStyleTableRecord
  2
ACANSTS
 70
     0
 40
1.0
 41
1.0
 50
0.0
 71
     0
 42
0.2
  3
romans.shx
  4
extfont.shx
  0
STYLE
  5
18B
330
3
100
AcDbSymbolTableRecord
100
AcDbTextStyleTableRecord
  2
ACANSGDT
 70
     0
 40
0.0
 41
1.0
 50
0.0
 71
     0
 42
0.2
  3
amgdt.shx
  4

  0
STYLE
  5
560
330
3
100
AcDbSymbolTableRecord
100
AcDbTextStyleTableRecord
  2
STD
 70
     0
 40
0.0
 41
1.0
 50
0.0
 71
     0
 42
0.0
  3
txt
  4

  0
ENDTAB
  0
TABLE
  2
VIEW
  5
6
330
0
100
AcDbSymbolTable
 70
     0
  0
ENDTAB
  0
TABLE
  2
UCS
  5
7
330
0
100
AcDbSymbolTable
 70
     0
  0
ENDTAB
  0
TABLE
  2
APPID
  5
9
330
0
100
AcDbSymbolTable
 70
    26
  0
APPID
  5
5E
330
9
100
AcDbSymbolTableRecord
100
AcDbRegAppTableRecord
  2
ACAD
 70
     0
  0
APPID
  5
66
330
9
100
AcDbSymbolTableRecord
100
AcDbRegAppTableRecord
  2
AcadAnnotative
 70
     0
  0
APPID
  5
70
330
9
100
AcDbSymbolTableRecord
100
AcDbRegAppTableRecord
  2
ACAD_MLEADERVER
 70
     0
  0
APPID
  5
84
330
9
100
AcDbSymbolTableRecord
100
AcDbRegAppTableRecord
  2
MCAD_NO_VIS
 70
     0
  0
APPID
  5
85
330
9
100
AcDbSymbolTableRecord
100
AcDbRegAppTableRecord
  2
ACAD_TEMP_GRAPHIC
 70
     0
  0
APPID
  5
B7
330
9
100
AcDbSymbolTableRecord
100
AcDbRegAppTableRecord
  2
AD_DRAW
 70
     0
  0
APPID
  5
BA
330
9
100
AcDbSymbolTableRecord
100
AcDbRegAppTableRecord
  2
ACATTRIBSERVICES
 70
     0
  0
APPID
  5
DB
330
9
100
AcDbSymbolTableRecord
100
AcDbRegAppTableRecord
  2
DESIGNERASSEMBLIES
 70
     0
  0
APPID
  5
10F
330
9
100
AcDbSymbolTableRecord
100
AcDbRegAppTableRecord
  2
ACADM_DIM_EDIT
 70
     0
  0
APPID
  5
110
330
9
100
AcDbSymbolTableRecord
100
AcDbRegAppTableRecord
  2
AMDT_DM_ADJ
 70
     0
  0
APPID
  5
121
330
9
100
AcDbSymbolTableRecord
100
AcDbRegAppTableRecord
  2
ACAD_PSEXT
 70
     0
  0
APPID
  5
122
330
9
100
AcDbSymbolTableRecord
100
AcDbRegAppTableRecord
  2
AcAecLayerStandard
 70
     0
  0
APPID
  5
123
330
9
100
AcDbSymbolTableRecord
100
AcDbRegAppTableRecord
  2
GENIUS_GENODEF_13
 70
     0
  0
APPID
  5
124
330
9
100
AcDbSymbolTableRecord
100
AcDbRegAppTableRecord
  2
GENIUS_GENREC_14
 70
     0
  0
APPID
  5
125
330
9
100
AcDbSymbolTableRecord
100
AcDbRegAppTableRecord
  2
GENIUS_GENOBJ-N-REC_13
 70
     0
  0
APPID
  5
126
330
9
100
AcDbSymbolTableRecord
100
AcDbRegAppTableRecord
  2
ACAD_DSTYLE_DIMJAG
 70
     0
  0
APPID
  5
127
330
9
100
AcDbSymbolTableRecord
100
AcDbRegAppTableRecord
  2
ACAD_DSTYLE_DIMTALN
 70
     0
  0
APPID
  5
128
330
9
100
AcDbSymbolTableRecord
100
AcDbRegAppTableRecord
  2
ACAD_DSTYLE_DIMBREAK
 70
     0
  0
APPID
  5
129
330
9
100
AcDbSymbolTableRecord
100
AcDbRegAppTableRecord
  2
DCO15
 70
     0
  0
APPID
  5
248
330
9
100
AcDbSymbolTableRecord
100
AcDbRegAppTableRecord
  2
ACAD_DSTYLE_DIMJOGGED_JOGANGLE_SYMBOL
 70
     0
  0
APPID
  5
250
330
9
100
AcDbSymbolTableRecord
100
AcDbRegAppTableRecord
  2
ACAD_DSTYLE_DIMARC_LENGTH_SYMBOL
 70
     0
  0
APPID
  5
2DC
330
9
100
AcDbSymbolTableRecord
100
AcDbRegAppTableRecord
  2
AcadAnnoPO
 70
     0
  0
APPID
  5
EFE
330
9
100
AcDbSymbolTableRecord
100
AcDbRegAppTableRecord
  2
ACAD_DSTYLE_DIMINSPECT
 70
     0
  0
APPID
  5
F11
330
9
100
AcDbSymbolTableRecord
100
AcDbRegAppTableRecord
  2
GENIUS_GENDTOL_13
 70
     0
  0
APPID
  5
F66
330
9
100
AcDbSymbolTableRecord
100
AcDbRegAppTableRecord
  2
GENIUS_GENDIMSH_14
 70
     0
  0
APPID
  5
106C
330
9
100
AcDbSymbolTableRecord
100
AcDbRegAppTableRecord
  2
ACAD_DSTYLE_DIMRADIAL_EXTENSION
 70
     0
  0
ENDTAB
  0
TABLE
  2
DIMSTYLE
  5
A
330
0
100
AcDbSymbolTable
 70
    19
100
AcDbDimStyleTable
 71
     1
340
FF
  0
DIMSTYLE
105
60
330
A
100
AcDbSymbolTableRecord
100
AcDbDimStyleTableRecord
  2
ISO-25
 70
     0
 41
2.5
 42
0.625
 43
3.75
 44
1.25
 73
     0
 74
     0
 77
     1
 78
     8
140
2.5
141
2.5
143
0.03937007874016
147
0.625
171
     3
172
     1
271
     2
272
     2
274
     3
283
     0
284
     8
340
5D
1001
ACAD_DSTYLE_DIMJOGGED_JOGANGLE_SYMBOL
1070
   384
1040
1.570796326794896
  0
DIMSTYLE
105
61
330
A
100
AcDbSymbolTableRecord
100
AcDbDimStyleTableRecord
  2
Annotative
 70
     0
340
5D
1001
AcadAnnotative
1000
AnnotativeData
1002
{
1070
     1
1070
     1
1002
}
  0
DIMSTYLE
105
FF
330
A
100
AcDbSymbolTableRecord
100
AcDbDimStyleTableRecord
  2
AM_ISO
 70
     0
  4
"
 41
2.5
 42
1.0
 43
10.0
 44
1.0
 47
0.1
 48
0.1
 73
     0
 74
     0
 77
     1
 78
     8
 79
     2
140
3.0
141
0.0
143
0.0393701
146
0.71
147
1.0
172
     1
176
   256
177
   256
178
     2
271
     2
272
     2
283
     0
284
     8
340
5D
371
    -1
372
    -1
1001
ACAD_DSTYLE_DIMARC_LENGTH_SYMBOL
1070
   379
1070
     1
  0
DIMSTYLE
105
100
330
A
100
AcDbSymbolTableRecord
100
AcDbDimStyleTableRecord
  2
AM_ISO$3
 70
     0
  4
"
 41
2.5
 42
1.0
 43
10.0
 44
1.0
 47
0.1
 48
0.1
 73
     0
 77
     1
 78
     8
 79
     2
140
3.5
141
0.0
143
0.0393701
146
0.71
147
1.5
176
   256
177
   256
178
     2
271
     2
272
     3
274
     4
283
     0
284
     8
288
     1
289
     0
340
5D
371
    -1
372
    -1
1001
ACAD_DSTYLE_DIMARC_LENGTH_SYMBOL
1070
   379
1070
     1
  0
DIMSTYLE
105
101
330
A
100
AcDbSymbolTableRecord
100
AcDbDimStyleTableRecord
  2
AM_ISO$4
 70
     0
  4
"
 41
2.5
 42
1.0
 43
10.0
 44
1.0
 47
0.1
 48
0.1
 73
     0
 77
     1
 78
     8
 79
     2
140
3.5
141
0.0
143
0.0393701
146
0.71
147
1.5
176
   256
177
   256
178
     2
271
     2
272
     3
274
     4
283
     0
284
     8
288
     1
289
     0
340
5D
371
    -1
372
    -1
1001
ACAD_DSTYLE_DIMARC_LENGTH_SYMBOL
1070
   379
1070
     1
  0
DIMSTYLE
105
102
330
A
100
AcDbSymbolTableRecord
100
AcDbDimStyleTableRecord
  2
AM_ISO$6
 70
     0
  4
"
 41
2.5
 42
1.0
 43
10.0
 44
1.0
 47
0.1
 48
0.1
 73
     0
 74
     0
 78
     8
 79
     2
140
3.5
141
0.0
143
0.0393701
146
0.71
147
1.5
172
     1
176
   256
177
   256
178
     2
271
     2
272
     3
274
     4
283
     0
284
     8
340
5D
371
    -1
372
    -1
1001
ACAD_DSTYLE_DIMARC_LENGTH_SYMBOL
1070
   379
1070
     1
  0
DIMSTYLE
105
103
330
A
100
AcDbSymbolTableRecord
100
AcDbDimStyleTableRecord
  2
AM_ISO$7
 70
     0
  4
"
 41
2.5
 42
1.0
 43
10.0
 44
1.0
 47
0.1
 48
0.1
 73
     0
 74
     0
 77
     1
 78
     8
 79
     2
140
5.0
141
0.0
143
0.0393701
146
0.71
147
1.5
172
     1
176
   256
177
   256
178
     2
271
     2
272
     3
274
     4
283
     0
284
     8
340
5D
371
    -1
372
    -1
1001
ACAD_DSTYLE_DIMARC_LENGTH_SYMBOL
1070
   379
1070
     1
  0
DIMSTYLE
105
104
330
A
100
AcDbSymbolTableRecord
100
AcDbDimStyleTableRecord
  2
AM_ISO$SF
 70
     0
  4
"
 41
2.5
 42
1.0
 43
10.0
 44
1.0
 47
0.1
 48
0.1
 73
     0
 74
     0
 75
     1
 76
     1
 77
     1
 78
     8
 79
     2
140
3.5
141
0.0
143
0.0393701
146
0.71
147
1.5
172
     1
176
   256
177
   256
178
     2
271
     2
272
     3
274
     4
283
     0
284
     8
340
5D
371
    -1
372
    -1
1001
ACAD_DSTYLE_DIMARC_LENGTH_SYMBOL
1070
   379
1070
     1
  0
DIMSTYLE
105
109
330
A
100
AcDbSymbolTableRecord
100
AcDbDimStyleTableRecord
  2
AM_ISO$SH
 70
     0
  4
"
 41
2.5
 42
1.0
 43
10.0
 44
1.0
 47
0.1
 48
0.1
 73
     0
 74
     0
 75
     1
 76
     1
 77
     1
 78
     8
 79
     2
140
3.5
141
0.0
143
0.0393701
144
2.0
146
0.71
147
1.5
172
     1
173
     1
176
   256
177
   256
178
     2
271
     2
272
     3
274
     4
283
     0
284
     8
340
5D
343
105
371
    -1
372
    -1
1001
ACAD_DSTYLE_DIMARC_LENGTH_SYMBOL
1070
   379
1070
     1
  0
DIMSTYLE
105
11F
102
{ACAD_REACTORS
330
EE5
330
F24
330
F45
330
100C
330
10A6
330
10E7
330
111E
330
1166
330
11C4
102
}
330
A
100
AcDbSymbolTableRecord
100
AcDbDimStyleTableRecord
  2
AM_ISO$0
 70
     0
  4
"
 41
2.5
 42
1.0
 43
10.0
 44
1.0
 47
0.1
 48
0.1
 73
     0
 74
     0
 77
     1
 78
     8
 79
     2
140
3.0
141
0.0
143
0.0393701
146
0.71
147
1.0
172
     1
176
   256
177
   256
178
     2
271
     2
272
     2
283
     0
284
     8
340
5D
371
    -1
372
    -1
1001
ACAD_DSTYLE_DIMJAG
1070
   388
1040
1.5
1001
ACAD_DSTYLE_DIMTALN
1070
   392
1070
     0
1001
ACAD_DSTYLE_DIMARC_LENGTH_SYMBOL
1070
   379
1070
     1
  0
DIMSTYLE
105
120
330
A
100
AcDbSymbolTableRecord
100
AcDbDimStyleTableRecord
  2
AM_ISO$2
 70
     0
  4
"
 41
2.5
 42
1.0
 43
10.0
 44
1.0
 47
0.1
 48
0.1
 73
     0
 74
     0
 77
     1
 78
     8
 79
     2
140
3.0
141
0.0
143
0.0393701
146
0.71
147
1.0
172
     1
176
   256
177
   256
178
     2
271
     2
272
     2
283
     0
284
     8
340
5D
371
    -1
372
    -1
1001
ACAD_DSTYLE_DIMJAG
1070
   388
1040
1.5
1001
ACAD_DSTYLE_DIMTALN
1070
   392
1070
     0
1001
ACAD_DSTYLE_DIMARC_LENGTH_SYMBOL
1070
   379
1070
     1
  0
DIMSTYLE
105
18C
330
A
100
AcDbSymbolTableRecord
100
AcDbDimStyleTableRecord
  2
Standard
 70
     0
289
     0
340
5D
  0
DIMSTYLE
105
18D
330
A
100
AcDbSymbolTableRecord
100
AcDbDimStyleTableRecord
  2
AM_ANSI
 70
     0
  4
"
 41
2.5
 42
1.0
 43
10.0
 44
1.0
 47
0.1
 48
0.1
 73
     0
 74
     0
 77
     1
 78
     8
 79
     2
140
3.0
141
0.0
143
0.0393701
146
0.71
147
1.0
176
   256
177
   256
178
     2
271
     2
272
     2
284
     8
340
5D
371
    -1
372
    -1
1001
ACAD_DSTYLE_DIMJAG
1070
   388
1040
1.5
1001
ACAD_DSTYLE_DIMTALN
1070
   392
1070
     0
1001
ACAD_DSTYLE_DIMARC_LENGTH_SYMBOL
1070
   379
1070
     1
  0
DIMSTYLE
105
18E
330
A
100
AcDbSymbolTableRecord
100
AcDbDimStyleTableRecord
  2
AM_ANSI$3
 70
     0
  4
"
 41
2.5
 42
1.0
 43
10.0
 44
1.0
 47
0.1
 48
0.1
 78
     8
 79
     2
140
3.5
141
0.0
143
0.0393701
146
0.71
147
1.5
176
   256
177
   256
178
     2
271
     2
272
     2
274
     4
284
     8
288
     1
289
     0
340
5D
371
    -1
372
    -1
1001
ACAD_DSTYLE_DIMARC_LENGTH_SYMBOL
1070
   379
1070
     1
  0
DIMSTYLE
105
18F
330
A
100
AcDbSymbolTableRecord
100
AcDbDimStyleTableRecord
  2
AM_ANSI$4
 70
     0
  4
"
 41
2.5
 42
1.0
 43
10.0
 44
1.0
 47
0.1
 48
0.1
 78
     8
 79
     2
140
3.5
141
0.0
143
0.0393701
146
0.71
147
1.5
176
   256
177
   256
178
     2
271
     2
272
     2
274
     4
284
     8
288
     1
289
     0
340
5D
371
    -1
372
    -1
1001
ACAD_DSTYLE_DIMARC_LENGTH_SYMBOL
1070
   379
1070
     1
  0
DIMSTYLE
105
190
330
A
100
AcDbSymbolTableRecord
100
AcDbDimStyleTableRecord
  2
AM_ANSI$7
 70
     0
  4
"
 41
2.5
 42
1.0
 43
10.0
 44
1.0
 47
0.1
 48
0.1
 78
     8
 79
     2
140
5.0
141
0.0
143
0.0393701
146
0.71
147
1.5
176
   256
177
   256
178
     2
271
     2
272
     2
274
     4
284
     8
340
5D
371
    -1
372
    -1
1001
ACAD_DSTYLE_DIMARC_LENGTH_SYMBOL
1070
   379
1070
     1
  0
DIMSTYLE
105
191
330
A
100
AcDbSymbolTableRecord
100
AcDbDimStyleTableRecord
  2
AM_ANSI$SF
 70
     0
  4
"
 41
2.5
 42
1.0
 43
10.0
 44
1.0
 47
0.1
 48
0.1
 75
     1
 76
     1
 78
     8
 79
     2
140
3.5
141
0.0
143
0.0393701
146
0.71
147
1.5
176
   256
177
   256
178
     2
271
     2
272
     3
274
     4
284
     8
340
5D
371
    -1
372
    -1
1001
ACAD_DSTYLE_DIMARC_LENGTH_SYMBOL
1070
   379
1070
     1
  0
DIMSTYLE
105
192
330
A
100
AcDbSymbolTableRecord
100
AcDbDimStyleTableRecord
  2
AM_ANSI$SH
 70
     0
  4
"
 41
2.5
 42
1.0
 43
10.0
 44
1.0
 47
0.1
 48
0.1
 75
     1
 76
     1
 78
     8
 79
     2
140
3.5
141
0.0
143
0.0393701
146
0.71
147
1.5
173
     1
176
   256
177
   256
178
     2
271
     2
272
     3
274
     4
284
     8
340
5D
343
105
371
    -1
372
    -1
1001
ACAD_DSTYLE_DIMARC_LENGTH_SYMBOL
1070
   379
1070
     1
  0
DIMSTYLE
105
193
330
A
100
AcDbSymbolTableRecord
100
AcDbDimStyleTableRecord
  2
AM_ANSI$0
 70
     0
  4
"
 41
2.5
 42
1.0
 43
10.0
 44
1.0
 47
0.1
 48
0.1
 73
     0
 74
     0
 77
     1
 78
     8
 79
     2
140
3.0
141
0.0
143
0.0393701
146
0.71
147
1.0
176
   256
177
   256
178
     2
271
     2
272
     2
284
     8
340
5D
371
    -1
372
    -1
1001
ACAD_DSTYLE_DIMJAG
1070
   388
1040
1.5
1001
ACAD_DSTYLE_DIMTALN
1070
   392
1070
     0
1001
ACAD_DSTYLE_DIMARC_LENGTH_SYMBOL
1070
   379
1070
     1
  0
ENDTAB
  0
TABLE
  2
BLOCK_RECORD
  5
1
330
0
100
AcDbSymbolTable
 70
    38
  0
BLOCK_RECORD
  5
75
330
1
100
AcDbSymbolTableRecord
100
AcDbBlockTableRecord
  2
*Model_Space
340
78
  0
BLOCK_RECORD
  5
71
330
1
100
AcDbSymbolTableRecord
100
AcDbBlockTableRecord
  2
*Paper_Space
340
74
  0
BLOCK_RECORD
  5
79
330
1
100
AcDbSymbolTableRecord
100
AcDbBlockTableRecord
  2
*Paper_Space0
340
7C
  0
BLOCK_RECORD
  5
105
330
1
100
AcDbSymbolTableRecord
100
AcDbBlockTableRecord
  2
GENAXEH
340
0
  0
BLOCK_RECORD
  5
1B9
330
1
100
AcDbSymbolTableRecord
100
AcDbBlockTableRecord
  2
GENDOT
340
0
  0
BLOCK_RECORD
  5
410
330
1
100
AcDbSymbolTableRecord
100
AcDbBlockTableRecord
  2
AI9-BLK1
340
0
  0
BLOCK_RECORD
  5
416
330
1
100
AcDbSymbolTableRecord
100
AcDbBlockTableRecord
  2
AI9-BLK2
340
0
  0
BLOCK_RECORD
  5
420
330
1
100
AcDbSymbolTableRecord
100
AcDbBlockTableRecord
  2
AI9-BLK3
340
0
  0
BLOCK_RECORD
  5
428
330
1
100
AcDbSymbolTableRecord
100
AcDbBlockTableRecord
  2
AI9-BLK4
340
0
  0
BLOCK_RECORD
  5
42D
330
1
100
AcDbSymbolTableRecord
100
AcDbBlockTableRecord
  2
AI9-BLK5
340
0
102
{BLKREFS
331
42B
102
}
  0
BLOCK_RECORD
  5
433
330
1
100
AcDbSymbolTableRecord
100
AcDbBlockTableRecord
  2
AI9-BLK6
340
0
102
{BLKREFS
331
42A
102
}
  0
BLOCK_RECORD
  5
438
330
1
100
AcDbSymbolTableRecord
100
AcDbBlockTableRecord
  2
AI9-BLK7
340
0
102
{BLKREFS
331
CA7
102
}
  0
BLOCK_RECORD
  5
47D
330
1
100
AcDbSymbolTableRecord
100
AcDbBlockTableRecord
  2
AI9-BLK8
340
0
102
{BLKREFS
331
CA8
102
}
  0
BLOCK_RECORD
  5
4C2
330
1
100
AcDbSymbolTableRecord
100
AcDbBlockTableRecord
  2
AI9-BLK9
340
0
102
{BLKREFS
331
CA9
102
}
  0
BLOCK_RECORD
  5
507
330
1
100
AcDbSymbolTableRecord
100
AcDbBlockTableRecord
  2
AI9-BLK10
340
0
  0
BLOCK_RECORD
  5
50C
330
1
100
AcDbSymbolTableRecord
100
AcDbBlockTableRecord
  2
AI9-BLK11
340
0
102
{BLKREFS
331
50A
102
}
  0
BLOCK_RECORD
  5
512
330
1
100
AcDbSymbolTableRecord
100
AcDbBlockTableRecord
  2
AI9-BLK12
340
0
102
{BLKREFS
331
509
102
}
  0
BLOCK_RECORD
  5
517
330
1
100
AcDbSymbolTableRecord
100
AcDbBlockTableRecord
  2
AI9-BLK13
340
0
  0
BLOCK_RECORD
  5
51C
330
1
100
AcDbSymbolTableRecord
100
AcDbBlockTableRecord
  2
AI9-BLK14
340
0
102
{BLKREFS
331
51A
102
}
  0
BLOCK_RECORD
  5
522
330
1
100
AcDbSymbolTableRecord
100
AcDbBlockTableRecord
  2
AI9-BLK15
340
0
102
{BLKREFS
331
519
102
}
  0
BLOCK_RECORD
  5
527
330
1
100
AcDbSymbolTableRecord
100
AcDbBlockTableRecord
  2
AI9-BLK16
340
0
  0
BLOCK_RECORD
  5
52C
330
1
100
AcDbSymbolTableRecord
100
AcDbBlockTableRecord
  2
AI9-BLK17
340
0
102
{BLKREFS
331
52A
102
}
  0
BLOCK_RECORD
  5
532
330
1
100
AcDbSymbolTableRecord
100
AcDbBlockTableRecord
  2
AI9-BLK18
340
0
102
{BLKREFS
331
529
102
}
  0
BLOCK_RECORD
  5
537
330
1
100
AcDbSymbolTableRecord
100
AcDbBlockTableRecord
  2
AI9-BLK19
340
0
  0
BLOCK_RECORD
  5
53C
330
1
100
AcDbSymbolTableRecord
100
AcDbBlockTableRecord
  2
AI9-BLK20
340
0
102
{BLKREFS
331
53A
102
}
  0
BLOCK_RECORD
  5
542
330
1
100
AcDbSymbolTableRecord
100
AcDbBlockTableRecord
  2
AI9-BLK21
340
0
102
{BLKREFS
331
539
102
}
  0
BLOCK_RECORD
  5
547
330
1
100
AcDbSymbolTableRecord
100
AcDbBlockTableRecord
  2
AI9-BLK22
340
0
  0
BLOCK_RECORD
  5
54C
330
1
100
AcDbSymbolTableRecord
100
AcDbBlockTableRecord
  2
AI9-BLK23
340
0
102
{BLKREFS
331
54A
102
}
  0
BLOCK_RECORD
  5
552
330
1
100
AcDbSymbolTableRecord
100
AcDbBlockTableRecord
  2
AI9-BLK24
340
0
102
{BLKREFS
331
549
102
}
  0
BLOCK_RECORD
  5
557
330
1
100
AcDbSymbolTableRecord
100
AcDbBlockTableRecord
  2
AI9-BLK25
340
0
102
{BLKREFS
331
ED1
102
}
  0
BLOCK_RECORD
  5
EE7
330
1
100
AcDbSymbolTableRecord
100
AcDbBlockTableRecord
  2
*D28
340
0
  0
BLOCK_RECORD
  5
F25
330
1
100
AcDbSymbolTableRecord
100
AcDbBlockTableRecord
  2
*D29
340
0
  0
BLOCK_RECORD
  5
F46
330
1
100
AcDbSymbolTableRecord
100
AcDbBlockTableRecord
  2
*D30
340
0
  0
BLOCK_RECORD
  5
100D
330
1
100
AcDbSymbolTableRecord
100
AcDbBlockTableRecord
  2
*D31
340
0
  0
BLOCK_RECORD
  5
10A7
330
1
100
AcDbSymbolTableRecord
100
AcDbBlockTableRecord
  2
*D32
340
0
  0
BLOCK_RECORD
  5
10E8
330
1
100
AcDbSymbolTableRecord
100
AcDbBlockTableRecord
  2
*D33
340
0
  0
BLOCK_RECORD
  5
111F
330
1
100
AcDbSymbolTableRecord
100
AcDbBlockTableRecord
  2
*D34
340
0
  0
BLOCK_RECORD
  5
1167
330
1
100
AcDbSymbolTableRecord
100
AcDbBlockTableRecord
  2
*D35
340
0
  0
BLOCK_RECORD
  5
11C5
330
1
100
AcDbSymbolTableRecord
100
AcDbBlockTableRecord
  2
*D36
340
0
  0
ENDTAB
  0
ENDSEC
  0
SECTION
  2
BLOCKS
  0
BLOCK
  5
76
330
75
100
AcDbEntity
  8
0
100
AcDbBlockBegin
  2
*Model_Space
 70
     0
 10
0.0
 20
0.0
 30
0.0
  3
*Model_Space
  1

  0
ENDBLK
  5
77
330
75
100
AcDbEntity
  8
0
100
AcDbBlockEnd
  0
BLOCK
  5
72
330
71
100
AcDbEntity
 67
     1
  8
0
100
AcDbBlockBegin
  2
*Paper_Space
 70
     0
 10
0.0
 20
0.0
 30
0.0
  3
*Paper_Space
  1

  0
ENDBLK
  5
73
330
71
100
AcDbEntity
 67
     1
  8
0
100
AcDbBlockEnd
  0
BLOCK
  5
7A
330
79
100
AcDbEntity
 67
     1
  8
0
100
AcDbBlockBegin
  2
*Paper_Space0
 70
     0
 10
0.0
 20
0.0
 30
0.0
  3
*Paper_Space0
  1

  0
ENDBLK
  5
7B
330
79
100
AcDbEntity
 67
     1
  8
0
100
AcDbBlockEnd
  0
BLOCK
  5
107
330
105
100
AcDbEntity
  8
0
100
AcDbBlockBegin
  2
GENAXEH
 70
     0
 10
0.0
 20
0.0
 30
0.0
  3
GENAXEH
  1

  0
LINE
  5
106
330
105
100
AcDbEntity
  8
0
100
AcDbLine
 10
-1.0
 20
0.0
 30
0.0
 11
1.0
 21
0.0
 31
0.0
  0
ENDBLK
  5
108
330
105
100
AcDbEntity
  8
0
100
AcDbBlockEnd
  0
BLOCK
  5
1BC
330
1B9
100
AcDbEntity
  8
0
100
AcDbBlockBegin
  2
GENDOT
 70
     0
 10
0.0
 20
0.0
 30
0.0
  3
GENDOT
  1

  0
LINE
  5
1BA
330
1B9
100
AcDbEntity
  8
0
100
AcDbLine
 10
0.0
 20
0.0
 30
0.0
 11
-1.0
 21
0.0
 31
0.0
  0
LWPOLYLINE
  5
1BB
330
1B9
100
AcDbEntity
  8
0
100
AcDbPolyline
 90
        2
 70
     1
 43
0.25
 10
-0.125
 20
0.0
 42
1.0
 10
0.125
 20
0.0
 42
1.0
  0
ENDBLK
  5
1BD
330
1B9
100
AcDbEntity
  8
0
100
AcDbBlockEnd
  0
BLOCK
  5
411
330
410
100
AcDbEntity
  8
レイヤー_1
 62
     7
100
AcDbBlockBegin
  2
AI9-BLK1
 70
     0
 10
0.0
 20
0.0
 30
0.0
  3
AI9-BLK1
  1

  0
LINE
  5
412
330
410
100
AcDbEntity
  8
レイヤー_1
 62
     7
100
AcDbLine
 10
0.5026390000000001
 20
-0.409708
 30
0.0
 11
-0.5026390000000001
 21
0.461212
 31
0.0
  0
LINE
  5
413
330
410
100
AcDbEntity
  8
レイヤー_1
 62
     7
100
AcDbLine
 10
0.468533
 20
-0.325992
 30
0.0
 11
0.4344270000000002
 21
0.042289
 31
0.0
  0
LINE
  5
414
330
410
100
AcDbEntity
  8
レイヤー_1
 62
     7
100
AcDbLine
 10
0.066146
 20
-0.442781
 30
0.0
 11
0.4344270000000002
 21
-0.376635
 31
0.0
  0
ENDBLK
  5
415
330
410
100
AcDbEntity
  8
レイヤー_1
100
AcDbBlockEnd
  0
BLOCK
  5
417
330
416
100
AcDbEntity
  8
レイヤー_1
 62
     7
100
AcDbBlockBegin
  2
AI9-BLK2
 70
     0
 10
0.0
 20
0.0
 30
0.0
  3
AI9-BLK2
  1

  0
POLYLINE
  5
418
330
416
100
AcDbEntity
  8
レイヤー_1
 62
     7
100
AcDb2dPolyline
 66
     1
 10
0.0
 20
0.0
 30
0.0
  0
VERTEX
  5
419
330
418
100
AcDbEntity
  8
レイヤー_1
 62
     7
100
AcDbVertex
100
AcDb2dVertex
 10
-8.402931999999998
 20
3.569722
 30
0.0
  0
VERTEX
  5
41A
330
418
100
AcDbEntity
  8
レイヤー_1
 62
     7
100
AcDbVertex
100
AcDb2dVertex
 10
0.24219
 20
-3.601589
 30
0.0
  0
VERTEX
  5
41B
330
418
100
AcDbEntity
  8
レイヤー_1
 62
     7
100
AcDbVertex
100
AcDb2dVertex
 10
8.454264
 20
-3.601589
 30
0.0
  0
SEQEND
  5
41C
330
418
100
AcDbEntity
  8
レイヤー_1
 62
     7
  0
LINE
  5
41D
330
416
100
AcDbEntity
  8
レイヤー_1
 62
     7
100
AcDbLine
 10
-8.369858999999998
 20
3.486005999999998
 30
0.0
 11
-8.336786999999999
 21
3.117725
 31
0.0
  0
LINE
  5
41E
330
416
100
AcDbEntity
  8
レイヤー_1
 62
     7
100
AcDbLine
 10
-7.968505999999998
 20
3.602794999999998
 30
0.0
 11
-8.336786999999999
 21
3.536648999999998
 31
0.0
  0
ENDBLK
  5
41F
330
416
100
AcDbEntity
  8
レイヤー_1
100
AcDbBlockEnd
  0
BLOCK
  5
421
330
420
100
AcDbEntity
  8
レイヤー_1
 62
     7
100
AcDbBlockBegin
  2
AI9-BLK3
 70
     0
 10
0.0
 20
0.0
 30
0.0
  3
AI9-BLK3
  1

  0
POLYLINE
  5
422
330
420
100
AcDbEntity
  8
レイヤー_1
 62
     7
100
AcDb2dPolyline
 66
     1
 10
0.0
 20
0.0
 30
0.0
  0
VERTEX
  5
423
330
422
100
AcDbEntity
  8
レイヤー_1
 62
     7
100
AcDbVertex
100
AcDb2dVertex
 10
-12.359797
 20
-4.003458999999998
 30
0.0
  0
VERTEX
  5
424
330
422
100
AcDbEntity
  8
レイヤー_1
 62
     7
100
AcDbVertex
100
AcDb2dVertex
 10
0.617189
 20
3.991401999999999
 30
0.0
  0
VERTEX
  5
425
330
422
100
AcDbEntity
  8
レイヤー_1
 62
     7
100
AcDbVertex
100
AcDb2dVertex
 10
12.401138
 20
3.911819999999998
 30
0.0
  0
SEQEND
  5
426
330
422
100
AcDbEntity
  8
レイヤー_1
 62
     7
  0
ENDBLK
  5
427
330
420
100
AcDbEntity
  8
レイヤー_1
100
AcDbBlockEnd
  0
BLOCK
  5
429
330
428
100
AcDbEntity
  8
レイヤー_1
 62
     7
100
AcDbBlockBegin
  2
AI9-BLK4
 70
     0
 10
0.0
 20
0.0
 30
0.0
  3
AI9-BLK4
  1

  0
INSERT
  5
42A
330
428
100
AcDbEntity
  8
レイヤー_1
 62
     7
100
AcDbBlockReference
  2
AI9-BLK6
 10
0.0
 20
0.0
 30
0.0
  0
INSERT
  5
42B
330
428
100
AcDbEntity
  8
レイヤー_1
 62
     7
100
AcDbBlockReference
  2
AI9-BLK5
 10
-0.000086
 20
0.0
 30
0.0
  0
ENDBLK
  5
42C
330
428
100
AcDbEntity
  8
レイヤー_1
100
AcDbBlockEnd
  0
BLOCK
  5
42E
330
42D
100
AcDbEntity
  8
レイヤー_1
 62
     7
100
AcDbBlockBegin
  2
AI9-BLK5
 70
     0
 10
0.0
 20
0.0
 30
0.0
  3
AI9-BLK5
  1

  0
LINE
  5
42F
330
42D
100
AcDbEntity
  8
レイヤー_1
 62
     7
100
AcDbLine
 10
24.875915
 20
0.0
 30
0.0
 11
-24.875743
 21
0.0
 31
0.0
  0
HATCH
  5
430
330
42D
100
AcDbEntity
  8
レイヤー_1
 62
     7
100
AcDbHatch
 10
0.0
 20
0.0
 30
0.0
210
0.0
220
0.0
230
1.0
  2
SOLID
 70
     1
 71
     0
 91
        1
 92
        1
 93
        1
 72
     4
 94
        3
 73
     0
 74
     0
 95
       20
 96
       16
 40
0.0
 40
0.0
 40
0.0
 40
0.0
 40
1.0
 40
1.0
 40
1.0
 40
2.0
 40
2.0
 40
2.0
 40
3.0
 40
3.0
 40
3.0
 40
4.0
 40
4.0
 40
4.0
 40
5.0
 40
5.0
 40
5.0
 40
5.0
 10
-25.24609035915799
 20
-0.1605414496527778
 10
-24.98684692382812
 20
-0.2389173719618055
 10
-24.81838175455729
 20
-0.3110921223958333
 10
-24.61029798719618
 20
-0.3946356879340278
 10
-24.61029798719618
 20
-0.3946356879340278
 10
-24.61029798719618
 20
0.3965304904513887
 10
-24.61029798719618
 20
0.3965304904513887
 10
-24.68488430447049
 20
0.3610460069444444
 10
-24.98684692382812
 20
0.2406399197048611
 10
-25.24609035915799
 20
0.1626085069444444
 10
-25.52359280056424
 20
0.0787204318576389
 10
-25.77508477105034
 20
0.0213595920138889
 10
-25.93838229709201
 20
0.0008612738715278
 10
-25.77508477105034
 20
-0.0196370442708333
 10
-25.52359280056424
 20
-0.0768256293402778
 10
-25.24609035915799
 20
-0.1605414496527778
 97
        0
 75
     0
 76
     1
 98
        1
 10
0.0
 20
0.0
  0
HATCH
  5
431
330
42D
100
AcDbEntity
  8
レイヤー_1
 62
     7
100
AcDbHatch
 10
0.0
 20
0.0
 30
0.0
210
0.0
220
0.0
230
1.0
  2
SOLID
 70
     1
 71
     0
 91
        1
 92
        1
 93
        1
 72
     4
 94
        3
 73
     0
 74
     0
 95
       20
 96
       16
 40
0.0
 40
0.0
 40
0.0
 40
0.0
 40
1.0
 40
1.0
 40
1.0
 40
2.0
 40
2.0
 40
2.0
 40
3.0
 40
3.0
 40
3.0
 40
4.0
 40
4.0
 40
4.0
 40
5.0
 40
5.0
 40
5.0
 40
5.0
 10
25.24626261393229
 20
0.1605414496527778
 10
24.98701917860243
 20
0.2389173719618055
 10
24.8185540093316
 20
0.3110921223958333
 10
24.61047024197049
 20
0.3946356879340278
 10
24.61047024197049
 20
0.3946356879340278
 10
24.61047024197049
 20
-0.3965304904513887
 10
24.61047024197049
 20
-0.3965304904513887
 10
24.68488430447049
 20
-0.3610460069444444
 10
24.98701917860243
 20
-0.2406399197048611
 10
25.24626261393229
 20
-0.1626085069444444
 10
25.52376505533854
 20
-0.0787204318576389
 10
25.77525702582465
 20
-0.0213595920138889
 10
25.93838229709201
 20
-0.0008612738715278
 10
25.77525702582465
 20
0.0196370442708333
 10
25.52376505533854
 20
0.0768256293402778
 10
25.24626261393229
 20
0.1605414496527778
 97
        0
 75
     0
 76
     1
 98
        1
 10
0.0
 20
0.0
  0
ENDBLK
  5
432
330
42D
100
AcDbEntity
  8
レイヤー_1
100
AcDbBlockEnd
  0
BLOCK
  5
434
330
433
100
AcDbEntity
  8
レイヤー_1
 62
     7
100
AcDbBlockBegin
  2
AI9-BLK6
 70
     0
 10
0.0
 20
0.0
 30
0.0
  3
AI9-BLK6
  1

  0
SPLINE
  5
435
330
433
100
AcDbEntity
  8
レイヤー_1
 62
     7
100
AcDbSpline
210
0.0
220
0.0
230
1.0
 70
    11
 71
     3
 72
    20
 73
    16
 74
     0
 42
0.0000000001
 43
0.0000000001
 40
0.0
 40
0.0
 40
0.0
 40
0.0
 40
1.0
 40
1.0
 40
1.0
 40
2.0
 40
2.0
 40
2.0
 40
3.0
 40
3.0
 40
3.0
 40
4.0
 40
4.0
 40
4.0
 40
5.0
 40
5.0
 40
5.0
 40
5.0
 10
-25.70902506510416
 20
-0.3613905164930555
 30
0.0
 10
-25.12577039930556
 20
-0.5374348958333333
 30
0.0
 10
-24.74663764105902
 20
-0.6996988932291666
 30
0.0
 10
-24.27879367404514
 20
-0.8878011067708332
 30
0.0
 10
-24.27879367404514
 20
-0.8878011067708332
 30
0.0
 10
-24.27879367404514
 20
0.8919352213541666
 30
0.0
 10
-24.27879367404514
 20
0.8919352213541666
 30
0.0
 10
-24.44622531467014
 20
0.812353515625
 30
0.0
 10
-25.12577039930556
 20
0.5415690104166666
 30
0.0
 10
-25.70902506510416
 20
0.365869140625
 30
0.0
 10
-26.3332763671875
 20
0.1770779079861111
 30
0.0
 10
-26.89930555555556
 20
0.0482313368055556
 30
0.0
 10
-27.26638047960069
 20
0.0020670572916667
 30
0.0
 10
-26.89930555555556
 20
-0.0440972222222222
 30
0.0
 10
-26.3332763671875
 20
-0.1729437934027778
 30
0.0
 10
-25.70902506510416
 20
-0.3613905164930555
 30
0.0
  0
SPLINE
  5
436
330
433
100
AcDbEntity
  8
レイヤー_1
 62
     7
100
AcDbSpline
210
0.0
220
0.0
230
1.0
 70
    11
 71
     3
 72
    20
 73
    16
 74
     0
 42
0.0000000001
 43
0.0000000001
 40
0.0
 40
0.0
 40
0.0
 40
0.0
 40
1.0
 40
1.0
 40
1.0
 40
2.0
 40
2.0
 40
2.0
 40
3.0
 40
3.0
 40
3.0
 40
4.0
 40
4.0
 40
4.0
 40
5.0
 40
5.0
 40
5.0
 40
5.0
 10
25.70902506510416
 20
0.3613905164930555
 30
0.0
 10
25.12577039930556
 20
0.5374348958333333
 30
0.0
 10
24.74663764105902
 20
0.6996988932291666
 30
0.0
 10
24.27879367404514
 20
0.8878011067708332
 30
0.0
 10
24.27879367404514
 20
0.8878011067708332
 30
0.0
 10
24.27879367404514
 20
-0.8919352213541666
 30
0.0
 10
24.27879367404514
 20
-0.8919352213541666
 30
0.0
 10
24.44622531467014
 20
-0.812353515625
 30
0.0
 10
25.12577039930556
 20
-0.5415690104166666
 30
0.0
 10
25.70902506510416
 20
-0.365869140625
 30
0.0
 10
26.3332763671875
 20
-0.1770779079861111
 30
0.0
 10
26.89930555555556
 20
-0.0482313368055556
 30
0.0
 10
27.26638047960069
 20
-0.0020670572916667
 30
0.0
 10
26.89930555555556
 20
0.0440972222222222
 30
0.0
 10
26.3332763671875
 20
0.1729437934027778
 30
0.0
 10
25.70902506510416
 20
0.3613905164930555
 30
0.0
  0
ENDBLK
  5
437
330
433
100
AcDbEntity
  8
レイヤー_1
100
AcDbBlockEnd
  0
BLOCK
  5
439
330
438
100
AcDbEntity
  8
レイヤー_1
 62
     7
100
AcDbBlockBegin
  2
AI9-BLK7
 70
     0
 10
0.0
 20
0.0
 30
0.0
  3
AI9-BLK7
  1

  0
LINE
  5
43A
330
438
100
AcDbEntity
  8
レイヤー_1
 62
     7
100
AcDbLine
 10
1.244367999999999
 20
3.524333
 30
0.0
 11
1.339109
 21
3.142443999999998
 31
0.0
  0
LINE
  5
43B
330
438
100
AcDbEntity
  8
レイヤー_1
 62
     7
100
AcDbLine
 10
1.339109
 20
3.142443999999998
 30
0.0
 11
1.062122999999999
 21
2.812231
 31
0.0
  0
LINE
  5
43C
330
438
100
AcDbEntity
  8
レイヤー_1
 62
     7
100
AcDbLine
 10
2.996888999999999
 20
3.187058
 30
0.0
 11
2.721281
 21
2.879411
 31
0.0
  0
LINE
  5
43D
330
438
100
AcDbEntity
  8
レイヤー_1
 62
     7
100
AcDbLine
 10
2.721281
 20
2.879411
 30
0.0
 11
2.805340999999998
 21
2.438610999999998
 31
0.0
  0
POLYLINE
  5
43E
330
438
100
AcDbEntity
  8
レイヤー_1
 62
     7
100
AcDb2dPolyline
 66
     1
 10
0.0
 20
0.0
 30
0.0
  0
VERTEX
  5
43F
330
43E
100
AcDbEntity
  8
レイヤー_1
 62
     7
100
AcDbVertex
100
AcDb2dVertex
 10
2.996888999999999
 20
3.187058
 30
0.0
  0
VERTEX
  5
440
330
43E
100
AcDbEntity
  8
レイヤー_1
 62
     7
100
AcDbVertex
100
AcDb2dVertex
 10
3.408576999999998
 20
3.353111
 30
0.0
  0
VERTEX
  5
441
330
43E
100
AcDbEntity
  8
レイヤー_1
 62
     7
100
AcDbVertex
100
AcDb2dVertex
 10
3.774101999999998
 20
3.609426999999998
 30
0.0
  0
VERTEX
  5
442
330
43E
100
AcDbEntity
  8
レイヤー_1
 62
     7
100
AcDbVertex
100
AcDb2dVertex
 10
4.073135999999998
 20
3.937226999999998
 30
0.0
  0
VERTEX
  5
443
330
43E
100
AcDbEntity
  8
レイヤー_1
 62
     7
100
AcDbVertex
100
AcDb2dVertex
 10
4.285699
 20
4.325833999999998
 30
0.0
  0
VERTEX
  5
444
330
43E
100
AcDbEntity
  8
レイヤー_1
 62
     7
100
AcDbVertex
100
AcDb2dVertex
 10
4.409032999999999
 20
4.746135999999999
 30
0.0
  0
VERTEX
  5
445
330
43E
100
AcDbEntity
  8
レイヤー_1
 62
     7
100
AcDbVertex
100
AcDb2dVertex
 10
4.442794999999998
 20
5.182285
 30
0.0
  0
VERTEX
  5
446
330
43E
100
AcDbEntity
  8
レイヤー_1
 62
     7
100
AcDbVertex
100
AcDb2dVertex
 10
4.373204
 20
5.625669
 30
0.0
  0
VERTEX
  5
447
330
43E
100
AcDbEntity
  8
レイヤー_1
 62
     7
100
AcDbVertex
100
AcDb2dVertex
 10
4.206805999999998
 20
6.036841
 30
0.0
  0
VERTEX
  5
448
330
43E
100
AcDbEntity
  8
レイヤー_1
 62
     7
100
AcDbVertex
100
AcDb2dVertex
 10
3.958758999999998
 20
6.398748
 30
0.0
  0
VERTEX
  5
449
330
43E
100
AcDbEntity
  8
レイヤー_1
 62
     7
100
AcDbVertex
100
AcDb2dVertex
 10
3.636642999999998
 20
6.7045
 30
0.0
  0
VERTEX
  5
44A
330
43E
100
AcDbEntity
  8
レイヤー_1
 62
     7
100
AcDbVertex
100
AcDb2dVertex
 10
3.252515
 20
6.926019999999998
 30
0.0
  0
VERTEX
  5
44B
330
43E
100
AcDbEntity
  8
レイヤー_1
 62
     7
100
AcDbVertex
100
AcDb2dVertex
 10
2.824634
 20
7.053488
 30
0.0
  0
VERTEX
  5
44C
330
43E
100
AcDbEntity
  8
レイヤー_1
 62
     7
100
AcDbVertex
100
AcDb2dVertex
 10
2.388139999999999
 20
7.086733999999998
 30
0.0
  0
VERTEX
  5
44D
330
43E
100
AcDbEntity
  8
レイヤー_1
 62
     7
100
AcDbVertex
100
AcDb2dVertex
 10
1.950268999999999
 20
7.024894
 30
0.0
  0
VERTEX
  5
44E
330
43E
100
AcDbEntity
  8
レイヤー_1
 62
     7
100
AcDbVertex
100
AcDb2dVertex
 10
1.538923999999999
 20
6.859013
 30
0.0
  0
VERTEX
  5
44F
330
43E
100
AcDbEntity
  8
レイヤー_1
 62
     7
100
AcDbVertex
100
AcDb2dVertex
 10
1.16961
 20
6.616305999999998
 30
0.0
  0
VERTEX
  5
450
330
43E
100
AcDbEntity
  8
レイヤー_1
 62
     7
100
AcDbVertex
100
AcDb2dVertex
 10
0.8626520000000001
 20
6.291949999999999
 30
0.0
  0
VERTEX
  5
451
330
43E
100
AcDbEntity
  8
レイヤー_1
 62
     7
100
AcDbVertex
100
AcDb2dVertex
 10
0.6411319999999999
 20
5.908338999999998
 30
0.0
  0
VERTEX
  5
452
330
43E
100
AcDbEntity
  8
レイヤー_1
 62
     7
100
AcDbVertex
100
AcDb2dVertex
 10
0.5109080000000002
 20
5.493376999999998
 30
0.0
  0
VERTEX
  5
453
330
43E
100
AcDbEntity
  8
レイヤー_1
 62
     7
100
AcDbVertex
100
AcDb2dVertex
 10
0.4709450000000002
 20
5.049304
 30
0.0
  0
VERTEX
  5
454
330
43E
100
AcDbEntity
  8
レイヤー_1
 62
     7
100
AcDbVertex
100
AcDb2dVertex
 10
0.525033
 20
4.614188999999998
 30
0.0
  0
VERTEX
  5
455
330
43E
100
AcDbEntity
  8
レイヤー_1
 62
     7
100
AcDbVertex
100
AcDb2dVertex
 10
0.685229
 20
4.194748
 30
0.0
  0
VERTEX
  5
456
330
43E
100
AcDbEntity
  8
レイヤー_1
 62
     7
100
AcDbVertex
100
AcDb2dVertex
 10
0.9294869999999999
 20
3.825951
 30
0.0
  0
VERTEX
  5
457
330
43E
100
AcDbEntity
  8
レイヤー_1
 62
     7
100
AcDbVertex
100
AcDb2dVertex
 10
1.244367999999999
 20
3.524333
 30
0.0
  0
SEQEND
  5
458
330
43E
100
AcDbEntity
  8
レイヤー_1
 62
     7
  0
POLYLINE
  5
459
330
438
100
AcDbEntity
  8
レイヤー_1
 62
     7
100
AcDb2dPolyline
 66
     1
 10
0.0
 20
0.0
 30
0.0
  0
VERTEX
  5
45A
330
459
100
AcDbEntity
  8
レイヤー_1
 62
     7
100
AcDbVertex
100
AcDb2dVertex
 10
-2.944867999999998
 20
-6.859357000000001
 30
0.0
  0
VERTEX
  5
45B
330
459
100
AcDbEntity
  8
レイヤー_1
 62
     7
100
AcDbVertex
100
AcDb2dVertex
 10
-1.953368999999998
 20
-5.896453
 30
0.0
  0
VERTEX
  5
45C
330
459
100
AcDbEntity
  8
レイヤー_1
 62
     7
100
AcDbVertex
100
AcDb2dVertex
 10
-1.029738999999998
 20
-4.861545999999998
 30
0.0
  0
VERTEX
  5
45D
330
459
100
AcDbEntity
  8
レイヤー_1
 62
     7
100
AcDbVertex
100
AcDb2dVertex
 10
-0.183624
 20
-3.772723999999998
 30
0.0
  0
VERTEX
  5
45E
330
459
100
AcDbEntity
  8
レイヤー_1
 62
     7
100
AcDbVertex
100
AcDb2dVertex
 10
0.590489
 20
-2.619305999999999
 30
0.0
  0
VERTEX
  5
45F
330
459
100
AcDbEntity
  8
レイヤー_1
 62
     7
100
AcDbVertex
100
AcDb2dVertex
 10
1.276407999999998
 20
-1.414212
 30
0.0
  0
VERTEX
  5
460
330
459
100
AcDbEntity
  8
レイヤー_1
 62
     7
100
AcDbVertex
100
AcDb2dVertex
 10
1.874475999999999
 20
-0.170532
 30
0.0
  0
VERTEX
  5
461
330
459
100
AcDbEntity
  8
レイヤー_1
 62
     7
100
AcDbVertex
100
AcDb2dVertex
 10
2.391240999999999
 20
1.119312
 30
0.0
  0
VERTEX
  5
462
330
459
100
AcDbEntity
  8
レイヤー_1
 62
     7
100
AcDbVertex
100
AcDb2dVertex
 10
2.805340999999998
 20
2.438610999999998
 30
0.0
  0
SEQEND
  5
463
330
459
100
AcDbEntity
  8
レイヤー_1
 62
     7
  0
POLYLINE
  5
464
330
438
100
AcDbEntity
  8
レイヤー_1
 62
     7
100
AcDb2dPolyline
 66
     1
 10
0.0
 20
0.0
 30
0.0
  0
VERTEX
  5
465
330
464
100
AcDbEntity
  8
レイヤー_1
 62
     7
100
AcDbVertex
100
AcDb2dVertex
 10
-4.143761
 20
-5.525589
 30
0.0
  0
VERTEX
  5
466
330
464
100
AcDbEntity
  8
レイヤー_1
 62
     7
100
AcDbVertex
100
AcDb2dVertex
 10
-4.326005999999998
 20
-5.746247
 30
0.0
  0
VERTEX
  5
467
330
464
100
AcDbEntity
  8
レイヤー_1
 62
     7
100
AcDbVertex
100
AcDb2dVertex
 10
-4.421435999999999
 20
-6.006695999999998
 30
0.0
  0
VERTEX
  5
468
330
464
100
AcDbEntity
  8
レイヤー_1
 62
     7
100
AcDbVertex
100
AcDb2dVertex
 10
-4.442105999999998
 20
-6.287472
 30
0.0
  0
VERTEX
  5
469
330
464
100
AcDbEntity
  8
レイヤー_1
 62
     7
100
AcDbVertex
100
AcDb2dVertex
 10
-4.36218
 20
-6.562735
 30
0.0
  0
VERTEX
  5
46A
330
464
100
AcDbEntity
  8
レイヤー_1
 62
     7
100
AcDbVertex
100
AcDb2dVertex
 10
-4.211973999999998
 20
-6.792177999999998
 30
0.0
  0
VERTEX
  5
46B
330
464
100
AcDbEntity
  8
レイヤー_1
 62
     7
100
AcDbVertex
100
AcDb2dVertex
 10
-3.998377999999998
 20
-6.968739
 30
0.0
  0
VERTEX
  5
46C
330
464
100
AcDbEntity
  8
レイヤー_1
 62
     7
100
AcDbVertex
100
AcDb2dVertex
 10
-3.730005
 20
-7.070713999999998
 30
0.0
  0
VERTEX
  5
46D
330
464
100
AcDbEntity
  8
レイヤー_1
 62
     7
100
AcDbVertex
100
AcDb2dVertex
 10
-3.455086
 20
-7.086388999999998
 30
0.0
  0
VERTEX
  5
46E
330
464
100
AcDbEntity
  8
レイヤー_1
 62
     7
100
AcDbVertex
100
AcDb2dVertex
 10
-3.186024
 20
-7.012664
 30
0.0
  0
VERTEX
  5
46F
330
464
100
AcDbEntity
  8
レイヤー_1
 62
     7
100
AcDbVertex
100
AcDb2dVertex
 10
-2.944867999999998
 20
-6.859357000000001
 30
0.0
  0
SEQEND
  5
470
330
464
100
AcDbEntity
  8
レイヤー_1
 62
     7
  0
POLYLINE
  5
471
330
438
100
AcDbEntity
  8
レイヤー_1
 62
     7
100
AcDb2dPolyline
 66
     1
 10
0.0
 20
0.0
 30
0.0
  0
VERTEX
  5
472
330
471
100
AcDbEntity
  8
レイヤー_1
 62
     7
100
AcDbVertex
100
AcDb2dVertex
 10
-4.143761
 20
-5.525589
 30
0.0
  0
VERTEX
  5
473
330
471
100
AcDbEntity
  8
レイヤー_1
 62
     7
100
AcDbVertex
100
AcDb2dVertex
 10
-3.250791999999998
 20
-4.658458
 30
0.0
  0
VERTEX
  5
474
330
471
100
AcDbEntity
  8
レイヤー_1
 62
     7
100
AcDbVertex
100
AcDb2dVertex
 10
-2.414322999999999
 20
-3.736033999999998
 30
0.0
  0
VERTEX
  5
475
330
471
100
AcDbEntity
  8
レイヤー_1
 62
     7
100
AcDbVertex
100
AcDb2dVertex
 10
-1.654334999999998
 20
-2.759349
 30
0.0
  0
VERTEX
  5
476
330
471
100
AcDbEntity
  8
レイヤー_1
 62
     7
100
AcDbVertex
100
AcDb2dVertex
 10
-0.9591149999999998
 20
-1.724958999999999
 30
0.0
  0
VERTEX
  5
477
330
471
100
AcDbEntity
  8
レイヤー_1
 62
     7
100
AcDbVertex
100
AcDb2dVertex
 10
-0.33693
 20
-0.6473330000000001
 30
0.0
  0
VERTEX
  5
478
330
471
100
AcDbEntity
  8
レイヤー_1
 62
     7
100
AcDbVertex
100
AcDb2dVertex
 10
0.212218
 20
0.473184
 30
0.0
  0
VERTEX
  5
479
330
471
100
AcDbEntity
  8
レイヤー_1
 62
     7
100
AcDbVertex
100
AcDb2dVertex
 10
0.67455
 20
1.631769
 30
0.0
  0
VERTEX
  5
47A
330
471
100
AcDbEntity
  8
レイヤー_1
 62
     7
100
AcDbVertex
100
AcDb2dVertex
 10
1.062122999999999
 20
2.812231
 30
0.0
  0
SEQEND
  5
47B
330
471
100
AcDbEntity
  8
レイヤー_1
 62
     7
  0
ENDBLK
  5
47C
330
438
100
AcDbEntity
  8
レイヤー_1
100
AcDbBlockEnd
  0
BLOCK
  5
47E
330
47D
100
AcDbEntity
  8
レイヤー_1
 62
     7
100
AcDbBlockBegin
  2
AI9-BLK8
 70
     0
 10
0.0
 20
0.0
 30
0.0
  3
AI9-BLK8
  1

  0
LINE
  5
47F
330
47D
100
AcDbEntity
  8
レイヤー_1
 62
     7
100
AcDbLine
 10
2.092550999999998
 20
-3.038659999999998
 30
0.0
 11
1.71428
 21
-2.929968
 31
0.0
  0
LINE
  5
480
330
47D
100
AcDbEntity
  8
レイヤー_1
 62
     7
100
AcDbLine
 10
1.71428
 20
-2.929968
 30
0.0
 11
1.566829
 21
-2.524996999999999
 31
0.0
  0
LINE
  5
481
330
47D
100
AcDbEntity
  8
レイヤー_1
 62
     7
100
AcDbLine
 10
0.923975
 20
-4.387932
 30
0.0
 11
0.795473
 21
-3.995191
 31
0.0
  0
LINE
  5
482
330
47D
100
AcDbEntity
  8
レイヤー_1
 62
     7
100
AcDbLine
 10
0.795473
 20
-3.995191
 30
0.0
 11
0.371726
 21
-3.847741
 31
0.0
  0
POLYLINE
  5
483
330
47D
100
AcDbEntity
  8
レイヤー_1
 62
     7
100
AcDb2dPolyline
 66
     1
 10
0.0
 20
0.0
 30
0.0
  0
VERTEX
  5
484
330
483
100
AcDbEntity
  8
レイヤー_1
 62
     7
100
AcDbVertex
100
AcDb2dVertex
 10
0.923975
 20
-4.387932
 30
0.0
  0
VERTEX
  5
485
330
483
100
AcDbEntity
  8
レイヤー_1
 62
     7
100
AcDbVertex
100
AcDb2dVertex
 10
0.8619629999999999
 20
-4.827525999999998
 30
0.0
  0
VERTEX
  5
486
330
483
100
AcDbEntity
  8
レイヤー_1
 62
     7
100
AcDbVertex
100
AcDb2dVertex
 10
0.901237
 20
-5.271943
 30
0.0
  0
VERTEX
  5
487
330
483
100
AcDbEntity
  8
レイヤー_1
 62
     7
100
AcDbVertex
100
AcDb2dVertex
 10
1.035595999999998
 20
-5.694829
 30
0.0
  0
VERTEX
  5
488
330
483
100
AcDbEntity
  8
レイヤー_1
 62
     7
100
AcDbVertex
100
AcDb2dVertex
 10
1.265727999999998
 20
-6.073444999999998
 30
0.0
  0
VERTEX
  5
489
330
483
100
AcDbEntity
  8
レイヤー_1
 62
     7
100
AcDbVertex
100
AcDb2dVertex
 10
1.568206999999999
 20
-6.390220999999998
 30
0.0
  0
VERTEX
  5
48A
330
483
100
AcDbEntity
  8
レイヤー_1
 62
     7
100
AcDbVertex
100
AcDb2dVertex
 10
1.928908999999999
 20
-6.637752
 30
0.0
  0
VERTEX
  5
48B
330
483
100
AcDbEntity
  8
レイヤー_1
 62
     7
100
AcDbVertex
100
AcDb2dVertex
 10
2.347833
 20
-6.799153999999998
 30
0.0
  0
VERTEX
  5
48C
330
483
100
AcDbEntity
  8
レイヤー_1
 62
     7
100
AcDbVertex
100
AcDb2dVertex
 10
2.787081999999998
 20
-6.860477
 30
0.0
  0
VERTEX
  5
48D
330
483
100
AcDbEntity
  8
レイヤー_1
 62
     7
100
AcDbVertex
100
AcDb2dVertex
 10
3.224609
 20
-6.826714999999999
 30
0.0
  0
VERTEX
  5
48E
330
483
100
AcDbEntity
  8
レイヤー_1
 62
     7
100
AcDbVertex
100
AcDb2dVertex
 10
3.650423
 20
-6.700452
 30
0.0
  0
VERTEX
  5
48F
330
483
100
AcDbEntity
  8
レイヤー_1
 62
     7
100
AcDbVertex
100
AcDb2dVertex
 10
4.034207
 20
-6.47876
 30
0.0
  0
VERTEX
  5
490
330
483
100
AcDbEntity
  8
レイヤー_1
 62
     7
100
AcDbVertex
100
AcDb2dVertex
 10
4.358735
 20
-6.171801999999998
 30
0.0
  0
VERTEX
  5
491
330
483
100
AcDbEntity
  8
レイヤー_1
 62
     7
100
AcDbVertex
100
AcDb2dVertex
 10
4.605748
 20
-5.810412
 30
0.0
  0
VERTEX
  5
492
330
483
100
AcDbEntity
  8
レイヤー_1
 62
     7
100
AcDbVertex
100
AcDb2dVertex
 10
4.771112999999998
 20
-5.400273
 30
0.0
  0
VERTEX
  5
493
330
483
100
AcDbEntity
  8
レイヤー_1
 62
     7
100
AcDbVertex
100
AcDb2dVertex
 10
4.833123999999998
 20
-4.961024
 30
0.0
  0
VERTEX
  5
494
330
483
100
AcDbEntity
  8
レイヤー_1
 62
     7
100
AcDbVertex
100
AcDb2dVertex
 10
4.807630999999998
 20
-4.519879
 30
0.0
  0
VERTEX
  5
495
330
483
100
AcDbEntity
  8
レイヤー_1
 62
     7
100
AcDbVertex
100
AcDb2dVertex
 10
4.680162
 20
-4.091826
 30
0.0
  0
VERTEX
  5
496
330
483
100
AcDbEntity
  8
レイヤー_1
 62
     7
100
AcDbVertex
100
AcDb2dVertex
 10
4.458643
 20
-3.708215
 30
0.0
  0
VERTEX
  5
497
330
483
100
AcDbEntity
  8
レイヤー_1
 62
     7
100
AcDbVertex
100
AcDb2dVertex
 10
4.164430999999998
 20
-3.387992999999998
 30
0.0
  0
VERTEX
  5
498
330
483
100
AcDbEntity
  8
レイヤー_1
 62
     7
100
AcDbVertex
100
AcDb2dVertex
 10
3.79994
 20
-3.131333
 30
0.0
  0
VERTEX
  5
499
330
483
100
AcDbEntity
  8
レイヤー_1
 62
     7
100
AcDbVertex
100
AcDb2dVertex
 10
3.395830999999998
 20
-2.960801
 30
0.0
  0
VERTEX
  5
49A
330
483
100
AcDbEntity
  8
レイヤー_1
 62
     7
100
AcDbVertex
100
AcDb2dVertex
 10
2.952447
 20
-2.889832
 30
0.0
  0
VERTEX
  5
49B
330
483
100
AcDbEntity
  8
レイヤー_1
 62
     7
100
AcDbVertex
100
AcDb2dVertex
 10
2.51113
 20
-2.916704
 30
0.0
  0
VERTEX
  5
49C
330
483
100
AcDbEntity
  8
レイヤー_1
 62
     7
100
AcDbVertex
100
AcDb2dVertex
 10
2.092550999999998
 20
-3.038659999999998
 30
0.0
  0
SEQEND
  5
49D
330
483
100
AcDbEntity
  8
レイヤー_1
 62
     7
  0
POLYLINE
  5
49E
330
47D
100
AcDbEntity
  8
レイヤー_1
 62
     7
100
AcDb2dPolyline
 66
     1
 10
0.0
 20
0.0
 30
0.0
  0
VERTEX
  5
49F
330
49E
100
AcDbEntity
  8
レイヤー_1
 62
     7
100
AcDbVertex
100
AcDb2dVertex
 10
-4.805563999999998
 20
5.780955999999998
 30
0.0
  0
VERTEX
  5
4A0
330
49E
100
AcDbEntity
  8
レイヤー_1
 62
     7
100
AcDbVertex
100
AcDb2dVertex
 10
-4.467255
 20
4.440985999999998
 30
0.0
  0
VERTEX
  5
4A1
330
49E
100
AcDbEntity
  8
レイヤー_1
 62
     7
100
AcDbVertex
100
AcDb2dVertex
 10
-4.032829
 20
3.123753999999998
 30
0.0
  0
VERTEX
  5
4A2
330
49E
100
AcDbEntity
  8
レイヤー_1
 62
     7
100
AcDbVertex
100
AcDb2dVertex
 10
-3.512963999999998
 20
1.846484999999999
 30
0.0
  0
VERTEX
  5
4A3
330
49E
100
AcDbEntity
  8
レイヤー_1
 62
     7
100
AcDbVertex
100
AcDb2dVertex
 10
-2.901115
 20
0.59936
 30
0.0
  0
VERTEX
  5
4A4
330
49E
100
AcDbEntity
  8
レイヤー_1
 62
     7
100
AcDbVertex
100
AcDb2dVertex
 10
-2.200381999999998
 20
-0.5971210000000001
 30
0.0
  0
VERTEX
  5
4A5
330
49E
100
AcDbEntity
  8
レイヤー_1
 62
     7
100
AcDbVertex
100
AcDb2dVertex
 10
-1.42248
 20
-1.736931
 30
0.0
  0
VERTEX
  5
4A6
330
49E
100
AcDbEntity
  8
レイヤー_1
 62
     7
100
AcDbVertex
100
AcDb2dVertex
 10
-0.563962
 20
-2.829543
 30
0.0
  0
VERTEX
  5
4A7
330
49E
100
AcDbEntity
  8
レイヤー_1
 62
     7
100
AcDbVertex
100
AcDb2dVertex
 10
0.371726
 20
-3.847741
 30
0.0
  0
SEQEND
  5
4A8
330
49E
100
AcDbEntity
  8
レイヤー_1
 62
     7
  0
POLYLINE
  5
4A9
330
47D
100
AcDbEntity
  8
レイヤー_1
 62
     7
100
AcDb2dPolyline
 66
     1
 10
0.0
 20
0.0
 30
0.0
  0
VERTEX
  5
4AA
330
4A9
100
AcDbEntity
  8
レイヤー_1
 62
     7
100
AcDbVertex
100
AcDb2dVertex
 10
-3.050977
 20
6.152337999999998
 30
0.0
  0
VERTEX
  5
4AB
330
4A9
100
AcDbEntity
  8
レイヤー_1
 62
     7
100
AcDbVertex
100
AcDb2dVertex
 10
-3.150884
 20
6.420710999999998
 30
0.0
  0
VERTEX
  5
4AC
330
4A9
100
AcDbEntity
  8
レイヤー_1
 62
     7
100
AcDbVertex
100
AcDb2dVertex
 10
-3.328651
 20
6.633617
 30
0.0
  0
VERTEX
  5
4AD
330
4A9
100
AcDbEntity
  8
レイヤー_1
 62
     7
100
AcDbVertex
100
AcDb2dVertex
 10
-3.561539999999998
 20
6.791919999999998
 30
0.0
  0
VERTEX
  5
4AE
330
4A9
100
AcDbEntity
  8
レイヤー_1
 62
     7
100
AcDbVertex
100
AcDb2dVertex
 10
-3.839902999999998
 20
6.860305
 30
0.0
  0
VERTEX
  5
4AF
330
4A9
100
AcDbEntity
  8
レイヤー_1
 62
     7
100
AcDbVertex
100
AcDb2dVertex
 10
-4.113788999999998
 20
6.844974
 30
0.0
  0
VERTEX
  5
4B0
330
4A9
100
AcDbEntity
  8
レイヤー_1
 62
     7
100
AcDbVertex
100
AcDb2dVertex
 10
-4.373548999999998
 20
6.748166999999998
 30
0.0
  0
VERTEX
  5
4B1
330
4A9
100
AcDbEntity
  8
レイヤー_1
 62
     7
100
AcDbVertex
100
AcDb2dVertex
 10
-4.596101999999999
 20
6.56661
 30
0.0
  0
VERTEX
  5
4B2
330
4A9
100
AcDbEntity
  8
レイヤー_1
 62
     7
100
AcDbVertex
100
AcDb2dVertex
 10
-4.746997
 20
6.336649999999998
 30
0.0
  0
VERTEX
  5
4B3
330
4A9
100
AcDbEntity
  8
レイヤー_1
 62
     7
100
AcDbVertex
100
AcDb2dVertex
 10
-4.817622
 20
6.066555
 30
0.0
  0
VERTEX
  5
4B4
330
4A9
100
AcDbEntity
  8
レイヤー_1
 62
     7
100
AcDbVertex
100
AcDb2dVertex
 10
-4.805563999999998
 20
5.780955999999998
 30
0.0
  0
SEQEND
  5
4B5
330
4A9
100
AcDbEntity
  8
レイヤー_1
 62
     7
  0
POLYLINE
  5
4B6
330
47D
100
AcDbEntity
  8
レイヤー_1
 62
     7
100
AcDb2dPolyline
 66
     1
 10
0.0
 20
0.0
 30
0.0
  0
VERTEX
  5
4B7
330
4B6
100
AcDbEntity
  8
レイヤー_1
 62
     7
100
AcDbVertex
100
AcDb2dVertex
 10
-3.050977
 20
6.152337999999998
 30
0.0
  0
VERTEX
  5
4B8
330
4B6
100
AcDbEntity
  8
レイヤー_1
 62
     7
100
AcDbVertex
100
AcDb2dVertex
 10
-2.74643
 20
4.945693
 30
0.0
  0
VERTEX
  5
4B9
330
4B6
100
AcDbEntity
  8
レイヤー_1
 62
     7
100
AcDbVertex
100
AcDb2dVertex
 10
-2.365747
 20
3.760062999999998
 30
0.0
  0
VERTEX
  5
4BA
330
4B6
100
AcDbEntity
  8
レイヤー_1
 62
     7
100
AcDbVertex
100
AcDb2dVertex
 10
-1.89997
 20
2.613535999999998
 30
0.0
  0
VERTEX
  5
4BB
330
4B6
100
AcDbEntity
  8
レイヤー_1
 62
     7
100
AcDbVertex
100
AcDb2dVertex
 10
-1.351855
 20
1.494051999999999
 30
0.0
  0
VERTEX
  5
4BC
330
4B6
100
AcDbEntity
  8
レイヤー_1
 62
     7
100
AcDbVertex
100
AcDb2dVertex
 10
-0.729671
 20
0.4164260000000001
 30
0.0
  0
VERTEX
  5
4BD
330
4B6
100
AcDbEntity
  8
レイヤー_1
 62
     7
100
AcDbVertex
100
AcDb2dVertex
 10
-0.033762
 20
-0.61917
 30
0.0
  0
VERTEX
  5
4BE
330
4B6
100
AcDbEntity
  8
レイヤー_1
 62
     7
100
AcDbVertex
100
AcDb2dVertex
 10
0.7382840000000001
 20
-1.599127
 30
0.0
  0
VERTEX
  5
4BF
330
4B6
100
AcDbEntity
  8
レイヤー_1
 62
     7
100
AcDbVertex
100
AcDb2dVertex
 10
1.566829
 20
-2.524996999999999
 30
0.0
  0
SEQEND
  5
4C0
330
4B6
100
AcDbEntity
  8
レイヤー_1
 62
     7
  0
ENDBLK
  5
4C1
330
47D
100
AcDbEntity
  8
レイヤー_1
100
AcDbBlockEnd
  0
BLOCK
  5
4C3
330
4C2
100
AcDbEntity
  8
レイヤー_1
 62
     7
100
AcDbBlockBegin
  2
AI9-BLK9
 70
     0
 10
0.0
 20
0.0
 30
0.0
  3
AI9-BLK9
  1

  0
LINE
  5
4C4
330
4C2
100
AcDbEntity
  8
レイヤー_1
 62
     7
100
AcDbLine
 10
-3.880211
 20
-0.395755
 30
0.0
 11
-3.597023999999998
 21
-0.122387
 31
0.0
  0
LINE
  5
4C5
330
4C2
100
AcDbEntity
  8
レイヤー_1
 62
     7
100
AcDbLine
 10
-3.597023999999998
 20
-0.122387
 30
0.0
 11
-3.172588
 21
-0.197318
 31
0.0
  0
LINE
  5
4C6
330
4C2
100
AcDbEntity
  8
レイヤー_1
 62
     7
100
AcDbLine
 10
-4.464498999999999
 20
1.290962999999998
 30
0.0
 11
-4.060044999999998
 21
1.206042
 31
0.0
  0
LINE
  5
4C7
330
4C2
100
AcDbEntity
  8
レイヤー_1
 62
     7
100
AcDbLine
 10
-4.060044999999998
 20
1.206042
 30
0.0
 11
-3.720358999999998
 21
1.499219
 31
0.0
  0
POLYLINE
  5
4C8
330
4C2
100
AcDbEntity
  8
レイヤー_1
 62
     7
100
AcDb2dPolyline
 66
     1
 10
0.0
 20
0.0
 30
0.0
  0
VERTEX
  5
4C9
330
4C8
100
AcDbEntity
  8
レイヤー_1
 62
     7
100
AcDbVertex
100
AcDb2dVertex
 10
-4.464498999999999
 20
1.290962999999998
 30
0.0
  0
VERTEX
  5
4CA
330
4C8
100
AcDbEntity
  8
レイヤー_1
 62
     7
100
AcDbVertex
100
AcDb2dVertex
 10
-4.814175999999998
 20
1.564332
 30
0.0
  0
VERTEX
  5
4CB
330
4C8
100
AcDbEntity
  8
レイヤー_1
 62
     7
100
AcDbVertex
100
AcDb2dVertex
 10
-5.218630999999998
 20
1.752777999999999
 30
0.0
  0
VERTEX
  5
4CC
330
4C8
100
AcDbEntity
  8
レイヤー_1
 62
     7
100
AcDbVertex
100
AcDb2dVertex
 10
-5.652023999999999
 20
1.847691
 30
0.0
  0
VERTEX
  5
4CD
330
4C8
100
AcDbEntity
  8
レイヤー_1
 62
     7
100
AcDbVertex
100
AcDb2dVertex
 10
-6.095062999999998
 20
1.837699999999999
 30
0.0
  0
VERTEX
  5
4CE
330
4C8
100
AcDbEntity
  8
レイヤー_1
 62
     7
100
AcDbVertex
100
AcDb2dVertex
 10
-6.520532
 20
1.734175
 30
0.0
  0
VERTEX
  5
4CF
330
4C8
100
AcDbEntity
  8
レイヤー_1
 62
     7
100
AcDbVertex
100
AcDb2dVertex
 10
-6.915339999999998
 20
1.545555999999999
 30
0.0
  0
VERTEX
  5
4D0
330
4C8
100
AcDbEntity
  8
レイヤー_1
 62
     7
100
AcDbVertex
100
AcDb2dVertex
 10
-7.264672999999998
 20
1.263403
 30
0.0
  0
VERTEX
  5
4D1
330
4C8
100
AcDbEntity
  8
レイヤー_1
 62
     7
100
AcDbVertex
100
AcDb2dVertex
 10
-7.53718
 20
0.913898
 30
0.0
  0
VERTEX
  5
4D2
330
4C8
100
AcDbEntity
  8
レイヤー_1
 62
     7
100
AcDbVertex
100
AcDb2dVertex
 10
-7.72666
 20
0.5180560000000001
 30
0.0
  0
VERTEX
  5
4D3
330
4C8
100
AcDbEntity
  8
レイヤー_1
 62
     7
100
AcDbVertex
100
AcDb2dVertex
 10
-7.830358
 20
0.086041
 30
0.0
  0
VERTEX
  5
4D4
330
4C8
100
AcDbEntity
  8
レイヤー_1
 62
     7
100
AcDbVertex
100
AcDb2dVertex
 10
-7.830358
 20
-0.35717
 30
0.0
  0
VERTEX
  5
4D5
330
4C8
100
AcDbEntity
  8
レイヤー_1
 62
     7
100
AcDbVertex
100
AcDb2dVertex
 10
-7.72666
 20
-0.791597
 30
0.0
  0
VERTEX
  5
4D6
330
4C8
100
AcDbEntity
  8
レイヤー_1
 62
     7
100
AcDbVertex
100
AcDb2dVertex
 10
-7.53718
 20
-1.186233
 30
0.0
  0
VERTEX
  5
4D7
330
4C8
100
AcDbEntity
  8
レイヤー_1
 62
     7
100
AcDbVertex
100
AcDb2dVertex
 10
-7.264672999999998
 20
-1.534532
 30
0.0
  0
VERTEX
  5
4D8
330
4C8
100
AcDbEntity
  8
レイヤー_1
 62
     7
100
AcDbVertex
100
AcDb2dVertex
 10
-6.915339999999998
 20
-1.808072
 30
0.0
  0
VERTEX
  5
4D9
330
4C8
100
AcDbEntity
  8
レイヤー_1
 62
     7
100
AcDbVertex
100
AcDb2dVertex
 10
-6.520532
 20
-2.00651
 30
0.0
  0
VERTEX
  5
4DA
330
4C8
100
AcDbEntity
  8
レイヤー_1
 62
     7
100
AcDbVertex
100
AcDb2dVertex
 10
-6.086106
 20
-2.110034999999998
 30
0.0
  0
VERTEX
  5
4DB
330
4C8
100
AcDbEntity
  8
レイヤー_1
 62
     7
100
AcDbVertex
100
AcDb2dVertex
 10
-5.643066
 20
-2.110034999999998
 30
0.0
  0
VERTEX
  5
4DC
330
4C8
100
AcDbEntity
  8
レイヤー_1
 62
     7
100
AcDbVertex
100
AcDb2dVertex
 10
-5.218630999999998
 20
-2.015295
 30
0.0
  0
VERTEX
  5
4DD
330
4C8
100
AcDbEntity
  8
レイヤー_1
 62
     7
100
AcDbVertex
100
AcDb2dVertex
 10
-4.814175999999998
 20
-1.827881999999999
 30
0.0
  0
VERTEX
  5
4DE
330
4C8
100
AcDbEntity
  8
レイヤー_1
 62
     7
100
AcDbVertex
100
AcDb2dVertex
 10
-4.464498999999999
 20
-1.563297999999999
 30
0.0
  0
VERTEX
  5
4DF
330
4C8
100
AcDbEntity
  8
レイヤー_1
 62
     7
100
AcDbVertex
100
AcDb2dVertex
 10
-4.181312
 20
-1.214827
 30
0.0
  0
VERTEX
  5
4E0
330
4C8
100
AcDbEntity
  8
レイヤー_1
 62
     7
100
AcDbVertex
100
AcDb2dVertex
 10
-3.983907999999998
 20
-0.819158
 30
0.0
  0
VERTEX
  5
4E1
330
4C8
100
AcDbEntity
  8
レイヤー_1
 62
     7
100
AcDbVertex
100
AcDb2dVertex
 10
-3.880211
 20
-0.395755
 30
0.0
  0
SEQEND
  5
4E2
330
4C8
100
AcDbEntity
  8
レイヤー_1
 62
     7
  0
POLYLINE
  5
4E3
330
4C2
100
AcDbEntity
  8
レイヤー_1
 62
     7
100
AcDb2dPolyline
 66
     1
 10
0.0
 20
0.0
 30
0.0
  0
VERTEX
  5
4E4
330
4E3
100
AcDbEntity
  8
レイヤー_1
 62
     7
100
AcDbVertex
100
AcDb2dVertex
 10
7.206794999999998
 20
1.16849
 30
0.0
  0
VERTEX
  5
4E5
330
4E3
100
AcDbEntity
  8
レイヤー_1
 62
     7
100
AcDbVertex
100
AcDb2dVertex
 10
5.877333
 20
1.545555999999999
 30
0.0
  0
VERTEX
  5
4E6
330
4E3
100
AcDbEntity
  8
レイヤー_1
 62
     7
100
AcDbVertex
100
AcDb2dVertex
 10
4.519276
 20
1.827881999999999
 30
0.0
  0
VERTEX
  5
4E7
330
4E3
100
AcDbEntity
  8
レイヤー_1
 62
     7
100
AcDbVertex
100
AcDb2dVertex
 10
3.153296
 20
2.016327999999999
 30
0.0
  0
VERTEX
  5
4E8
330
4E3
100
AcDbEntity
  8
レイヤー_1
 62
     7
100
AcDbVertex
100
AcDb2dVertex
 10
1.767333999999999
 20
2.110034999999998
 30
0.0
  0
VERTEX
  5
4E9
330
4E3
100
AcDbEntity
  8
レイヤー_1
 62
     7
100
AcDbVertex
100
AcDb2dVertex
 10
0.380683
 20
2.101249999999998
 30
0.0
  0
VERTEX
  5
4EA
330
4E3
100
AcDbEntity
  8
レイヤー_1
 62
     7
100
AcDbVertex
100
AcDb2dVertex
 10
-0.995288
 20
1.997551999999999
 30
0.0
  0
VERTEX
  5
4EB
330
4E3
100
AcDbEntity
  8
レイヤー_1
 62
     7
100
AcDbVertex
100
AcDb2dVertex
 10
-2.370915
 20
1.800320999999999
 30
0.0
  0
VERTEX
  5
4EC
330
4E3
100
AcDbEntity
  8
レイヤー_1
 62
     7
100
AcDbVertex
100
AcDb2dVertex
 10
-3.720358999999998
 20
1.499219
 30
0.0
  0
SEQEND
  5
4ED
330
4E3
100
AcDbEntity
  8
レイヤー_1
 62
     7
  0
POLYLINE
  5
4EE
330
4C2
100
AcDbEntity
  8
レイヤー_1
 62
     7
100
AcDb2dPolyline
 66
     1
 10
0.0
 20
0.0
 30
0.0
  0
VERTEX
  5
4EF
330
4EE
100
AcDbEntity
  8
レイヤー_1
 62
     7
100
AcDbVertex
100
AcDb2dVertex
 10
6.651100999999998
 20
-0.536832
 30
0.0
  0
VERTEX
  5
4F0
330
4EE
100
AcDbEntity
  8
レイヤー_1
 62
     7
100
AcDbVertex
100
AcDb2dVertex
 10
6.933599
 20
-0.584374
 30
0.0
  0
VERTEX
  5
4F1
330
4EE
100
AcDbEntity
  8
レイヤー_1
 62
     7
100
AcDbVertex
100
AcDb2dVertex
 10
7.206794999999998
 20
-0.536832
 30
0.0
  0
VERTEX
  5
4F2
330
4EE
100
AcDbEntity
  8
レイヤー_1
 62
     7
100
AcDbVertex
100
AcDb2dVertex
 10
7.460353999999998
 20
-0.4145310000000002
 30
0.0
  0
VERTEX
  5
4F3
330
4EE
100
AcDbEntity
  8
レイヤー_1
 62
     7
100
AcDbVertex
100
AcDb2dVertex
 10
7.658792
 20
-0.207309
 30
0.0
  0
VERTEX
  5
4F4
330
4EE
100
AcDbEntity
  8
レイヤー_1
 62
     7
100
AcDbVertex
100
AcDb2dVertex
 10
7.782471000000001
 20
0.037465
 30
0.0
  0
VERTEX
  5
4F5
330
4EE
100
AcDbEntity
  8
レイヤー_1
 62
     7
100
AcDbVertex
100
AcDb2dVertex
 10
7.828635
 20
0.310834
 30
0.0
  0
VERTEX
  5
4F6
330
4EE
100
AcDbEntity
  8
レイヤー_1
 62
     7
100
AcDbVertex
100
AcDb2dVertex
 10
7.782471000000001
 20
0.5941930000000001
 30
0.0
  0
VERTEX
  5
4F7
330
4EE
100
AcDbEntity
  8
レイヤー_1
 62
     7
100
AcDbVertex
100
AcDb2dVertex
 10
7.658792
 20
0.84
 30
0.0
  0
VERTEX
  5
4F8
330
4EE
100
AcDbEntity
  8
レイヤー_1
 62
     7
100
AcDbVertex
100
AcDb2dVertex
 10
7.460353999999998
 20
1.036198999999998
 30
0.0
  0
VERTEX
  5
4F9
330
4EE
100
AcDbEntity
  8
レイヤー_1
 62
     7
100
AcDbVertex
100
AcDb2dVertex
 10
7.206794999999998
 20
1.16849
 30
0.0
  0
SEQEND
  5
4FA
330
4EE
100
AcDbEntity
  8
レイヤー_1
 62
     7
  0
POLYLINE
  5
4FB
330
4C2
100
AcDbEntity
  8
レイヤー_1
 62
     7
100
AcDb2dPolyline
 66
     1
 10
0.0
 20
0.0
 30
0.0
  0
VERTEX
  5
4FC
330
4FB
100
AcDbEntity
  8
レイヤー_1
 62
     7
100
AcDbVertex
100
AcDb2dVertex
 10
6.651100999999998
 20
-0.536832
 30
0.0
  0
VERTEX
  5
4FD
330
4FB
100
AcDbEntity
  8
レイヤー_1
 62
     7
100
AcDbVertex
100
AcDb2dVertex
 10
5.453930999999998
 20
-0.197318
 30
0.0
  0
VERTEX
  5
4FE
330
4FB
100
AcDbEntity
  8
レイヤー_1
 62
     7
100
AcDbVertex
100
AcDb2dVertex
 10
4.236778
 20
0.06606
 30
0.0
  0
VERTEX
  5
4FF
330
4FB
100
AcDbEntity
  8
レイヤー_1
 62
     7
100
AcDbVertex
100
AcDb2dVertex
 10
3.011013
 20
0.235903
 30
0.0
  0
VERTEX
  5
500
330
4FB
100
AcDbEntity
  8
レイヤー_1
 62
     7
100
AcDbVertex
100
AcDb2dVertex
 10
1.767333999999999
 20
0.320825
 30
0.0
  0
VERTEX
  5
501
330
4FB
100
AcDbEntity
  8
レイヤー_1
 62
     7
100
AcDbVertex
100
AcDb2dVertex
 10
0.5229650000000002
 20
0.320825
 30
0.0
  0
VERTEX
  5
502
330
4FB
100
AcDbEntity
  8
レイヤー_1
 62
     7
100
AcDbVertex
100
AcDb2dVertex
 10
-0.721748
 20
0.235903
 30
0.0
  0
VERTEX
  5
503
330
4FB
100
AcDbEntity
  8
レイヤー_1
 62
     7
100
AcDbVertex
100
AcDb2dVertex
 10
-1.95647
 20
0.057275
 30
0.0
  0
VERTEX
  5
504
330
4FB
100
AcDbEntity
  8
レイヤー_1
 62
     7
100
AcDbVertex
100
AcDb2dVertex
 10
-3.172588
 20
-0.197318
 30
0.0
  0
SEQEND
  5
505
330
4FB
100
AcDbEntity
  8
レイヤー_1
 62
     7
  0
ENDBLK
  5
506
330
4C2
100
AcDbEntity
  8
レイヤー_1
100
AcDbBlockEnd
  0
BLOCK
  5
508
330
507
100
AcDbEntity
  8
レイヤー_1
 62
     7
100
AcDbBlockBegin
  2
AI9-BLK10
 70
     0
 10
0.0
 20
0.0
 30
0.0
  3
AI9-BLK10
  1

  0
INSERT
  5
509
330
507
100
AcDbEntity
  8
レイヤー_1
 62
     7
100
AcDbBlockReference
  2
AI9-BLK12
 10
0.0
 20
0.0
 30
0.0
  0
INSERT
  5
50A
330
507
100
AcDbEntity
  8
レイヤー_1
 62
     7
100
AcDbBlockReference
  2
AI9-BLK11
 10
0.0
 20
0.0
 30
0.0
  0
ENDBLK
  5
50B
330
507
100
AcDbEntity
  8
レイヤー_1
100
AcDbBlockEnd
  0
BLOCK
  5
50D
330
50C
100
AcDbEntity
  8
レイヤー_1
 62
     7
100
AcDbBlockBegin
  2
AI9-BLK11
 70
     0
 10
0.0
 20
0.0
 30
0.0
  3
AI9-BLK11
  1

  0
LINE
  5
50E
330
50C
100
AcDbEntity
  8
レイヤー_1
 62
     7
100
AcDbLine
 10
0.0
 20
-5.772774
 30
0.0
 11
0.0
 21
5.772774
 31
0.0
  0
HATCH
  5
50F
330
50C
100
AcDbEntity
  8
レイヤー_1
 62
     7
100
AcDbHatch
 10
0.0
 20
0.0
 30
0.0
210
0.0
220
0.0
230
1.0
  2
SOLID
 70
     1
 71
     0
 91
        1
 92
        1
 93
        1
 72
     4
 94
        3
 73
     0
 74
     0
 95
       20
 96
       16
 40
0.0
 40
0.0
 40
0.0
 40
0.0
 40
1.0
 40
1.0
 40
1.0
 40
2.0
 40
2.0
 40
2.0
 40
3.0
 40
3.0
 40
3.0
 40
4.0
 40
4.0
 40
4.0
 40
5.0
 40
5.0
 40
5.0
 40
5.0
 10
-0.1667426215277778
 20
6.157246907552082
 10
-0.248046875
 20
5.888184950086803
 10
-0.3228054470486111
 20
5.71317409939236
 10
-0.4096218532986111
 20
5.497338867187498
 10
-0.4096218532986111
 20
5.497338867187498
 10
0.4116889105902777
 20
5.497338867187498
 10
0.4116889105902777
 20
5.497338867187498
 10
0.3748263888888889
 20
5.574509006076387
 10
0.2497694227430555
 20
5.888184950086803
 10
0.1688096788194444
 20
6.157246907552082
 10
0.0816487630208333
 20
6.445256890190972
 10
0.0223931206597222
 20
6.706567382812498
 10
0.0010335286458333
 20
6.87589382595486
 10
-0.0203260633680556
 20
6.706567382812498
 10
-0.0795817057291667
 20
6.445256890190972
 10
-0.1667426215277778
 20
6.157246907552082
 97
        0
 75
     0
 76
     1
 98
        1
 10
0.0
 20
0.0
  0
HATCH
  5
510
330
50C
100
AcDbEntity
  8
レイヤー_1
 62
     7
100
AcDbHatch
 10
0.0
 20
0.0
 30
0.0
210
0.0
220
0.0
230
1.0
  2
SOLID
 70
     1
 71
     0
 91
        1
 92
        1
 93
        1
 72
     4
 94
        3
 73
     0
 74
     0
 95
       20
 96
       16
 40
0.0
 40
0.0
 40
0.0
 40
0.0
 40
1.0
 40
1.0
 40
1.0
 40
2.0
 40
2.0
 40
2.0
 40
3.0
 40
3.0
 40
3.0
 40
4.0
 40
4.0
 40
4.0
 40
5.0
 40
5.0
 40
5.0
 40
5.0
 10
0.1667426215277778
 20
-6.157246907552082
 10
0.248046875
 20
-5.888184950086803
 10
0.3228054470486111
 20
-5.71317409939236
 10
0.4096218532986111
 20
-5.497338867187498
 10
0.4096218532986111
 20
-5.497338867187498
 10
-0.4116889105902777
 20
-5.497338867187498
 10
-0.4116889105902777
 20
-5.497338867187498
 10
-0.3748263888888889
 20
-5.574509006076387
 10
-0.2497694227430555
 20
-5.888184950086803
 10
-0.1688096788194444
 20
-6.157246907552082
 10
-0.0816487630208333
 20
-6.445256890190972
 10
-0.0223931206597222
 20
-6.706567382812498
 10
-0.0010335286458333
 20
-6.87589382595486
 10
0.0203260633680556
 20
-6.706567382812498
 10
0.0795817057291667
 20
-6.445256890190972
 10
0.1667426215277778
 20
-6.157246907552082
 97
        0
 75
     0
 76
     1
 98
        1
 10
0.0
 20
0.0
  0
ENDBLK
  5
511
330
50C
100
AcDbEntity
  8
レイヤー_1
100
AcDbBlockEnd
  0
BLOCK
  5
513
330
512
100
AcDbEntity
  8
レイヤー_1
 62
     7
100
AcDbBlockBegin
  2
AI9-BLK12
 70
     0
 10
0.0
 20
0.0
 30
0.0
  3
AI9-BLK12
  1

  0
SPLINE
  5
514
330
512
100
AcDbEntity
  8
レイヤー_1
 62
     7
100
AcDbSpline
210
0.0
220
0.0
230
1.0
 70
    11
 71
     3
 72
    20
 73
    16
 74
     0
 42
0.0000000001
 43
0.0000000001
 40
0.0
 40
0.0
 40
0.0
 40
0.0
 40
1.0
 40
1.0
 40
1.0
 40
2.0
 40
2.0
 40
2.0
 40
3.0
 40
3.0
 40
3.0
 40
4.0
 40
4.0
 40
4.0
 40
5.0
 40
5.0
 40
5.0
 40
5.0
 10
-0.3613905164930555
 20
6.605970594618057
 30
0.0
 10
-0.5374348958333333
 20
6.022715928819443
 30
0.0
 10
-0.6996988932291666
 20
5.643583170572916
 30
0.0
 10
-0.8878011067708332
 20
5.175739203559028
 30
0.0
 10
-0.8878011067708332
 20
5.175739203559028
 30
0.0
 10
0.8919352213541666
 20
5.175739203559028
 30
0.0
 10
0.8919352213541666
 20
5.175739203559028
 30
0.0
 10
0.812353515625
 20
5.343170844184027
 30
0.0
 10
0.5415690104166666
 20
6.022715928819443
 30
0.0
 10
0.365869140625
 20
6.605970594618057
 30
0.0
 10
0.1770779079861111
 20
7.230221896701387
 30
0.0
 10
0.0482313368055556
 20
7.796251085069441
 30
0.0
 10
0.0020670572916667
 20
8.163326009114582
 30
0.0
 10
-0.0440972222222222
 20
7.796251085069441
 30
0.0
 10
-0.1729437934027778
 20
7.230221896701387
 30
0.0
 10
-0.3613905164930555
 20
6.605970594618057
 30
0.0
  0
SPLINE
  5
515
330
512
100
AcDbEntity
  8
レイヤー_1
 62
     7
100
AcDbSpline
210
0.0
220
0.0
230
1.0
 70
    11
 71
     3
 72
    20
 73
    16
 74
     0
 42
0.0000000001
 43
0.0000000001
 40
0.0
 40
0.0
 40
0.0
 40
0.0
 40
1.0
 40
1.0
 40
1.0
 40
2.0
 40
2.0
 40
2.0
 40
3.0
 40
3.0
 40
3.0
 40
4.0
 40
4.0
 40
4.0
 40
5.0
 40
5.0
 40
5.0
 40
5.0
 10
0.3613905164930555
 20
-6.605970594618057
 30
0.0
 10
0.5374348958333333
 20
-6.022715928819443
 30
0.0
 10
0.6996988932291666
 20
-5.643583170572916
 30
0.0
 10
0.8878011067708332
 20
-5.175739203559028
 30
0.0
 10
0.8878011067708332
 20
-5.175739203559028
 30
0.0
 10
-0.8919352213541666
 20
-5.175739203559028
 30
0.0
 10
-0.8919352213541666
 20
-5.175739203559028
 30
0.0
 10
-0.812353515625
 20
-5.343170844184027
 30
0.0
 10
-0.5415690104166666
 20
-6.022715928819443
 30
0.0
 10
-0.365869140625
 20
-6.605970594618057
 30
0.0
 10
-0.1770779079861111
 20
-7.230221896701387
 30
0.0
 10
-0.0482313368055556
 20
-7.796251085069441
 30
0.0
 10
-0.0020670572916667
 20
-8.163326009114582
 30
0.0
 10
0.0440972222222222
 20
-7.796251085069441
 30
0.0
 10
0.1729437934027778
 20
-7.230221896701387
 30
0.0
 10
0.3613905164930555
 20
-6.605970594618057
 30
0.0
  0
ENDBLK
  5
516
330
512
100
AcDbEntity
  8
レイヤー_1
100
AcDbBlockEnd
  0
BLOCK
  5
518
330
517
100
AcDbEntity
  8
レイヤー_1
 62
     7
100
AcDbBlockBegin
  2
AI9-BLK13
 70
     0
 10
0.0
 20
0.0
 30
0.0
  3
AI9-BLK13
  1

  0
INSERT
  5
519
330
517
100
AcDbEntity
  8
レイヤー_1
 62
     7
100
AcDbBlockReference
  2
AI9-BLK15
 10
0.0
 20
0.0
 30
0.0
  0
INSERT
  5
51A
330
517
100
AcDbEntity
  8
レイヤー_1
 62
     7
100
AcDbBlockReference
  2
AI9-BLK14
 10
0.000172
 20
0.0
 30
0.0
  0
ENDBLK
  5
51B
330
517
100
AcDbEntity
  8
レイヤー_1
100
AcDbBlockEnd
  0
BLOCK
  5
51D
330
51C
100
AcDbEntity
  8
レイヤー_1
 62
     7
100
AcDbBlockBegin
  2
AI9-BLK14
 70
     0
 10
0.0
 20
0.0
 30
0.0
  3
AI9-BLK14
  1

  0
LINE
  5
51E
330
51C
100
AcDbEntity
  8
レイヤー_1
 62
     7
100
AcDbLine
 10
0.0
 20
-17.628381
 30
0.0
 11
0.0
 21
17.628381
 31
0.0
  0
HATCH
  5
51F
330
51C
100
AcDbEntity
  8
レイヤー_1
 62
     7
100
AcDbHatch
 10
0.0
 20
0.0
 30
0.0
210
0.0
220
0.0
230
1.0
  2
SOLID
 70
     1
 71
     0
 91
        1
 92
        1
 93
        1
 72
     4
 94
        3
 73
     0
 74
     0
 95
       20
 96
       16
 40
0.0
 40
0.0
 40
0.0
 40
0.0
 40
1.0
 40
1.0
 40
1.0
 40
2.0
 40
2.0
 40
2.0
 40
3.0
 40
3.0
 40
3.0
 40
4.0
 40
4.0
 40
4.0
 40
5.0
 40
5.0
 40
5.0
 40
5.0
 10
-0.1667426215277778
 20
18.01285400390623
 10
-0.248046875
 20
17.74379204644097
 10
-0.3231499565972222
 20
17.56878119574652
 10
-0.4099663628472224
 20
17.35294596354166
 10
-0.4099663628472224
 20
17.35294596354166
 10
0.4113444010416666
 20
17.35294596354166
 10
0.4113444010416666
 20
17.35294596354166
 10
0.3748263888888889
 20
17.43011610243055
 10
0.2497694227430555
 20
17.74379204644097
 10
0.1688096788194444
 20
18.01285400390623
 10
0.0813042534722222
 20
18.30086398654513
 10
0.0220486111111111
 20
18.56200222439236
 10
0.0006890190972222
 20
18.73150092230902
 10
-0.0206705729166667
 20
18.56200222439236
 10
-0.0799262152777778
 20
18.30086398654513
 10
-0.1667426215277778
 20
18.01285400390623
 97
        0
 75
     0
 76
     1
 98
        1
 10
0.0
 20
0.0
  0
HATCH
  5
520
330
51C
100
AcDbEntity
  8
レイヤー_1
 62
     7
100
AcDbHatch
 10
0.0
 20
0.0
 30
0.0
210
0.0
220
0.0
230
1.0
  2
SOLID
 70
     1
 71
     0
 91
        1
 92
        1
 93
        1
 72
     4
 94
        3
 73
     0
 74
     0
 95
       20
 96
       16
 40
0.0
 40
0.0
 40
0.0
 40
0.0
 40
1.0
 40
1.0
 40
1.0
 40
2.0
 40
2.0
 40
2.0
 40
3.0
 40
3.0
 40
3.0
 40
4.0
 40
4.0
 40
4.0
 40
5.0
 40
5.0
 40
5.0
 40
5.0
 10
0.1667426215277778
 20
-18.01285400390623
 10
0.248046875
 20
-17.74379204644097
 10
0.3228054470486111
 20
-17.56878119574652
 10
0.4096218532986111
 20
-17.35294596354166
 10
0.4096218532986111
 20
-17.35294596354166
 10
-0.4113444010416666
 20
-17.35294596354166
 10
-0.4113444010416666
 20
-17.35294596354166
 10
-0.3748263888888889
 20
-17.43011610243055
 10
-0.2501139322916666
 20
-17.74379204644097
 10
-0.1688096788194444
 20
-18.01285400390623
 10
-0.0816487630208333
 20
-18.30086398654513
 10
-0.0220486111111111
 20
-18.56200222439236
 10
-0.0010335286458333
 20
-18.73150092230902
 10
0.0203260633680556
 20
-18.56200222439236
 10
0.0799262152777778
 20
-18.30086398654513
 10
0.1667426215277778
 20
-18.01285400390623
 97
        0
 75
     0
 76
     1
 98
        1
 10
0.0
 20
0.0
  0
ENDBLK
  5
521
330
51C
100
AcDbEntity
  8
レイヤー_1
100
AcDbBlockEnd
  0
BLOCK
  5
523
330
522
100
AcDbEntity
  8
レイヤー_1
 62
     7
100
AcDbBlockBegin
  2
AI9-BLK15
 70
     0
 10
0.0
 20
0.0
 30
0.0
  3
AI9-BLK15
  1

  0
SPLINE
  5
524
330
522
100
AcDbEntity
  8
レイヤー_1
 62
     7
100
AcDbSpline
210
0.0
220
0.0
230
1.0
 70
    11
 71
     3
 72
    20
 73
    16
 74
     0
 42
0.0000000001
 43
0.0000000001
 40
0.0
 40
0.0
 40
0.0
 40
0.0
 40
1.0
 40
1.0
 40
1.0
 40
2.0
 40
2.0
 40
2.0
 40
3.0
 40
3.0
 40
3.0
 40
4.0
 40
4.0
 40
4.0
 40
5.0
 40
5.0
 40
5.0
 40
5.0
 10
-0.3615627712673611
 20
18.46157769097222
 30
0.0
 10
-0.5372626410590278
 20
17.87832302517361
 30
0.0
 10
-0.6998711480034722
 20
17.49919026692708
 30
0.0
 10
-0.8879733615451389
 20
17.03134629991319
 30
0.0
 10
-0.8879733615451389
 20
17.03134629991319
 30
0.0
 10
0.8917629665798607
 20
17.03134629991319
 30
0.0
 10
0.8917629665798607
 20
17.03134629991319
 30
0.0
 10
0.8125257703993055
 20
17.19877794053819
 30
0.0
 10
0.5417412651909724
 20
17.87832302517361
 30
0.0
 10
0.3660413953993055
 20
18.46157769097222
 30
0.0
 10
0.1772501627604167
 20
19.08582899305556
 30
0.0
 10
0.0484035915798611
 20
19.65185818142361
 30
0.0
 10
0.0022393120659722
 20
20.01893310546874
 30
0.0
 10
-0.0439249674479167
 20
19.65185818142361
 30
0.0
 10
-0.1727715386284722
 20
19.08582899305556
 30
0.0
 10
-0.3615627712673611
 20
18.46157769097222
 30
0.0
  0
SPLINE
  5
525
330
522
100
AcDbEntity
  8
レイヤー_1
 62
     7
100
AcDbSpline
210
0.0
220
0.0
230
1.0
 70
    11
 71
     3
 72
    20
 73
    16
 74
     0
 42
0.0000000001
 43
0.0000000001
 40
0.0
 40
0.0
 40
0.0
 40
0.0
 40
1.0
 40
1.0
 40
1.0
 40
2.0
 40
2.0
 40
2.0
 40
3.0
 40
3.0
 40
3.0
 40
4.0
 40
4.0
 40
4.0
 40
5.0
 40
5.0
 40
5.0
 40
5.0
 10
0.3615627712673611
 20
-18.46157769097222
 30
0.0
 10
0.5376071506076389
 20
-17.87832302517361
 30
0.0
 10
0.6998711480034722
 20
-17.49919026692708
 30
0.0
 10
0.8879733615451389
 20
-17.03134629991319
 30
0.0
 10
0.8879733615451389
 20
-17.03134629991319
 30
0.0
 10
-0.8917629665798607
 20
-17.03134629991319
 30
0.0
 10
-0.8917629665798607
 20
-17.03134629991319
 30
0.0
 10
-0.8121812608506944
 20
-17.19877794053819
 30
0.0
 10
-0.5413967556423611
 20
-17.87832302517361
 30
0.0
 10
-0.3656968858506944
 20
-18.46157769097222
 30
0.0
 10
-0.1769056532118055
 20
-19.08582899305556
 30
0.0
 10
-0.04805908203125
 20
-19.65185818142361
 30
0.0
 10
-0.0018948025173611
 20
-20.01893310546874
 30
0.0
 10
0.0442694769965278
 20
-19.65185818142361
 30
0.0
 10
0.1731160481770833
 20
-19.08582899305556
 30
0.0
 10
0.3615627712673611
 20
-18.46157769097222
 30
0.0
  0
ENDBLK
  5
526
330
522
100
AcDbEntity
  8
レイヤー_1
100
AcDbBlockEnd
  0
BLOCK
  5
528
330
527
100
AcDbEntity
  8
レイヤー_1
 62
     7
100
AcDbBlockBegin
  2
AI9-BLK16
 70
     0
 10
0.0
 20
0.0
 30
0.0
  3
AI9-BLK16
  1

  0
INSERT
  5
529
330
527
100
AcDbEntity
  8
レイヤー_1
 62
     7
100
AcDbBlockReference
  2
AI9-BLK18
 10
0.0
 20
0.0
 30
0.0
  0
INSERT
  5
52A
330
527
100
AcDbEntity
  8
レイヤー_1
 62
     7
100
AcDbBlockReference
  2
AI9-BLK17
 10
0.0
 20
0.0
 30
0.0
  0
ENDBLK
  5
52B
330
527
100
AcDbEntity
  8
レイヤー_1
100
AcDbBlockEnd
  0
BLOCK
  5
52D
330
52C
100
AcDbEntity
  8
レイヤー_1
 62
     7
100
AcDbBlockBegin
  2
AI9-BLK17
 70
     0
 10
0.0
 20
0.0
 30
0.0
  3
AI9-BLK17
  1

  0
LINE
  5
52E
330
52C
100
AcDbEntity
  8
レイヤー_1
 62
     7
100
AcDbLine
 10
1.005279
 20
-0.83845
 30
0.0
 11
-1.005279
 21
0.83845
 31
0.0
  0
HATCH
  5
52F
330
52C
100
AcDbEntity
  8
レイヤー_1
 62
     7
100
AcDbHatch
 10
0.0
 20
0.0
 30
0.0
210
0.0
220
0.0
230
1.0
  2
SOLID
 70
     1
 71
     0
 91
        1
 92
        1
 93
        1
 72
     4
 94
        3
 73
     0
 74
     0
 95
       20
 96
       16
 40
0.0
 40
0.0
 40
0.0
 40
0.0
 40
1.0
 40
1.0
 40
1.0
 40
2.0
 40
2.0
 40
2.0
 40
3.0
 40
3.0
 40
3.0
 40
4.0
 40
4.0
 40
4.0
 40
5.0
 40
5.0
 40
5.0
 40
5.0
 10
-1.407321506076387
 20
0.9566168891059028
 10
-1.252636718749998
 20
0.7218336317274307
 10
-1.16616482204861
 20
0.552334933810764
 10
-1.055921766493055
 20
0.3473517523871528
 10
-1.055921766493055
 20
0.3473517523871528
 10
-0.5302001953125
 20
0.9779764811197916
 10
-0.5302001953125
 20
0.9779764811197916
 10
-0.6128824869791666
 20
0.9993360731336803
 10
-0.9339653862847219
 20
1.104239230685762
 10
-1.192347547743054
 20
1.214310031467014
 10
-1.469333224826387
 20
1.331960042317708
 10
-1.708078342013888
 20
1.453571912977429
 10
-1.851738823784721
 20
1.545728217230901
 10
-1.735294596354165
 20
1.420843505859374
 10
-1.572686089409721
 20
1.207936604817708
 10
-1.407321506076387
 20
0.9566168891059028
 97
        0
 75
     0
 76
     1
 98
        1
 10
0.0
 20
0.0
  0
HATCH
  5
530
330
52C
100
AcDbEntity
  8
レイヤー_1
 62
     7
100
AcDbHatch
 10
0.0
 20
0.0
 30
0.0
210
0.0
220
0.0
230
1.0
  2
SOLID
 70
     1
 71
     0
 91
        1
 92
        1
 93
        1
 72
     4
 94
        3
 73
     0
 74
     0
 95
       20
 96
       16
 40
0.0
 40
0.0
 40
0.0
 40
0.0
 40
1.0
 40
1.0
 40
1.0
 40
2.0
 40
2.0
 40
2.0
 40
3.0
 40
3.0
 40
3.0
 40
4.0
 40
4.0
 40
4.0
 40
5.0
 40
5.0
 40
5.0
 40
5.0
 10
1.407321506076387
 20
-0.9566168891059028
 10
1.252636718749998
 20
-0.7218336317274307
 10
1.16616482204861
 20
-0.552334933810764
 10
1.055921766493055
 20
-0.3473517523871528
 10
1.055921766493055
 20
-0.3473517523871528
 10
0.5302001953125
 20
-0.9781487358940971
 10
0.5302001953125
 20
-0.9781487358940971
 10
0.6128824869791666
 20
-0.9993360731336803
 10
0.9339653862847219
 20
-1.104239230685762
 10
1.192347547743054
 20
-1.214310031467014
 10
1.469333224826387
 20
-1.331960042317708
 10
1.708078342013888
 20
-1.453571912977429
 10
1.851738823784721
 20
-1.545728217230901
 10
1.735294596354165
 20
-1.420843505859374
 10
1.572686089409721
 20
-1.207936604817708
 10
1.407321506076387
 20
-0.9566168891059028
 97
        0
 75
     0
 76
     1
 98
        1
 10
0.0
 20
0.0
  0
ENDBLK
  5
531
330
52C
100
AcDbEntity
  8
レイヤー_1
100
AcDbBlockEnd
  0
BLOCK
  5
533
330
532
100
AcDbEntity
  8
レイヤー_1
 62
     7
100
AcDbBlockBegin
  2
AI9-BLK18
 70
     0
 10
0.0
 20
0.0
 30
0.0
  3
AI9-BLK18
  1

  0
SPLINE
  5
534
330
532
100
AcDbEntity
  8
レイヤー_1
 62
     7
100
AcDbSpline
210
0.0
220
0.0
230
1.0
 70
    11
 71
     3
 72
    20
 73
    16
 74
     0
 42
0.0000000001
 43
0.0000000001
 40
0.0
 40
0.0
 40
0.0
 40
0.0
 40
1.0
 40
1.0
 40
1.0
 40
2.0
 40
2.0
 40
2.0
 40
3.0
 40
3.0
 40
3.0
 40
4.0
 40
4.0
 40
4.0
 40
5.0
 40
5.0
 40
5.0
 40
5.0
 10
-1.87654351128472
 20
1.094592963324652
 30
0.0
 10
-1.54133572048611
 20
0.5857523600260416
 30
0.0
 10
-1.354267035590277
 20
0.2183329264322917
 30
0.0
 10
-1.115521918402777
 20
-0.2257398817274305
 30
0.0
 10
-1.115521918402777
 20
-0.2257398817274305
 30
0.0
 10
0.0244601779513889
 20
1.140929497612847
 30
0.0
 10
0.0244601779513889
 20
1.140929497612847
 30
0.0
 10
-0.155029296875
 20
1.187093777126735
 30
0.0
 10
-0.8502495659722221
 20
1.414470079210069
 30
0.0
 10
-1.410766601562499
 20
1.653042941623263
 30
0.0
 10
-2.011246744791665
 20
1.907980007595485
 30
0.0
 10
-2.528355577256943
 20
2.171529812282985
 30
0.0
 10
-2.839792209201388
 20
2.371173095703124
 30
0.0
 10
-2.587611219618055
 20
2.100733100043401
 30
0.0
 10
-2.235177951388887
 20
1.639090304904513
 30
0.0
 10
-1.87654351128472
 20
1.094592963324652
 30
0.0
  0
SPLINE
  5
535
330
532
100
AcDbEntity
  8
レイヤー_1
 62
     7
100
AcDbSpline
210
0.0
220
0.0
230
1.0
 70
    11
 71
     3
 72
    20
 73
    16
 74
     0
 42
0.0000000001
 43
0.0000000001
 40
0.0
 40
0.0
 40
0.0
 40
0.0
 40
1.0
 40
1.0
 40
1.0
 40
2.0
 40
2.0
 40
2.0
 40
3.0
 40
3.0
 40
3.0
 40
4.0
 40
4.0
 40
4.0
 40
5.0
 40
5.0
 40
5.0
 40
5.0
 10
1.87654351128472
 20
-1.094592963324652
 30
0.0
 10
1.54133572048611
 20
-0.5857523600260416
 30
0.0
 10
1.354267035590277
 20
-0.2183329264322917
 30
0.0
 10
1.115521918402777
 20
0.2257398817274305
 30
0.0
 10
1.115521918402777
 20
0.2257398817274305
 30
0.0
 10
-0.0244601779513889
 20
-1.141101752387152
 30
0.0
 10
-0.0244601779513889
 20
-1.141101752387152
 30
0.0
 10
0.155029296875
 20
-1.187093777126735
 30
0.0
 10
0.8502495659722221
 20
-1.414470079210069
 30
0.0
 10
1.410766601562499
 20
-1.653042941623263
 30
0.0
 10
2.011246744791665
 20
-1.907980007595485
 30
0.0
 10
2.528355577256943
 20
-2.171529812282985
 30
0.0
 10
2.839792209201388
 20
-2.371173095703124
 30
0.0
 10
2.587611219618055
 20
-2.100560845269095
 30
0.0
 10
2.235177951388887
 20
-1.639090304904513
 30
0.0
 10
1.87654351128472
 20
-1.094592963324652
 30
0.0
  0
ENDBLK
  5
536
330
532
100
AcDbEntity
  8
レイヤー_1
100
AcDbBlockEnd
  0
BLOCK
  5
538
330
537
100
AcDbEntity
  8
レイヤー_1
 62
     7
100
AcDbBlockBegin
  2
AI9-BLK19
 70
     0
 10
0.0
 20
0.0
 30
0.0
  3
AI9-BLK19
  1

  0
INSERT
  5
539
330
537
100
AcDbEntity
  8
レイヤー_1
 62
     7
100
AcDbBlockReference
  2
AI9-BLK21
 10
0.0
 20
0.0
 30
0.0
  0
INSERT
  5
53A
330
537
100
AcDbEntity
  8
レイヤー_1
 62
     7
100
AcDbBlockReference
  2
AI9-BLK20
 10
0.0
 20
0.0
 30
0.0
  0
ENDBLK
  5
53B
330
537
100
AcDbEntity
  8
レイヤー_1
100
AcDbBlockEnd
  0
BLOCK
  5
53D
330
53C
100
AcDbEntity
  8
レイヤー_1
 62
     7
100
AcDbBlockBegin
  2
AI9-BLK20
 70
     0
 10
0.0
 20
0.0
 30
0.0
  3
AI9-BLK20
  1

  0
LINE
  5
53E
330
53C
100
AcDbEntity
  8
レイヤー_1
 62
     7
100
AcDbLine
 10
2.338185999999998
 20
-1.937004999999999
 30
0.0
 11
-2.338185999999998
 21
1.937004999999999
 31
0.0
  0
HATCH
  5
53F
330
53C
100
AcDbEntity
  8
レイヤー_1
 62
     7
100
AcDbHatch
 10
0.0
 20
0.0
 30
0.0
210
0.0
220
0.0
230
1.0
  2
SOLID
 70
     1
 71
     0
 91
        1
 92
        1
 93
        1
 72
     4
 94
        3
 73
     0
 74
     0
 95
       20
 96
       16
 40
0.0
 40
0.0
 40
0.0
 40
0.0
 40
1.0
 40
1.0
 40
1.0
 40
2.0
 40
2.0
 40
2.0
 40
3.0
 40
3.0
 40
3.0
 40
4.0
 40
4.0
 40
4.0
 40
5.0
 40
5.0
 40
5.0
 40
5.0
 10
-2.740573459201388
 20
2.053793674045138
 10
-2.585199652777776
 20
1.819527180989583
 10
-2.498383246527776
 20
1.650372992621526
 10
-2.387451171875
 20
1.445734320746526
 10
-2.387451171875
 20
1.445734320746526
 10
-1.8634521484375
 20
2.078253851996528
 10
-1.8634521484375
 20
2.078253851996528
 10
-1.946478949652776
 20
2.099268934461803
 10
-2.267561848958331
 20
2.202966308593749
 10
-2.526633029513889
 20
2.312348090277776
 10
-2.803963216145831
 20
2.428964572482637
 10
-3.043052842881943
 20
2.549887424045138
 10
-3.187057834201388
 20
2.641526963975693
 10
-3.070269097222221
 20
2.516986762152776
 10
-2.906971571180555
 20
2.304596625434028
 10
-2.740573459201388
 20
2.053793674045138
 97
        0
 75
     0
 76
     1
 98
        1
 10
0.0
 20
0.0
  0
HATCH
  5
540
330
53C
100
AcDbEntity
  8
レイヤー_1
 62
     7
100
AcDbHatch
 10
0.0
 20
0.0
 30
0.0
210
0.0
220
0.0
230
1.0
  2
SOLID
 70
     1
 71
     0
 91
        1
 92
        1
 93
        1
 72
     4
 94
        3
 73
     0
 74
     0
 95
       20
 96
       16
 40
0.0
 40
0.0
 40
0.0
 40
0.0
 40
1.0
 40
1.0
 40
1.0
 40
2.0
 40
2.0
 40
2.0
 40
3.0
 40
3.0
 40
3.0
 40
4.0
 40
4.0
 40
4.0
 40
5.0
 40
5.0
 40
5.0
 40
5.0
 10
2.740573459201388
 20
-2.053793674045138
 10
2.585199652777776
 20
-1.819527180989583
 10
2.498383246527776
 20
-1.650372992621526
 10
2.387451171875
 20
-1.445734320746526
 10
2.387451171875
 20
-1.445734320746526
 10
1.8634521484375
 20
-2.078253851996528
 10
1.8634521484375
 20
-2.078253851996528
 10
1.946478949652776
 20
-2.099268934461803
 10
2.267561848958331
 20
-2.202966308593749
 10
2.526633029513889
 20
-2.312348090277776
 10
2.803963216145831
 20
-2.428964572482637
 10
3.043052842881943
 20
-2.549887424045138
 10
3.187057834201388
 20
-2.641526963975693
 10
3.070269097222221
 20
-2.516986762152776
 10
2.906971571180555
 20
-2.304596625434028
 10
2.740573459201388
 20
-2.053793674045138
 97
        0
 75
     0
 76
     1
 98
        1
 10
0.0
 20
0.0
  0
ENDBLK
  5
541
330
53C
100
AcDbEntity
  8
レイヤー_1
100
AcDbBlockEnd
  0
BLOCK
  5
543
330
542
100
AcDbEntity
  8
レイヤー_1
 62
     7
100
AcDbBlockBegin
  2
AI9-BLK21
 70
     0
 10
0.0
 20
0.0
 30
0.0
  3
AI9-BLK21
  1

  0
SPLINE
  5
544
330
542
100
AcDbEntity
  8
レイヤー_1
 62
     7
100
AcDbSpline
210
0.0
220
0.0
230
1.0
 70
    11
 71
     3
 72
    20
 73
    16
 74
     0
 42
0.0000000001
 43
0.0000000001
 40
0.0
 40
0.0
 40
0.0
 40
0.0
 40
1.0
 40
1.0
 40
1.0
 40
2.0
 40
2.0
 40
2.0
 40
3.0
 40
3.0
 40
3.0
 40
4.0
 40
4.0
 40
4.0
 40
5.0
 40
5.0
 40
5.0
 40
5.0
 10
-3.210484483506943
 20
2.190219455295137
 30
0.0
 10
-2.873554144965276
 20
1.682584635416666
 30
0.0
 10
-2.685107421875
 20
1.315681966145832
 30
0.0
 10
-2.444639756944444
 20
0.8724704318576389
 30
0.0
 10
-2.444639756944444
 20
0.8724704318576389
 30
0.0
 10
-1.309480794270833
 20
2.242929416232637
 30
0.0
 10
-1.309480794270833
 20
2.242929416232637
 30
0.0
 10
-1.488970269097221
 20
2.28857693142361
 30
0.0
 10
-2.185224066840276
 20
2.513541666666665
 30
0.0
 10
-2.746430121527776
 20
2.750219726562499
 30
0.0
 10
-3.347599283854166
 20
3.003089735243055
 30
0.0
 10
-3.865741644965276
 20
3.265089246961805
 30
0.0
 10
-4.177867296006943
 20
3.46369900173611
 30
0.0
 10
-3.924652777777776
 20
3.193948025173609
 30
0.0
 10
-3.570841471354166
 20
2.733511013454859
 30
0.0
 10
-3.210484483506943
 20
2.190219455295137
 30
0.0
  0
SPLINE
  5
545
330
542
100
AcDbEntity
  8
レイヤー_1
 62
     7
100
AcDbSpline
210
0.0
220
0.0
230
1.0
 70
    11
 71
     3
 72
    20
 73
    16
 74
     0
 42
0.0000000001
 43
0.0000000001
 40
0.0
 40
0.0
 40
0.0
 40
0.0
 40
1.0
 40
1.0
 40
1.0
 40
2.0
 40
2.0
 40
2.0
 40
3.0
 40
3.0
 40
3.0
 40
4.0
 40
4.0
 40
4.0
 40
5.0
 40
5.0
 40
5.0
 40
5.0
 10
3.210484483506943
 20
-2.190219455295137
 30
0.0
 10
2.873554144965276
 20
-1.682584635416666
 30
0.0
 10
2.685107421875
 20
-1.315854220920137
 30
0.0
 10
2.444639756944444
 20
-0.8724704318576389
 30
0.0
 10
2.444639756944444
 20
-0.8724704318576389
 30
0.0
 10
1.309480794270833
 20
-2.242929416232637
 30
0.0
 10
1.309480794270833
 20
-2.242929416232637
 30
0.0
 10
1.488970269097221
 20
-2.28857693142361
 30
0.0
 10
2.185224066840276
 20
-2.513541666666665
 30
0.0
 10
2.746430121527776
 20
-2.750391981336803
 30
0.0
 10
3.347599283854166
 20
-3.003089735243055
 30
0.0
 10
3.865741644965276
 20
-3.265089246961805
 30
0.0
 10
4.177867296006943
 20
-3.46369900173611
 30
0.0
 10
3.924652777777776
 20
-3.193948025173609
 30
0.0
 10
3.570841471354166
 20
-2.733683268229166
 30
0.0
 10
3.210484483506943
 20
-2.190219455295137
 30
0.0
  0
ENDBLK
  5
546
330
542
100
AcDbEntity
  8
レイヤー_1
100
AcDbBlockEnd
  0
BLOCK
  5
548
330
547
100
AcDbEntity
  8
レイヤー_1
 62
     7
100
AcDbBlockBegin
  2
AI9-BLK22
 70
     0
 10
0.0
 20
0.0
 30
0.0
  3
AI9-BLK22
  1

  0
INSERT
  5
549
330
547
100
AcDbEntity
  8
レイヤー_1
 62
     7
100
AcDbBlockReference
  2
AI9-BLK24
 10
0.0
 20
0.0
 30
0.0
  0
INSERT
  5
54A
330
547
100
AcDbEntity
  8
レイヤー_1
 62
     7
100
AcDbBlockReference
  2
AI9-BLK23
 10
0.0
 20
0.0
 30
0.0
  0
ENDBLK
  5
54B
330
547
100
AcDbEntity
  8
レイヤー_1
100
AcDbBlockEnd
  0
BLOCK
  5
54D
330
54C
100
AcDbEntity
  8
レイヤー_1
 62
     7
100
AcDbBlockBegin
  2
AI9-BLK23
 70
     0
 10
0.0
 20
0.0
 30
0.0
  3
AI9-BLK23
  1

  0
LINE
  5
54E
330
54C
100
AcDbEntity
  8
レイヤー_1
 62
     7
100
AcDbLine
 10
17.441485
 20
1.903932
 30
0.0
 11
-17.441485
 21
-1.903932
 31
0.0
  0
HATCH
  5
54F
330
54C
100
AcDbEntity
  8
レイヤー_1
 62
     7
100
AcDbHatch
 10
0.0
 20
0.0
 30
0.0
210
0.0
220
0.0
230
1.0
  2
SOLID
 70
     1
 71
     0
 91
        1
 92
        1
 93
        1
 72
     4
 94
        3
 73
     0
 74
     0
 95
       20
 96
       16
 40
0.0
 40
0.0
 40
0.0
 40
0.0
 40
1.0
 40
1.0
 40
1.0
 40
2.0
 40
2.0
 40
2.0
 40
3.0
 40
3.0
 40
3.0
 40
4.0
 40
4.0
 40
4.0
 40
5.0
 40
5.0
 40
5.0
 40
5.0
 10
-17.80563151041666
 20
-2.1114990234375
 10
-17.52933485243055
 20
-2.16300320095486
 10
-17.34708930121527
 20
-2.218469238281249
 10
-17.12315809461805
 20
-2.281342230902776
 10
-17.12315809461805
 20
-2.281342230902776
 10
-17.21238606770833
 20
-1.464854600694444
 10
-17.21238606770833
 20
-1.464854600694444
 10
-17.28507758246527
 20
-1.509813096788194
 10
-17.5834228515625
 20
-1.668115234375
 10
-17.84214952256944
 20
-1.777841525607638
 10
-18.11879069010416
 20
-1.895663791232637
 10
-18.37200520833333
 20
-1.98316921657986
 10
-18.53805881076388
 20
-2.022615559895833
 10
-18.36752658420138
 20
-2.025543891059028
 10
-18.10156521267361
 20
-2.056205240885415
 10
-17.80563151041666
 20
-2.1114990234375
 97
        0
 75
     0
 76
     1
 98
        1
 10
0.0
 20
0.0
  0
HATCH
  5
550
330
54C
100
AcDbEntity
  8
レイヤー_1
 62
     7
100
AcDbHatch
 10
0.0
 20
0.0
 30
0.0
210
0.0
220
0.0
230
1.0
  2
SOLID
 70
     1
 71
     0
 91
        1
 92
        1
 93
        1
 72
     4
 94
        3
 73
     0
 74
     0
 95
       20
 96
       16
 40
0.0
 40
0.0
 40
0.0
 40
0.0
 40
1.0
 40
1.0
 40
1.0
 40
2.0
 40
2.0
 40
2.0
 40
3.0
 40
3.0
 40
3.0
 40
4.0
 40
4.0
 40
4.0
 40
5.0
 40
5.0
 40
5.0
 40
5.0
 10
17.80563151041666
 20
2.1114990234375
 10
17.52933485243055
 20
2.16300320095486
 10
17.34708930121527
 20
2.218469238281249
 10
17.12315809461805
 20
2.281342230902776
 10
17.12315809461805
 20
2.281342230902776
 10
17.21238606770833
 20
1.464854600694444
 10
17.21238606770833
 20
1.464854600694444
 10
17.28507758246527
 20
1.509813096788194
 10
17.5834228515625
 20
1.668115234375
 10
17.84214952256944
 20
1.777841525607638
 10
18.11879069010416
 20
1.895663791232637
 10
18.37200520833333
 20
1.98316921657986
 10
18.53805881076388
 20
2.022615559895833
 10
18.36752658420138
 20
2.025543891059028
 10
18.10156521267361
 20
2.056205240885415
 10
17.80563151041666
 20
2.1114990234375
 97
        0
 75
     0
 76
     1
 98
        1
 10
0.0
 20
0.0
  0
ENDBLK
  5
551
330
54C
100
AcDbEntity
  8
レイヤー_1
100
AcDbBlockEnd
  0
BLOCK
  5
553
330
552
100
AcDbEntity
  8
レイヤー_1
 62
     7
100
AcDbBlockBegin
  2
AI9-BLK24
 70
     0
 10
0.0
 20
0.0
 30
0.0
  3
AI9-BLK24
  1

  0
SPLINE
  5
554
330
552
100
AcDbEntity
  8
レイヤー_1
 62
     7
100
AcDbSpline
210
0.0
220
0.0
230
1.0
 70
    11
 71
     3
 72
    20
 73
    16
 74
     0
 42
0.0000000001
 43
0.0000000001
 40
0.0
 40
0.0
 40
0.0
 40
0.0
 40
1.0
 40
1.0
 40
1.0
 40
2.0
 40
2.0
 40
2.0
 40
3.0
 40
3.0
 40
3.0
 40
4.0
 40
4.0
 40
4.0
 40
5.0
 40
5.0
 40
5.0
 40
5.0
 10
-18.23041178385416
 20
-2.353689236111109
 30
0.0
 10
-17.63165418836805
 20
-2.465310329861109
 30
0.0
 10
-17.23719075520833
 20
-2.585544162326387
 30
0.0
 10
-16.75177680121526
 20
-2.721625434027776
 30
0.0
 10
-16.75177680121526
 20
-2.721625434027776
 30
0.0
 10
-16.9447021484375
 20
-0.9525689019097219
 30
0.0
 10
-16.9447021484375
 20
-0.9525689019097219
 30
0.0
 10
-17.10248752170138
 20
-1.049720594618055
 30
0.0
 10
-17.74878743489583
 20
-1.392679850260416
 30
0.0
 10
-18.30930447048611
 20
-1.630563693576388
 30
0.0
 10
-18.90944010416666
 20
-1.886017523871526
 30
0.0
 10
-19.45824381510416
 20
-2.075497775607638
 30
0.0
 10
-19.81825629340277
 20
-2.161280653211803
 30
0.0
 10
-19.44825303819444
 20
-2.167309570312498
 30
0.0
 10
-18.87154405381944
 20
-2.233972167968749
 30
0.0
 10
-18.23041178385416
 20
-2.353689236111109
 30
0.0
  0
SPLINE
  5
555
330
552
100
AcDbEntity
  8
レイヤー_1
 62
     7
100
AcDbSpline
210
0.0
220
0.0
230
1.0
 70
    11
 71
     3
 72
    20
 73
    16
 74
     0
 42
0.0000000001
 43
0.0000000001
 40
0.0
 40
0.0
 40
0.0
 40
0.0
 40
1.0
 40
1.0
 40
1.0
 40
2.0
 40
2.0
 40
2.0
 40
3.0
 40
3.0
 40
3.0
 40
4.0
 40
4.0
 40
4.0
 40
5.0
 40
5.0
 40
5.0
 40
5.0
 10
18.23041178385416
 20
2.353689236111109
 30
0.0
 10
17.63165418836805
 20
2.465310329861109
 30
0.0
 10
17.23719075520833
 20
2.585544162326387
 30
0.0
 10
16.75177680121526
 20
2.721625434027776
 30
0.0
 10
16.75177680121526
 20
2.721625434027776
 30
0.0
 10
16.9447021484375
 20
0.9525689019097219
 30
0.0
 10
16.9447021484375
 20
0.9525689019097219
 30
0.0
 10
17.10248752170138
 20
1.049720594618055
 30
0.0
 10
17.74878743489583
 20
1.392679850260416
 30
0.0
 10
18.30964898003472
 20
1.630563693576388
 30
0.0
 10
18.90944010416666
 20
1.886017523871526
 30
0.0
 10
19.45824381510416
 20
2.075497775607638
 30
0.0
 10
19.81825629340277
 20
2.161280653211803
 30
0.0
 10
19.44825303819444
 20
2.167309570312498
 30
0.0
 10
18.87154405381944
 20
2.233972167968749
 30
0.0
 10
18.23041178385416
 20
2.353689236111109
 30
0.0
  0
ENDBLK
  5
556
330
552
100
AcDbEntity
  8
レイヤー_1
100
AcDbBlockEnd
  0
BLOCK
  5
558
330
557
100
AcDbEntity
  8
レイヤー_1
 62
     7
100
AcDbBlockBegin
  2
AI9-BLK25
 70
     0
 10
0.0
 20
0.0
 30
0.0
  3
AI9-BLK25
  1

  0
SPLINE
  5
559
330
557
100
AcDbEntity
  8
レイヤー_1
  6
AI9-LType2
 62
     7
100
AcDbSpline
210
0.0
220
0.0
230
1.0
 70
    11
 71
     3
 72
    32
 73
    28
 74
     0
 42
0.0000000001
 43
0.0000000001
 40
0.0
 40
0.0
 40
0.0
 40
0.0
 40
1.0
 40
1.0
 40
1.0
 40
2.0
 40
2.0
 40
2.0
 40
3.0
 40
3.0
 40
3.0
 40
4.0
 40
4.0
 40
4.0
 40
5.0
 40
5.0
 40
5.0
 40
6.0
 40
6.0
 40
6.0
 40
7.0
 40
7.0
 40
7.0
 40
8.0
 40
8.0
 40
8.0
 40
9.0
 40
9.0
 40
9.0
 40
9.0
 10
4.25400390625
 20
-12.83074137369791
 30
0.0
 10
6.402709960937499
 20
-12.25902777777777
 30
0.0
 10
8.177450900607636
 20
-10.92508680555555
 30
0.0
 10
8.177450900607636
 20
-8.92073025173611
 30
0.0
 10
8.177450900607636
 20
-8.92073025173611
 30
0.0
 10
7.720631239149304
 20
5.265139431423611
 30
0.0
 10
7.720631239149304
 20
5.265139431423611
 30
0.0
 10
7.720631239149304
 20
5.561073133680555
 30
0.0
 10
7.686869303385416
 20
5.847016059027776
 30
0.0
 10
7.628302680121526
 20
6.122279188368054
 30
0.0
 10
7.392658148871526
 20
10.19438205295138
 30
0.0
 10
4.026455349392359
 20
13.42588161892361
 30
0.0
 10
-0.1040418836805555
 20
13.42588161892361
 30
0.0
 10
-4.388018120659721
 20
13.42588161892361
 30
0.0
 10
-7.859813096788191
 20
9.954258897569442
 30
0.0
 10
-7.859813096788191
 20
5.670627170138887
 30
0.0
 10
-7.859813096788191
 20
5.33490261501736
 30
0.0
 10
-7.690831163194443
 20
4.811248101128471
 30
0.0
 10
-7.831391059027778
 20
5.21708034939236
 30
0.0
 10
-7.831391059027778
 20
5.21708034939236
 30
0.0
 10
-8.177450900607636
 20
-8.190370008680552
 30
0.0
 10
-8.177450900607636
 20
-8.190370008680552
 30
0.0
 10
-7.995033094618055
 20
-10.92508680555555
 30
0.0
 10
-6.233555772569442
 20
-12.49880642361111
 30
0.0
 10
-4.398181152343748
 20
-12.85399576822916
 30
0.0
 10
-4.398181152343748
 20
-12.85399576822916
 30
0.0
 10
0.0501261393229167
 20
-14.15606960720486
 30
0.0
 10
4.25400390625
 20
-12.83074137369791
 30
0.0
  0
ENDBLK
  5
55A
330
557
100
AcDbEntity
  8
レイヤー_1
100
AcDbBlockEnd
  0
BLOCK
  5
EE8
330
EE7
100
AcDbEntity
  8
0
100
AcDbBlockBegin
  2
*D28
 70
     1
 10
0.0
 20
0.0
 30
0.0
  3
*D28
  1

  0
LINE
  5
F1B
330
EE7
100
AcDbEntity
  8
AM_5
100
AcDbLine
 10
90.61282495178152
 20
235.242508897541
 30
0.0
 11
90.61282495178152
 21
258.795982414034
 31
0.0
  0
LINE
  5
F1C
330
EE7
100
AcDbEntity
  8
AM_5
100
AcDbLine
 10
38.90555895178155
 20
235.253532897541
 30
0.0
 11
38.90555895178155
 21
258.795982414034
 31
0.0
  0
LINE
  5
F1D
330
EE7
100
AcDbEntity
  8
AM_5
100
AcDbLine
 10
88.11282495178152
 20
257.795982414034
 30
0.0
 11
41.40555895178154
 21
257.795982414034
 31
0.0
  0
SOLID
  5
F1E
330
EE7
100
AcDbEntity
  8
AM_5
100
AcDbTrace
 10
88.11282495178152
 20
258.2126490807007
 30
0.0
 11
88.11282495178152
 21
257.3793157473673
 31
0.0
 12
90.61282495178152
 22
257.795982414034
 32
0.0
 13
90.61282495178152
 23
257.795982414034
 33
0.0
  0
SOLID
  5
F1F
330
EE7
100
AcDbEntity
  8
AM_5
100
AcDbTrace
 10
41.40555895178154
 20
258.2126490807007
 30
0.0
 11
41.40555895178154
 21
257.3793157473673
 31
0.0
 12
38.90555895178155
 22
257.795982414034
 32
0.0
 13
38.90555895178155
 23
257.795982414034
 33
0.0
  0
MTEXT
  5
F20
330
EE7
100
AcDbEntity
  8
AM_5
 62
     2
100
AcDbMText
 10
64.75919195178153
 20
260.295982414034
 30
0.0
 40
3.0
 41
0.0
 71
     5
 72
     1
  1
%%c130
 73
     1
 44
1.0
1001
ACAD
1000
MTEXTBEGIN
1070
    73
1070
     1
1070
    44
1040
1.0
1070
    74
1070
     0
1000
MTEXTEND
  0
POINT
  5
F21
330
EE7
100
AcDbEntity
  8
Defpoints
 62
     0
100
AcDbPoint
 10
90.61282495178152
 20
234.242508897541
 30
0.0
  0
POINT
  5
F22
330
EE7
100
AcDbEntity
  8
Defpoints
 62
     0
100
AcDbPoint
 10
38.90555895178155
 20
234.253532897541
 30
0.0
  0
POINT
  5
F23
330
EE7
100
AcDbEntity
  8
Defpoints
 62
     0
100
AcDbPoint
 10
38.90555895178155
 20
257.795982414034
 30
0.0
  0
ENDBLK
  5
EE9
330
EE7
100
AcDbEntity
  8
0
100
AcDbBlockEnd
  0
BLOCK
  5
F26
330
F25
100
AcDbEntity
  8
0
100
AcDbBlockBegin
  2
*D29
 70
     1
 10
0.0
 20
0.0
 30
0.0
  3
*D29
  1

  0
LINE
  5
F9D
330
F25
100
AcDbEntity
  8
AM_5
100
AcDbLine
 10
91.61282495178154
 20
234.242508897541
 30
0.0
 11
112.5346120806558
 21
234.242508897541
 31
0.0
  0
LINE
  5
F9E
330
F25
100
AcDbEntity
  8
AM_5
100
AcDbLine
 10
63.35821895178153
 20
197.009639397541
 30
0.0
 11
112.5346120806557
 21
197.009639397541
 31
0.0
  0
LINE
  5
F9F
330
F25
100
AcDbEntity
  8
AM_5
100
AcDbLine
 10
111.5346120806558
 20
231.742508897541
 30
0.0
 11
111.5346120806557
 21
199.509639397541
 31
0.0
  0
SOLID
  5
FA0
330
F25
100
AcDbEntity
  8
AM_5
100
AcDbTrace
 10
111.1179454139891
 20
231.742508897541
 30
0.0
 11
111.9512787473224
 21
231.742508897541
 31
0.0
 12
111.5346120806558
 22
234.242508897541
 32
0.0
 13
111.5346120806558
 23
234.242508897541
 33
0.0
  0
SOLID
  5
FA1
330
F25
100
AcDbEntity
  8
AM_5
100
AcDbTrace
 10
111.1179454139891
 20
199.509639397541
 30
0.0
 11
111.9512787473224
 21
199.509639397541
 31
0.0
 12
111.5346120806557
 22
197.009639397541
 32
0.0
 13
111.5346120806557
 23
197.009639397541
 33
0.0
  0
MTEXT
  5
FA2
330
F25
100
AcDbEntity
  8
AM_5
 62
     2
100
AcDbMText
 10
109.0346120806557
 20
215.626074147541
 30
0.0
 40
3.0
 41
0.0
 71
     5
 72
     1
  1
94
 11
0.0000000000000001
 21
1.0
 31
0.0
 73
     1
 44
1.0
1001
ACAD
1000
MTEXTBEGIN
1070
    73
1070
     1
1070
    44
1040
1.0
1070
    74
1070
     0
1000
MTEXTEND
  0
POINT
  5
FA3
330
F25
100
AcDbEntity
  8
Defpoints
 62
     0
100
AcDbPoint
 10
90.61282495178152
 20
234.242508897541
 30
0.0
  0
POINT
  5
FA4
330
F25
100
AcDbEntity
  8
Defpoints
 62
     0
100
AcDbPoint
 10
62.35821895178154
 20
197.009639397541
 30
0.0
  0
POINT
  5
FA5
330
F25
100
AcDbEntity
  8
Defpoints
 62
     0
100
AcDbPoint
 10
111.5346120806557
 20
197.009639397541
 30
0.0
  0
ENDBLK
  5
F27
330
F25
100
AcDbEntity
  8
0
100
AcDbBlockEnd
  0
BLOCK
  5
F47
330
F46
100
AcDbEntity
  8
0
100
AcDbBlockBegin
  2
*D30
 70
     1
 10
0.0
 20
0.0
 30
0.0
  3
*D30
  1

  0
LINE
  5
F94
330
F46
100
AcDbEntity
  8
AM_5
100
AcDbLine
 10
91.61282495178154
 20
234.242508897541
 30
0.0
 11
103.532237405726
 21
234.242508897541
 31
0.0
  0
LINE
  5
F95
330
F46
100
AcDbEntity
  8
AM_5
100
AcDbLine
 10
90.13281195178157
 20
220.349816897541
 30
0.0
 11
103.5322374057259
 21
220.349816897541
 31
0.0
  0
LINE
  5
F96
330
F46
100
AcDbEntity
  8
AM_5
100
AcDbLine
 10
102.532237405726
 20
231.742508897541
 30
0.0
 11
102.5322374057259
 21
222.849816897541
 31
0.0
  0
SOLID
  5
F97
330
F46
100
AcDbEntity
  8
AM_5
100
AcDbTrace
 10
102.1155707390593
 20
231.742508897541
 30
0.0
 11
102.9489040723926
 21
231.742508897541
 31
0.0
 12
102.532237405726
 22
234.242508897541
 32
0.0
 13
102.532237405726
 23
234.242508897541
 33
0.0
  0
SOLID
  5
F98
330
F46
100
AcDbEntity
  8
AM_5
100
AcDbTrace
 10
102.1155707390593
 20
222.849816897541
 30
0.0
 11
102.9489040723926
 21
222.849816897541
 31
0.0
 12
102.5322374057259
 22
220.349816897541
 32
0.0
 13
102.5322374057259
 23
220.349816897541
 33
0.0
  0
MTEXT
  5
F99
330
F46
100
AcDbEntity
  8
AM_5
 62
     2
100
AcDbMText
 10
100.0322374057259
 20
227.296162897541
 30
0.0
 40
3.0
 41
0.0
 71
     5
 72
     1
  1
35
 11
0.0000000000000001
 21
1.0
 31
0.0
 73
     1
 44
1.0
1001
ACAD
1000
MTEXTBEGIN
1070
    73
1070
     1
1070
    44
1040
1.0
1070
    74
1070
     0
1000
MTEXTEND
  0
POINT
  5
F9A
330
F46
100
AcDbEntity
  8
Defpoints
 62
     0
100
AcDbPoint
 10
90.61282495178152
 20
234.242508897541
 30
0.0
  0
POINT
  5
F9B
330
F46
100
AcDbEntity
  8
Defpoints
 62
     0
100
AcDbPoint
 10
89.13281195178154
 20
220.349816897541
 30
0.0
  0
POINT
  5
F9C
330
F46
100
AcDbEntity
  8
Defpoints
 62
     0
100
AcDbPoint
 10
102.5322374057259
 20
220.349816897541
 30
0.0
  0
ENDBLK
  5
F48
330
F46
100
AcDbEntity
  8
0
100
AcDbBlockEnd
  0
BLOCK
  5
100E
330
100D
100
AcDbEntity
  8
0
100
AcDbBlockBegin
  2
*D31
 70
     1
 10
0.0
 20
0.0
 30
0.0
  3
*D31
  1

  0
LINE
  5
124D
330
100D
100
AcDbEntity
  8
AM_5
100
AcDbLine
 10
119.8121621805322
 20
135.2509576437314
 30
0.0
 11
120.2127946796833
 21
133.1501400976343
 31
0.0
  0
LINE
  5
124E
330
100D
100
AcDbEntity
  8
AM_5
100
AcDbLine
 10
156.5001897230309
 20
141.3839467769521
 30
0.0
 11
156.3672681498184
 21
142.080954568011
 31
0.0
  0
LINE
  5
124F
330
100D
100
AcDbEntity
  8
AM_5
100
AcDbLine
 10
122.4812113674585
 20
134.6007557361213
 30
0.0
 11
154.0988514620432
 21
140.630338929524
 31
0.0
  0
SOLID
  5
1250
330
100D
100
AcDbEntity
  8
AM_5
100
AcDbTrace
 10
122.403158355479
 20
135.0100463888756
 30
0.0
 11
122.5592643794379
 21
134.191465083367
 31
0.0
 12
120.0254674509326
 22
134.1324376642447
 32
0.0
 13
120.0254674509326
 23
134.1324376642447
 33
0.0
  0
SOLID
  5
1251
330
100D
100
AcDbEntity
  8
AM_5
100
AcDbTrace
 10
154.0207984500637
 20
141.0396295822783
 30
0.0
 11
154.1769044740226
 21
140.2210482767697
 31
0.0
 12
156.5545953785691
 22
141.0986570014006
 32
0.0
 13
156.5545953785691
 23
141.0986570014006
 33
0.0
  0
MTEXT
  5
1252
330
100D
100
AcDbEntity
  8
AM_5
 62
     2
100
AcDbMText
 10
127.4005112133971
 20
138.0839352978299
 30
0.0
 40
3.0
 41
0.0
 71
     5
 72
     1
  1
%%c94
 11
0.9822975666103427
 21
0.1873272287506519
 31
0.0
 73
     1
 44
1.0
1001
ACAD
1000
MTEXTBEGIN
1070
    73
1070
     1
1070
    44
1040
1.0
1070
    74
1070
     0
1000
MTEXTEND
  0
POINT
  5
1253
330
100D
100
AcDbEntity
  8
Defpoints
 62
     0
100
AcDbPoint
 10
119.6248349517816
 20
136.2332552103417
 30
0.0
  0
POINT
  5
1254
330
100D
100
AcDbEntity
  8
Defpoints
 62
     0
100
AcDbPoint
 10
156.6875169517816
 20
140.4016492103418
 30
0.0
  0
POINT
  5
1255
330
100D
100
AcDbEntity
  8
Defpoints
 62
     0
100
AcDbPoint
 10
156.5545953785691
 20
141.0986570014006
 30
0.0
  0
ENDBLK
  5
100F
330
100D
100
AcDbEntity
  8
0
100
AcDbBlockEnd
  0
BLOCK
  5
10A8
330
10A7
100
AcDbEntity
  8
0
100
AcDbBlockBegin
  2
*D32
 70
     1
 10
0.0
 20
0.0
 30
0.0
  3
*D32
  1

  0
LINE
  5
120D
330
10A7
100
AcDbEntity
  8
AM_5
100
AcDbLine
 10
136.741550418731
 20
141.3731555063745
 30
0.0
 11
136.9138966363212
 21
141.4813650007266
 31
0.0
  0
LINE
  5
120E
330
10A7
100
AcDbEntity
  8
AM_5
100
AcDbLine
 10
139.7230744848319
 20
133.8759589143089
 30
0.0
 11
139.4393496327821
 21
133.697819102454
 31
0.0
  0
LINE
  5
120F
330
10A7
100
AcDbEntity
  8
AM_5
100
AcDbLine
 10
137.3963399094539
 20
138.8323560373199
 30
0.0
 11
138.9569063596495
 21
136.3468280658607
 31
0.0
  0
LINE
  5
1210
330
10A7
100
AcDbEntity
  8
AM_5
100
AcDbLine
 10
140.2862570997316
 20
134.2295593984869
 30
0.0
 11
145.8999153678498
 21
125.2886362831195
 31
0.0
  0
SOLID
  5
1211
330
10A7
100
AcDbEntity
  8
AM_5
100
AcDbTrace
 10
137.7492180206828
 20
139.0539144940002
 30
0.0
 11
137.0434617982249
 21
138.6107975806394
 31
0.0
 12
136.0669891693718
 22
140.9496247046937
 32
0.0
 13
136.0669891693718
 23
140.9496247046937
 33
0.0
  0
SOLID
  5
1212
330
10A7
100
AcDbEntity
  8
AM_5
100
AcDbTrace
 10
139.3097844708784
 20
136.5683865225411
 30
0.0
 11
138.6040282484205
 21
136.1252696091804
 31
0.0
 12
140.2862570997316
 22
134.2295593984869
 32
0.0
 13
140.2862570997316
 23
134.2295593984869
 33
0.0
  0
MTEXT
  5
1213
330
10A7
100
AcDbEntity
  8
AM_5
 62
     2
100
AcDbMText
 10
145.8750302712057
 20
130.0298142471984
 30
0.0
 40
3.0
 41
0.0
 71
     5
 72
     1
  1
%%c20
 11
0.5317402960328504
 21
-0.8469074669495462
 31
0.0
 73
     1
 44
1.0
1001
ACAD
1000
MTEXTBEGIN
1070
    73
1070
     1
1070
    44
1040
1.0
1070
    74
1070
     0
1000
MTEXTEND
  0
POINT
  5
1214
330
10A7
100
AcDbEntity
  8
Defpoints
 62
     0
100
AcDbPoint
 10
135.8946429517815
 20
140.8414152103417
 30
0.0
  0
POINT
  5
1215
330
10A7
100
AcDbEntity
  8
Defpoints
 62
     0
100
AcDbPoint
 10
140.5699819517814
 20
134.4076992103417
 30
0.0
  0
POINT
  5
1216
330
10A7
100
AcDbEntity
  8
Defpoints
 62
     0
100
AcDbPoint
 10
140.2862570997316
 20
134.2295593984869
 30
0.0
  0
ENDBLK
  5
10A9
330
10A7
100
AcDbEntity
  8
0
100
AcDbBlockEnd
  0
BLOCK
  5
10E9
330
10E8
100
AcDbEntity
  8
0
100
AcDbBlockBegin
  2
*D33
 70
     1
 10
0.0
 20
0.0
 30
0.0
  3
*D33
  1

  0
LINE
  5
1115
330
10E8
100
AcDbEntity
  8
AM_5
100
AcDbLine
 10
152.0809944549603
 20
160.6046084459576
 30
0.0
 11
166.5182291049453
 21
178.1021284684645
 31
0.0
  0
LINE
  5
1116
330
10E8
100
AcDbEntity
  8
AM_5
100
AcDbLine
 10
158.2234616110807
 20
155.53644795529
 30
0.0
 11
172.6606962610656
 21
173.0339679777969
 31
0.0
  0
LINE
  5
1117
330
10E8
100
AcDbEntity
  8
AM_5
100
AcDbLine
 10
167.8101363080167
 20
175.7397195752684
 30
0.0
 11
170.0959297393959
 21
173.8537073810965
 31
0.0
  0
SOLID
  5
1118
330
10E8
100
AcDbEntity
  8
AM_5
100
AcDbTrace
 10
168.0753153327247
 20
176.0611090523302
 30
0.0
 11
167.5449572833088
 21
175.4183300982066
 31
0.0
 12
165.8817994456461
 22
177.3307937235163
 32
0.0
 13
165.8817994456461
 23
177.3307937235163
 33
0.0
  0
SOLID
  5
1119
330
10E8
100
AcDbEntity
  8
AM_5
100
AcDbTrace
 10
170.3611087641039
 20
174.1750968581582
 30
0.0
 11
169.8307507146879
 21
173.5323179040347
 31
0.0
 12
172.0242666017665
 22
172.2626332328486
 32
0.0
 13
172.0242666017665
 23
172.2626332328486
 33
0.0
  0
MTEXT
  5
111A
330
10E8
100
AcDbEntity
  8
AM_5
 62
     2
100
AcDbMText
 10
170.5441071719542
 20
176.7250503405531
 30
0.0
 40
3.0
 41
0.0
 71
     5
 72
     1
  1
20
 11
0.7713347449482431
 21
-0.6364296592991474
 31
0.0
 73
     1
 44
1.0
1001
ACAD
1000
MTEXTBEGIN
1070
    73
1070
     1
1070
    44
1040
1.0
1070
    74
1070
     0
1000
MTEXTEND
  0
POINT
  5
111B
330
10E8
100
AcDbEntity
  8
Defpoints
 62
     0
100
AcDbPoint
 10
151.4445647956612
 20
159.8332737010093
 30
0.0
  0
POINT
  5
111C
330
10E8
100
AcDbEntity
  8
Defpoints
 62
     0
100
AcDbPoint
 10
157.5870319517815
 20
154.7651132103417
 30
0.0
  0
POINT
  5
111D
330
10E8
100
AcDbEntity
  8
Defpoints
 62
     0
100
AcDbPoint
 10
172.0242666017665
 20
172.2626332328486
 30
0.0
  0
ENDBLK
  5
10EA
330
10E8
100
AcDbEntity
  8
0
100
AcDbBlockEnd
  0
BLOCK
  5
1120
330
111F
100
AcDbEntity
  8
0
100
AcDbBlockBegin
  2
*D34
 70
     1
 10
0.0
 20
0.0
 30
0.0
  3
*D34
  1

  0
LINE
  5
115B
330
111F
100
AcDbEntity
  8
AM_5
100
AcDbLine
 10
153.4219280997977
 20
159.5423219116326
 30
0.0
 11
157.8294903627583
 21
164.7842865828659
 31
0.0
  0
LINE
  5
115C
330
111F
100
AcDbEntity
  8
AM_5
100
AcDbLine
 10
157.1281620997977
 20
156.4257159116325
 30
0.0
 11
161.5358823638126
 21
161.6678684953433
 31
0.0
  0
LINE
  5
115D
330
111F
100
AcDbEntity
  8
AM_5
100
AcDbLine
 10
155.2724424615151
 20
165.6277947516156
 30
0.0
 11
153.358955708288
 21
167.2366976216562
 31
0.0
  0
LINE
  5
115E
330
111F
100
AcDbEntity
  8
AM_5
100
AcDbLine
 10
162.8058079690234
 20
159.293570924012
 30
0.0
 11
164.7192947222504
 21
157.6846680539714
 31
0.0
  0
LINE
  5
115F
330
111F
100
AcDbEntity
  8
AM_5
100
AcDbLine
 10
157.185929214742
 20
164.018891881575
 30
0.0
 11
160.8923212157964
 21
160.9024737940525
 31
0.0
  0
SOLID
  5
1160
330
111F
100
AcDbEntity
  8
AM_5
100
AcDbTrace
 10
155.5405929398551
 20
165.9467092104868
 30
0.0
 11
155.004291983175
 21
165.3088802927445
 31
0.0
 12
157.185929214742
 22
164.018891881575
 32
0.0
 13
157.185929214742
 23
164.018891881575
 33
0.0
  0
SOLID
  5
1161
330
111F
100
AcDbEntity
  8
AM_5
100
AcDbTrace
 10
163.0739584473634
 20
159.6124853828832
 30
0.0
 11
162.5376574906833
 21
158.9746564651408
 31
0.0
 12
160.8923212157964
 22
160.9024737940525
 32
0.0
 13
160.8923212157964
 23
160.9024737940525
 33
0.0
  0
MTEXT
  5
1162
330
111F
100
AcDbEntity
  8
AM_5
 62
     2
100
AcDbMText
 10
160.6480280853098
 20
164.3741695910408
 30
0.0
 40
3.0
 41
0.0
 71
     5
 72
     1
  1
12
 11
0.7653947012908119
 21
-0.6435611480162154
 31
0.0
 73
     1
 44
1.0
1001
ACAD
1000
MTEXTBEGIN
1070
    73
1070
     1
1070
    44
1040
1.0
1070
    74
1070
     0
1000
MTEXTEND
  0
POINT
  5
1163
330
111F
100
AcDbEntity
  8
Defpoints
 62
     0
100
AcDbPoint
 10
152.7783669517815
 20
158.7769272103418
 30
0.0
  0
POINT
  5
1164
330
111F
100
AcDbEntity
  8
Defpoints
 62
     0
100
AcDbPoint
 10
156.4846009517815
 20
155.6603212103417
 30
0.0
  0
POINT
  5
1165
330
111F
100
AcDbEntity
  8
Defpoints
 62
     0
100
AcDbPoint
 10
160.8923212157964
 20
160.9024737940525
 30
0.0
  0
ENDBLK
  5
1121
330
111F
100
AcDbEntity
  8
0
100
AcDbBlockEnd
  0
BLOCK
  5
1168
330
1167
100
AcDbEntity
  8
0
100
AcDbBlockBegin
  2
*D35
 70
     1
 10
0.0
 20
0.0
 30
0.0
  3
*D35
  1

  0
LINE
  5
11B9
330
1167
100
AcDbEntity
  8
AM_5
100
AcDbLine
 10
154.5105949093397
 20
135.0128965730437
 30
0.0
 11
154.4262942050829
 21
135.2212049010926
 31
0.0
  0
LINE
  5
11BA
330
1167
100
AcDbEntity
  8
AM_5
100
AcDbLine
 10
158.7824459942233
 20
135.0010508476398
 30
0.0
 11
158.8431319281228
 21
134.8510949778978
 31
0.0
  0
LINE
  5
11BB
330
1167
100
AcDbEntity
  8
AM_5
100
AcDbLine
 10
152.4840078407699
 20
133.3563929322861
 30
0.0
 11
150.166584434015
 21
132.4185503261817
 31
0.0
  0
LINE
  5
11BC
330
1167
100
AcDbEntity
  8
AM_5
100
AcDbLine
 10
160.7854182924359
 20
136.7159069467042
 30
0.0
 11
181.615744114295
 21
145.1457722004319
 31
0.0
  0
LINE
  5
11BD
330
1167
100
AcDbEntity
  8
AM_5
100
AcDbLine
 10
154.8014312475246
 20
134.2942355383906
 30
0.0
 11
158.467994885681
 21
135.7780643405998
 31
0.0
  0
SOLID
  5
11BE
330
1167
100
AcDbEntity
  8
AM_5
100
AcDbTrace
 10
152.3277007397525
 20
133.7426301667453
 30
0.0
 11
152.6403149417873
 21
132.9701556978269
 31
0.0
 12
154.8014312475246
 22
134.2942355383906
 32
0.0
 13
154.8014312475246
 23
134.2942355383906
 33
0.0
  0
SOLID
  5
11BF
330
1167
100
AcDbEntity
  8
AM_5
100
AcDbTrace
 10
160.6291111914184
 20
137.1021441811634
 30
0.0
 11
160.9417253934533
 21
136.3296697122451
 31
0.0
 12
158.467994885681
 22
135.7780643405998
 32
0.0
 13
158.467994885681
 23
135.7780643405998
 33
0.0
  0
MTEXT
  5
11C0
330
1167
100
AcDbEntity
  8
AM_5
 62
     2
100
AcDbMText
 10
174.5069340364891
 20
144.9658547246457
 30
0.0
 40
3.0
 41
0.0
 71
     5
 72
     1
  1
3-%%c10
 11
0.9269693627019316
 21
0.3751370424417921
 31
0.0
 73
     1
 44
1.0
1001
ACAD
1000
MTEXTBEGIN
1070
    73
1070
     1
1070
    44
1040
1.0
1070
    74
1070
     0
1000
MTEXTEND
  0
POINT
  5
11C1
330
1167
100
AcDbEntity
  8
Defpoints
 62
     0
100
AcDbPoint
 10
154.8857319517815
 20
134.0859272103417
 30
0.0
  0
POINT
  5
11C2
330
1167
100
AcDbEntity
  8
Defpoints
 62
     0
100
AcDbPoint
 10
158.4073089517815
 20
135.9280202103417
 30
0.0
  0
POINT
  5
11C3
330
1167
100
AcDbEntity
  8
Defpoints
 62
     0
100
AcDbPoint
 10
158.467994885681
 20
135.7780643405998
 30
0.0
  0
ENDBLK
  5
1169
330
1167
100
AcDbEntity
  8
0
100
AcDbBlockEnd
  0
BLOCK
  5
11C6
330
11C5
100
AcDbEntity
  8
0
100
AcDbBlockBegin
  2
*D36
 70
     1
 10
0.0
 20
0.0
 30
0.0
  3
*D36
  1

  0
LINE
  5
1238
330
11C5
100
AcDbEntity
  8
AM_5
100
AcDbLine
 10
152.6996607816864
 20
127.1860908025874
 30
0.0
 11
153.0628152038777
 21
127.5929973058482
 31
0.0
  0
LINE
  5
1239
330
11C5
100
AcDbEntity
  8
AM_5
100
AcDbLine
 10
154.2596791167339
 20
126.3201230064646
 30
0.0
 11
154.3613712395618
 21
126.4340667823915
 31
0.0
  0
LINE
  5
123A
330
11C5
100
AcDbEntity
  8
AM_5
100
AcDbLine
 10
150.5317605486182
 20
128.5115626721064
 30
0.0
 11
148.6665635583111
 21
130.1762068344875
 31
0.0
  0
LINE
  5
123B
330
11C5
100
AcDbEntity
  8
AM_5
100
AcDbLine
 10
155.5607105649165
 20
124.0233438238876
 30
0.0
 11
163.884808812354
 21
116.5942831795199
 31
0.0
  0
LINE
  5
123C
330
11C5
100
AcDbEntity
  8
AM_5
100
AcDbLine
 10
152.3969575389253
 20
126.8469185097253
 30
0.0
 11
153.6955135746094
 21
125.6879879862687
 31
0.0
  0
SOLID
  5
123D
330
11C5
100
AcDbEntity
  8
AM_5
100
AcDbTrace
 10
150.8092012423484
 20
128.8224288371576
 30
0.0
 11
150.2543198548881
 21
128.2006965070552
 31
0.0
 12
152.3969575389253
 22
126.8469185097253
 32
0.0
 13
152.3969575389253
 23
126.8469185097253
 33
0.0
  0
SOLID
  5
123E
330
11C5
100
AcDbEntity
  8
AM_5
100
AcDbTrace
 10
155.8381512586467
 20
124.3342099889388
 30
0.0
 11
155.2832698711863
 21
123.7124776588365
 31
0.0
 12
153.6955135746094
 22
125.6879879862687
 32
0.0
 13
153.6955135746094
 23
125.6879879862687
 33
0.0
  0
MTEXT
  5
123F
330
11C5
100
AcDbEntity
  8
AM_5
 62
     2
100
AcDbMText
 10
162.9275189197892
 20
120.799494249517
 30
0.0
 40
3.0
 41
0.0
 71
     5
 72
     1
  1
4.5
 11
0.7460787961228305
 21
-0.6658576649524342
 31
0.0
 73
     1
 44
1.0
1001
ACAD
1000
MTEXTBEGIN
1070
    73
1070
     1
1070
    44
1040
1.0
1070
    74
1070
     0
1000
MTEXTEND
  0
POINT
  5
1240
330
11C5
100
AcDbEntity
  8
Defpoints
 62
     0
100
AcDbPoint
 10
152.033803116734
 20
126.4400120064645
 30
0.0
  0
POINT
  5
1241
330
11C5
100
AcDbEntity
  8
Defpoints
 62
     0
100
AcDbPoint
 10
153.5938214517815
 20
125.5740442103417
 30
0.0
  0
POINT
  5
1242
330
11C5
100
AcDbEntity
  8
Defpoints
 62
     0
100
AcDbPoint
 10
153.6955135746094
 20
125.6879879862687
 30
0.0
  0
ENDBLK
  5
11C7
330
11C5
100
AcDbEntity
  8
0
100
AcDbBlockEnd
  0
ENDSEC
  0
SECTION
  2
ENTITIES
  0
MTEXT
  5
143
330
75
100
AcDbEntity
  8
レイヤー_1_0
 62
     7
100
AcDbMText
 10
70.25728882530639
 20
16.70127221824583
 30
0.0
 40
4.390912999999998
 41
0.0
 71
     1
 72
     2
  1
\fMS PGothic|b0|i0|c128;株式会社 ダイワインダストリ
  7
KANJISTD
 73
     1
 44
1.0
1001
ACAD
1000
MTEXTBEGIN
1070
    73
1070
     1
1070
    44
1040
1.0
1070
    74
1070
     0
1000
MTEXTEND
  0
LWPOLYLINE
  5
144
330
75
100
AcDbEntity
  8
枠
  6
Continuous
100
AcDbPolyline
 90
        4
 70
     1
 43
0.0
 10
0.0000005962378964
 20
0.0000004583823738
 10
210.0000005962379
 20
0.0000004583823738
 10
210.0000005962379
 20
297.0000004583824
 10
0.0000005962379248
 20
297.0000004583824
1001
GENIUS_GENREC_14
1002
{
1000
PYDIR
1011
0.0000005962379146
1021
297.0000004583824
1031
0.0
1002
}
1002
{
1000
PXDIR
1011
210.0000005962379
1021
0.0000004583823738
1031
0.0
1002
}
1002
{
1000
PORI
1011
0.0000005962378964
1021
0.0000004583823738
1031
0.0
1002
}
1002
{
1000
PINS
1011
0.0000005962378964
1021
0.0000004583823738
1031
0.0
1002
}
1002
{
1000
PINS2
1011
210.0000005962379
1021
297.0000004583824
1031
0.0
1002
}
1002
{
1000
C
1070
     1
1002
}
1001
GENIUS_GENOBJ-N-REC_13
1002
{
1000
OWNER
1000
GEN
1002
}
1001
GENIUS_GENODEF_13
1002
{
1000
HIER
1070
     0
1002
}
1002
{
1000
MANEDIT
1070
     0
1002
}
1002
{
1000
NOSEL
1070
     0
1002
}
1002
{
1000
BEHIND
1070
     0
1002
}
1002
{
1000
OTHER
1070
     0
1002
}
1002
{
1000
REACTOR
1002
}
  0
LWPOLYLINE
  5
145
330
75
100
AcDbEntity
  8
外形線
  6
Continuous
100
AcDbPolyline
 90
        4
 70
     1
 43
0.0
 10
11.60259079470369
 20
280.2064268369188
 10
196.3427498015165
 20
280.2064268369188
 10
196.3427498015165
 20
24.16351391153563
 10
11.60259079470367
 20
24.16351391153565
1001
GENIUS_GENREC_14
1002
{
1000
PYDIR
1011
11.60259079470368
1021
24.16351391153563
1031
0.0
1002
}
1002
{
1000
PXDIR
1011
196.3427498015165
1021
280.2064268369188
1031
0.0
1002
}
1002
{
1000
PORI
1011
11.60259079470369
1021
280.2064268369188
1031
0.0
1002
}
1002
{
1000
PINS
1011
11.60259079470369
1021
280.2064268369188
1031
0.0
1002
}
1002
{
1000
PINS2
1011
196.3427498015165
1021
24.16351391153563
1031
0.0
1002
}
1002
{
1000
C
1070
     1
1002
}
1001
GENIUS_GENODEF_13
1002
{
1000
HIER
1070
     0
1002
}
1002
{
1000
MANEDIT
1070
     0
1002
}
1002
{
1000
NOSEL
1070
     0
1002
}
1002
{
1000
BEHIND
1070
     0
1002
}
1002
{
1000
OTHER
1070
     0
1002
}
1002
{
1000
REACTOR
1002
}
1001
GENIUS_GENOBJ-N-REC_13
1002
{
1000
OWNER
1000
GEN
1002
}
  0
MTEXT
  5
146
330
75
100
AcDbEntity
  8
外形線
  6
Continuous
100
AcDbMText
 10
13.91068452073341
 20
31.00153342264298
 30
0.0
 40
4.0
 41
85.59488932217835
 71
     1
 72
     5
  1
{\fMS PGothic|b0|i0|c128|p50;\W1;品名：ドーム型ダミーカメラ}
 73
     1
 44
1.0
1001
ACAD
1000
MTEXTBEGIN
1070
    73
1070
     1
1070
    44
1040
1.0
1070
    74
1070
     0
1000
MTEXTEND
1000
ACAD_MTEXT_DEFINED_HEIGHT_BEGIN
1070
    46
1040
10.33309109091124
1000
ACAD_MTEXT_DEFINED_HEIGHT_END
  0
MTEXT
  5
147
330
75
100
AcDbEntity
  8
外形線
  6
Continuous
100
AcDbMText
 10
101.7136921777195
 20
30.65536822327544
 30
0.0
 40
4.0
 41
62.79417921438346
 71
     1
 72
     5
  1
{\fMS PGothic|b0|i0|c128|p50;\W1;品番：SE-9332D}
 73
     1
 44
1.0
1001
ACAD
1000
MTEXTBEGIN
1070
    73
1070
     1
1070
    44
1040
1.0
1070
    74
1070
     0
1000
MTEXTEND
1000
ACAD_MTEXT_DEFINED_HEIGHT_BEGIN
1070
    46
1040
5.173549736409313
1000
ACAD_MTEXT_DEFINED_HEIGHT_END
  0
MTEXT
  5
148
330
75
100
AcDbEntity
  8
外形線
  6
Continuous
100
AcDbMText
 10
168.3287606251567
 20
29.84595850511801
 30
0.0
 40
3.5
 41
25.04345815552802
 71
     1
 72
     5
  1
{\fMS PGothic|b0|i0|c128|p50;\W1;No.：1/1}
 73
     1
 44
1.0
1001
ACAD
1000
MTEXTBEGIN
1070
    73
1070
     1
1070
    44
1040
1.0
1070
    74
1070
     0
1000
MTEXTEND
1000
ACAD_MTEXT_DEFINED_HEIGHT_BEGIN
1070
    46
1040
4.957403205357532
1000
ACAD_MTEXT_DEFINED_HEIGHT_END
  0
MTEXT
  5
154
330
75
100
AcDbEntity
  8
レイヤー_1_0
 62
     7
100
AcDbMText
 10
18.18553122906851
 20
271.3098666133168
 30
0.0
 40
2.744320999999998
 41
0.0
 71
     1
 72
     2
  1
\fMS PGothic|b0|i0|c128;■ 外形図
  7
KANJISTD
 73
     1
 44
1.0
1001
ACAD
1000
MTEXTBEGIN
1070
    73
1070
     1
1070
    44
1040
1.0
1070
    74
1070
     0
1000
MTEXTEND
  0
LINE
  5
155
330
75
100
AcDbEntity
  8
外形線
  6
Continuous
100
AcDbLine
 10
11.65926085451633
 20
32.1199291769567
 30
0.0
 11
196.3435303386709
 21
32.1199291769567
 31
0.0
  0
MTEXT
  5
156
330
75
100
AcDbEntity
  8
枠
  6
Continuous
100
AcDbMText
 10
178.9060871603465
 20
42.63997074936265
 30
0.0
 40
3.0
 41
18.0892528424788
 71
     1
 72
     5
  1
(mm)
 73
     1
 44
1.0
1001
ACAD
1000
MTEXTBEGIN
1070
    73
1070
     1
1070
    44
1040
1.0
1070
    74
1070
     0
1000
MTEXTEND
  0
LINE
  5
1B5
330
75
100
AcDbEntity
  8
外形線
  6
Continuous
100
AcDbLine
 10
100.1244175688603
 20
32.1042682801114
 30
0.0
 11
100.1244175688603
 21
24.16625294823945
 31
0.0
  0
LINE
  5
1B6
330
75
100
AcDbEntity
  8
外形線
  6
Continuous
100
AcDbLine
 10
166.2523584809159
 20
32.1178433227995
 30
0.0
 11
166.2523584809159
 21
24.17761320759633
 31
0.0
  0
POLYLINE
  5
A51
330
75
100
AcDbEntity
  8
レイヤー_1
 62
     7
100
AcDb2dPolyline
 66
     1
 10
0.0
 20
0.0
 30
0.0
  0
VERTEX
  5
A52
330
A51
100
AcDbEntity
  8
レイヤー_1
 62
     7
100
AcDbVertex
100
AcDb2dVertex
 10
66.75295495178153
 20
230.279270897541
 30
0.0
  0
VERTEX
  5
A53
330
A51
100
AcDbEntity
  8
レイヤー_1
 62
     7
100
AcDbVertex
100
AcDb2dVertex
 10
66.86870995178153
 20
230.311310897541
 30
0.0
  0
VERTEX
  5
A54
330
A51
100
AcDbEntity
  8
レイヤー_1
 62
     7
100
AcDbVertex
100
AcDb2dVertex
 10
66.95242595178154
 20
230.395025897541
 30
0.0
  0
VERTEX
  5
A55
330
A51
100
AcDbEntity
  8
レイヤー_1
 62
     7
100
AcDbVertex
100
AcDb2dVertex
 10
66.98549895178155
 20
230.512159897541
 30
0.0
  0
SEQEND
  5
A56
330
A51
100
AcDbEntity
  8
レイヤー_1
 62
     7
  0
LINE
  5
A57
330
75
100
AcDbEntity
  8
レイヤー_1
 62
     7
100
AcDbLine
 10
66.98549895178155
 20
230.512159897541
 30
0.0
 11
66.98549895178155
 21
234.253532897541
 31
0.0
  0
POLYLINE
  5
A58
330
75
100
AcDbEntity
  8
レイヤー_1
 62
     7
100
AcDb2dPolyline
 66
     1
 10
0.0
 20
0.0
 30
0.0
  0
VERTEX
  5
A59
330
A58
100
AcDbEntity
  8
レイヤー_1
 62
     7
100
AcDbVertex
100
AcDb2dVertex
 10
66.50921495178154
 20
230.512159897541
 30
0.0
  0
VERTEX
  5
A5A
330
A58
100
AcDbEntity
  8
レイヤー_1
 62
     7
100
AcDbVertex
100
AcDb2dVertex
 10
66.54125395178154
 20
230.395025897541
 30
0.0
  0
VERTEX
  5
A5B
330
A58
100
AcDbEntity
  8
レイヤー_1
 62
     7
100
AcDbVertex
100
AcDb2dVertex
 10
66.62617595178153
 20
230.311310897541
 30
0.0
  0
VERTEX
  5
A5C
330
A58
100
AcDbEntity
  8
レイヤー_1
 62
     7
100
AcDbVertex
100
AcDb2dVertex
 10
66.75295495178153
 20
230.279270897541
 30
0.0
  0
SEQEND
  5
A5D
330
A58
100
AcDbEntity
  8
レイヤー_1
 62
     7
  0
LINE
  5
A5E
330
75
100
AcDbEntity
  8
レイヤー_1
 62
     7
100
AcDbLine
 10
66.50921495178154
 20
230.512159897541
 30
0.0
 11
66.50921495178154
 21
234.253532897541
 31
0.0
  0
POLYLINE
  5
A5F
330
75
100
AcDbEntity
  8
レイヤー_1
 62
     7
100
AcDb2dPolyline
 66
     1
 10
0.0
 20
0.0
 30
0.0
  0
VERTEX
  5
A60
330
A5F
100
AcDbEntity
  8
レイヤー_1
 62
     7
100
AcDbVertex
100
AcDb2dVertex
 10
65.75852795178153
 20
230.279270897541
 30
0.0
  0
VERTEX
  5
A61
330
A5F
100
AcDbEntity
  8
レイヤー_1
 62
     7
100
AcDbVertex
100
AcDb2dVertex
 10
65.87428295178153
 20
230.311310897541
 30
0.0
  0
VERTEX
  5
A62
330
A5F
100
AcDbEntity
  8
レイヤー_1
 62
     7
100
AcDbVertex
100
AcDb2dVertex
 10
65.95920495178154
 20
230.395025897541
 30
0.0
  0
VERTEX
  5
A63
330
A5F
100
AcDbEntity
  8
レイヤー_1
 62
     7
100
AcDbVertex
100
AcDb2dVertex
 10
65.99107195178155
 20
230.512159897541
 30
0.0
  0
SEQEND
  5
A64
330
A5F
100
AcDbEntity
  8
レイヤー_1
 62
     7
  0
LINE
  5
A65
330
75
100
AcDbEntity
  8
レイヤー_1
 62
     7
100
AcDbLine
 10
65.99107195178155
 20
230.512159897541
 30
0.0
 11
65.99107195178155
 21
234.253532897541
 31
0.0
  0
POLYLINE
  5
A66
330
75
100
AcDbEntity
  8
レイヤー_1
 62
     7
100
AcDb2dPolyline
 66
     1
 10
0.0
 20
0.0
 30
0.0
  0
VERTEX
  5
A67
330
A66
100
AcDbEntity
  8
レイヤー_1
 62
     7
100
AcDbVertex
100
AcDb2dVertex
 10
65.51478795178153
 20
230.512159897541
 30
0.0
  0
VERTEX
  5
A68
330
A66
100
AcDbEntity
  8
レイヤー_1
 62
     7
100
AcDbVertex
100
AcDb2dVertex
 10
65.54786095178155
 20
230.395025897541
 30
0.0
  0
VERTEX
  5
A69
330
A66
100
AcDbEntity
  8
レイヤー_1
 62
     7
100
AcDbVertex
100
AcDb2dVertex
 10
65.63174895178154
 20
230.311310897541
 30
0.0
  0
VERTEX
  5
A6A
330
A66
100
AcDbEntity
  8
レイヤー_1
 62
     7
100
AcDbVertex
100
AcDb2dVertex
 10
65.75852795178153
 20
230.279270897541
 30
0.0
  0
SEQEND
  5
A6B
330
A66
100
AcDbEntity
  8
レイヤー_1
 62
     7
  0
LINE
  5
A6C
330
75
100
AcDbEntity
  8
レイヤー_1
 62
     7
100
AcDbLine
 10
65.51478795178153
 20
230.512159897541
 30
0.0
 11
65.51478795178153
 21
234.253532897541
 31
0.0
  0
POLYLINE
  5
A6D
330
75
100
AcDbEntity
  8
レイヤー_1
 62
     7
100
AcDb2dPolyline
 66
     1
 10
0.0
 20
0.0
 30
0.0
  0
VERTEX
  5
A6E
330
A6D
100
AcDbEntity
  8
レイヤー_1
 62
     7
100
AcDbVertex
100
AcDb2dVertex
 10
62.77645395178153
 20
230.279270897541
 30
0.0
  0
VERTEX
  5
A6F
330
A6D
100
AcDbEntity
  8
レイヤー_1
 62
     7
100
AcDbVertex
100
AcDb2dVertex
 10
62.89220895178154
 20
230.311310897541
 30
0.0
  0
VERTEX
  5
A70
330
A6D
100
AcDbEntity
  8
レイヤー_1
 62
     7
100
AcDbVertex
100
AcDb2dVertex
 10
62.97712995178152
 20
230.395025897541
 30
0.0
  0
VERTEX
  5
A71
330
A6D
100
AcDbEntity
  8
レイヤー_1
 62
     7
100
AcDbVertex
100
AcDb2dVertex
 10
63.00796395178153
 20
230.512159897541
 30
0.0
  0
SEQEND
  5
A72
330
A6D
100
AcDbEntity
  8
レイヤー_1
 62
     7
  0
LINE
  5
A73
330
75
100
AcDbEntity
  8
レイヤー_1
 62
     7
100
AcDbLine
 10
63.00796395178153
 20
230.512159897541
 30
0.0
 11
63.00796395178153
 21
234.253532897541
 31
0.0
  0
POLYLINE
  5
A74
330
75
100
AcDbEntity
  8
レイヤー_1
 62
     7
100
AcDb2dPolyline
 66
     1
 10
0.0
 20
0.0
 30
0.0
  0
VERTEX
  5
A75
330
A74
100
AcDbEntity
  8
レイヤー_1
 62
     7
100
AcDbVertex
100
AcDb2dVertex
 10
62.53271295178153
 20
230.512159897541
 30
0.0
  0
VERTEX
  5
A76
330
A74
100
AcDbEntity
  8
レイヤー_1
 62
     7
100
AcDbVertex
100
AcDb2dVertex
 10
62.56475195178153
 20
230.395025897541
 30
0.0
  0
VERTEX
  5
A77
330
A74
100
AcDbEntity
  8
レイヤー_1
 62
     7
100
AcDbVertex
100
AcDb2dVertex
 10
62.64846795178154
 20
230.311310897541
 30
0.0
  0
VERTEX
  5
A78
330
A74
100
AcDbEntity
  8
レイヤー_1
 62
     7
100
AcDbVertex
100
AcDb2dVertex
 10
62.77645395178153
 20
230.279270897541
 30
0.0
  0
SEQEND
  5
A79
330
A74
100
AcDbEntity
  8
レイヤー_1
 62
     7
  0
LINE
  5
A7A
330
75
100
AcDbEntity
  8
レイヤー_1
 62
     7
100
AcDbLine
 10
62.53271295178153
 20
230.512159897541
 30
0.0
 11
62.53271295178153
 21
234.253532897541
 31
0.0
  0
POLYLINE
  5
A7B
330
75
100
AcDbEntity
  8
レイヤー_1
 62
     7
100
AcDb2dPolyline
 66
     1
 10
0.0
 20
0.0
 30
0.0
  0
VERTEX
  5
A7C
330
A7B
100
AcDbEntity
  8
レイヤー_1
 62
     7
100
AcDbVertex
100
AcDb2dVertex
 10
63.77087995178154
 20
230.279270897541
 30
0.0
  0
VERTEX
  5
A7D
330
A7B
100
AcDbEntity
  8
レイヤー_1
 62
     7
100
AcDbVertex
100
AcDb2dVertex
 10
63.88663595178154
 20
230.311310897541
 30
0.0
  0
VERTEX
  5
A7E
330
A7B
100
AcDbEntity
  8
レイヤー_1
 62
     7
100
AcDbVertex
100
AcDb2dVertex
 10
63.97138495178154
 20
230.395025897541
 30
0.0
  0
VERTEX
  5
A7F
330
A7B
100
AcDbEntity
  8
レイヤー_1
 62
     7
100
AcDbVertex
100
AcDb2dVertex
 10
64.00239095178154
 20
230.512159897541
 30
0.0
  0
SEQEND
  5
A80
330
A7B
100
AcDbEntity
  8
レイヤー_1
 62
     7
  0
LINE
  5
A81
330
75
100
AcDbEntity
  8
レイヤー_1
 62
     7
100
AcDbLine
 10
64.00239095178154
 20
230.512159897541
 30
0.0
 11
64.00239095178154
 21
234.253532897541
 31
0.0
  0
POLYLINE
  5
A82
330
75
100
AcDbEntity
  8
レイヤー_1
 62
     7
100
AcDb2dPolyline
 66
     1
 10
0.0
 20
0.0
 30
0.0
  0
VERTEX
  5
A83
330
A82
100
AcDbEntity
  8
レイヤー_1
 62
     7
100
AcDbVertex
100
AcDb2dVertex
 10
63.52713995178152
 20
230.512159897541
 30
0.0
  0
VERTEX
  5
A84
330
A82
100
AcDbEntity
  8
レイヤー_1
 62
     7
100
AcDbVertex
100
AcDb2dVertex
 10
63.55917895178153
 20
230.395025897541
 30
0.0
  0
VERTEX
  5
A85
330
A82
100
AcDbEntity
  8
レイヤー_1
 62
     7
100
AcDbVertex
100
AcDb2dVertex
 10
63.64289495178154
 20
230.311310897541
 30
0.0
  0
VERTEX
  5
A86
330
A82
100
AcDbEntity
  8
レイヤー_1
 62
     7
100
AcDbVertex
100
AcDb2dVertex
 10
63.77087995178154
 20
230.279270897541
 30
0.0
  0
SEQEND
  5
A87
330
A82
100
AcDbEntity
  8
レイヤー_1
 62
     7
  0
LINE
  5
A88
330
75
100
AcDbEntity
  8
レイヤー_1
 62
     7
100
AcDbLine
 10
63.52713995178152
 20
230.512159897541
 30
0.0
 11
63.52713995178152
 21
234.253532897541
 31
0.0
  0
POLYLINE
  5
A89
330
75
100
AcDbEntity
  8
レイヤー_1
 62
     7
100
AcDb2dPolyline
 66
     1
 10
0.0
 20
0.0
 30
0.0
  0
VERTEX
  5
A8A
330
A89
100
AcDbEntity
  8
レイヤー_1
 62
     7
100
AcDbVertex
100
AcDb2dVertex
 10
64.76513495178155
 20
230.279270897541
 30
0.0
  0
VERTEX
  5
A8B
330
A89
100
AcDbEntity
  8
レイヤー_1
 62
     7
100
AcDbVertex
100
AcDb2dVertex
 10
64.88088995178154
 20
230.311310897541
 30
0.0
  0
VERTEX
  5
A8C
330
A89
100
AcDbEntity
  8
レイヤー_1
 62
     7
100
AcDbVertex
100
AcDb2dVertex
 10
64.96581195178155
 20
230.395025897541
 30
0.0
  0
VERTEX
  5
A8D
330
A89
100
AcDbEntity
  8
レイヤー_1
 62
     7
100
AcDbVertex
100
AcDb2dVertex
 10
64.99664495178155
 20
230.512159897541
 30
0.0
  0
SEQEND
  5
A8E
330
A89
100
AcDbEntity
  8
レイヤー_1
 62
     7
  0
LINE
  5
A8F
330
75
100
AcDbEntity
  8
レイヤー_1
 62
     7
100
AcDbLine
 10
64.99664495178155
 20
230.512159897541
 30
0.0
 11
64.99664495178155
 21
234.253532897541
 31
0.0
  0
POLYLINE
  5
A90
330
75
100
AcDbEntity
  8
レイヤー_1
 62
     7
100
AcDb2dPolyline
 66
     1
 10
0.0
 20
0.0
 30
0.0
  0
VERTEX
  5
A91
330
A90
100
AcDbEntity
  8
レイヤー_1
 62
     7
100
AcDbVertex
100
AcDb2dVertex
 10
64.52053295178155
 20
230.512159897541
 30
0.0
  0
VERTEX
  5
A92
330
A90
100
AcDbEntity
  8
レイヤー_1
 62
     7
100
AcDbVertex
100
AcDb2dVertex
 10
64.55360595178153
 20
230.395025897541
 30
0.0
  0
VERTEX
  5
A93
330
A90
100
AcDbEntity
  8
レイヤー_1
 62
     7
100
AcDbVertex
100
AcDb2dVertex
 10
64.63732195178154
 20
230.311310897541
 30
0.0
  0
VERTEX
  5
A94
330
A90
100
AcDbEntity
  8
レイヤー_1
 62
     7
100
AcDbVertex
100
AcDb2dVertex
 10
64.76513495178155
 20
230.279270897541
 30
0.0
  0
SEQEND
  5
A95
330
A90
100
AcDbEntity
  8
レイヤー_1
 62
     7
  0
LINE
  5
A96
330
75
100
AcDbEntity
  8
レイヤー_1
 62
     7
100
AcDbLine
 10
64.52053295178155
 20
230.512159897541
 30
0.0
 11
64.52053295178155
 21
234.253532897541
 31
0.0
  0
LINE
  5
A97
330
75
100
AcDbEntity
  8
レイヤー_1
 62
     7
100
AcDbLine
 10
63.52713995178152
 20
234.253532897541
 30
0.0
 11
63.00796395178153
 21
234.253532897541
 31
0.0
  0
LINE
  5
A98
330
75
100
AcDbEntity
  8
レイヤー_1
 62
     7
100
AcDbLine
 10
64.76513495178155
 20
231.863670897541
 30
0.0
 11
64.76513495178155
 21
231.863670897541
 31
0.0
  0
LINE
  5
A99
330
75
100
AcDbEntity
  8
レイヤー_1
 62
     7
100
AcDbLine
 10
64.52053295178155
 20
234.253532897541
 30
0.0
 11
64.00239095178154
 21
234.253532897541
 31
0.0
  0
LINE
  5
A9A
330
75
100
AcDbEntity
  8
レイヤー_1
 62
     7
100
AcDbLine
 10
65.51478795178153
 20
234.253532897541
 30
0.0
 11
64.99664495178155
 21
234.253532897541
 31
0.0
  0
LINE
  5
A9B
330
75
100
AcDbEntity
  8
レイヤー_1
 62
     7
100
AcDbLine
 10
66.50921495178154
 20
234.253532897541
 30
0.0
 11
65.99107195178155
 21
234.253532897541
 31
0.0
  0
LINE
  5
A9C
330
75
100
AcDbEntity
  8
レイヤー_1
 62
     7
100
AcDbLine
 10
89.61839795178155
 20
234.242508897541
 30
0.0
 11
86.63632395178153
 21
234.253532897541
 31
0.0
  0
LINE
  5
A9D
330
75
100
AcDbEntity
  8
レイヤー_1
 62
     7
100
AcDbLine
 10
39.89981395178154
 20
234.253532897541
 30
0.0
 11
42.88188795178154
 21
234.253532897541
 31
0.0
  0
LINE
  5
A9E
330
75
100
AcDbEntity
  8
レイヤー_1
 62
     7
100
AcDbLine
 10
40.50287795178152
 20
220.334313897541
 30
0.0
 11
89.02756395178155
 21
220.323289897541
 31
0.0
  0
LINE
  5
A9F
330
75
100
AcDbEntity
  8
レイヤー_1
 62
     7
100
AcDbLine
 10
67.93806795178153
 20
234.253532897541
 30
0.0
 11
61.58031595178155
 21
234.253532897541
 31
0.0
  0
LINE
  5
AA0
330
75
100
AcDbEntity
  8
レイヤー_1
 62
     7
100
AcDbLine
 10
90.61282495178152
 20
234.242508897541
 30
0.0
 11
89.61839795178155
 21
234.242508897541
 31
0.0
  0
POLYLINE
  5
AA1
102
{ACAD_REACTORS
330
F53
102
}
330
75
100
AcDbEntity
  8
レイヤー_1
 62
     7
100
AcDb2dPolyline
 66
     1
 10
0.0
 20
0.0
 30
0.0
  0
VERTEX
  5
AA2
102
{ACAD_REACTORS
330
F53
102
}
330
AA1
100
AcDbEntity
  8
レイヤー_1
 62
     7
100
AcDbVertex
100
AcDb2dVertex
 10
89.02756395178155
 20
220.323289897541
 30
0.0
  0
VERTEX
  5
AA3
330
AA1
100
AcDbEntity
  8
レイヤー_1
 62
     7
100
AcDbVertex
100
AcDb2dVertex
 10
89.23805995178154
 20
220.376343897541
 30
0.0
  0
VERTEX
  5
AA4
330
AA1
100
AcDbEntity
  8
レイヤー_1
 62
     7
100
AcDbVertex
100
AcDb2dVertex
 10
89.41789395178153
 20
220.514147897541
 30
0.0
  0
VERTEX
  5
AA5
330
AA1
100
AcDbEntity
  8
レイヤー_1
 62
     7
100
AcDbVertex
100
AcDb2dVertex
 10
89.51263395178154
 20
220.715685897541
 30
0.0
  0
SEQEND
  5
AA6
330
AA1
100
AcDbEntity
  8
レイヤー_1
 62
     7
  0
POLYLINE
  5
AA7
102
{ACAD_REACTORS
330
EF4
102
}
330
75
100
AcDbEntity
  8
レイヤー_1
 62
     7
100
AcDb2dPolyline
 66
     1
 10
0.0
 20
0.0
 30
0.0
  0
VERTEX
  5
AA8
330
AA7
100
AcDbEntity
  8
レイヤー_1
 62
     7
100
AcDbVertex
100
AcDb2dVertex
 10
89.51263395178154
 20
220.715685897541
 30
0.0
  0
VERTEX
  5
AA9
330
AA7
100
AcDbEntity
  8
レイヤー_1
 62
     7
100
AcDbVertex
100
AcDb2dVertex
 10
89.93603595178154
 20
222.945006897541
 30
0.0
  0
VERTEX
  5
AAA
330
AA7
100
AcDbEntity
  8
レイヤー_1
 62
     7
100
AcDbVertex
100
AcDb2dVertex
 10
90.26435395178154
 20
225.185007897541
 30
0.0
  0
VERTEX
  5
AAB
330
AA7
100
AcDbEntity
  8
レイヤー_1
 62
     7
100
AcDbVertex
100
AcDb2dVertex
 10
90.49586395178151
 20
227.447402897541
 30
0.0
  0
VERTEX
  5
AAC
330
AA7
100
AcDbEntity
  8
レイヤー_1
 62
     7
100
AcDbVertex
100
AcDb2dVertex
 10
90.63263395178154
 20
229.709451897541
 30
0.0
  0
VERTEX
  5
AAD
102
{ACAD_REACTORS
330
EF4
102
}
330
AA7
100
AcDbEntity
  8
レイヤー_1
 62
     7
100
AcDbVertex
100
AcDb2dVertex
 10
90.67673195178157
 20
231.970468897541
 30
0.0
  0
VERTEX
  5
AAE
330
AA7
100
AcDbEntity
  8
レイヤー_1
 62
     7
100
AcDbVertex
100
AcDb2dVertex
 10
90.61282495178152
 20
234.242508897541
 30
0.0
  0
SEQEND
  5
AAF
330
AA7
100
AcDbEntity
  8
レイヤー_1
 62
     7
  0
LINE
  5
AB0
330
75
100
AcDbEntity
  8
レイヤー_1
 62
     7
100
AcDbLine
 10
67.93806795178153
 20
234.253532897541
 30
0.0
 11
86.63632395178153
 21
234.253532897541
 31
0.0
  0
LINE
  5
AB1
330
75
100
AcDbEntity
  8
レイヤー_1
 62
     7
100
AcDbLine
 10
38.90555895178155
 20
234.253532897541
 30
0.0
 11
39.89981395178154
 21
234.253532897541
 31
0.0
  0
POLYLINE
  5
AB2
330
75
100
AcDbEntity
  8
レイヤー_1
 62
     7
100
AcDb2dPolyline
 66
     1
 10
0.0
 20
0.0
 30
0.0
  0
VERTEX
  5
AB3
330
AB2
100
AcDbEntity
  8
レイヤー_1
 62
     7
100
AcDbVertex
100
AcDb2dVertex
 10
40.01556895178153
 20
220.725676897541
 30
0.0
  0
VERTEX
  5
AB4
330
AB2
100
AcDbEntity
  8
レイヤー_1
 62
     7
100
AcDbVertex
100
AcDb2dVertex
 10
40.11048095178153
 20
220.524138897541
 30
0.0
  0
VERTEX
  5
AB5
330
AB2
100
AcDbEntity
  8
レイヤー_1
 62
     7
100
AcDbVertex
100
AcDb2dVertex
 10
40.28015195178154
 20
220.387368897541
 30
0.0
  0
VERTEX
  5
AB6
330
AB2
100
AcDbEntity
  8
レイヤー_1
 62
     7
100
AcDbVertex
100
AcDb2dVertex
 10
40.50287795178152
 20
220.334313897541
 30
0.0
  0
SEQEND
  5
AB7
330
AB2
100
AcDbEntity
  8
レイヤー_1
 62
     7
  0
POLYLINE
  5
AB8
102
{ACAD_REACTORS
330
EF4
102
}
330
75
100
AcDbEntity
  8
レイヤー_1
 62
     7
100
AcDb2dPolyline
 66
     1
 10
0.0
 20
0.0
 30
0.0
  0
VERTEX
  5
AB9
102
{ACAD_REACTORS
330
EF4
102
}
330
AB8
100
AcDbEntity
  8
レイヤー_1
 62
     7
100
AcDbVertex
100
AcDb2dVertex
 10
38.90555895178155
 20
234.253532897541
 30
0.0
  0
VERTEX
  5
ABA
330
AB8
100
AcDbEntity
  8
レイヤー_1
 62
     7
100
AcDbVertex
100
AcDb2dVertex
 10
38.84268595178154
 20
231.980458897541
 30
0.0
  0
VERTEX
  5
ABB
330
AB8
100
AcDbEntity
  8
レイヤー_1
 62
     7
100
AcDbVertex
100
AcDb2dVertex
 10
38.88454395178154
 20
229.720476897541
 30
0.0
  0
VERTEX
  5
ABC
330
AB8
100
AcDbEntity
  8
レイヤー_1
 62
     7
100
AcDbVertex
100
AcDb2dVertex
 10
39.02131395178154
 20
227.458426897541
 30
0.0
  0
VERTEX
  5
ABD
330
AB8
100
AcDbEntity
  8
レイヤー_1
 62
     7
100
AcDbVertex
100
AcDb2dVertex
 10
39.25385795178154
 20
225.196032897541
 30
0.0
  0
VERTEX
  5
ABE
330
AB8
100
AcDbEntity
  8
レイヤー_1
 62
     7
100
AcDbVertex
100
AcDb2dVertex
 10
39.58234795178153
 20
222.956031897541
 30
0.0
  0
VERTEX
  5
ABF
330
AB8
100
AcDbEntity
  8
レイヤー_1
 62
     7
100
AcDbVertex
100
AcDb2dVertex
 10
40.01556895178153
 20
220.725676897541
 30
0.0
  0
SEQEND
  5
AC0
330
AB8
100
AcDbEntity
  8
レイヤー_1
 62
     7
  0
LINE
  5
AC1
330
75
100
AcDbEntity
  8
レイヤー_1
 62
     7
100
AcDbLine
 10
61.58031595178155
 20
234.253532897541
 30
0.0
 11
42.88188795178154
 21
234.253532897541
 31
0.0
  0
POLYLINE
  5
AC2
102
{ACAD_REACTORS
330
F32
102
}
330
75
100
AcDbEntity
  8
レイヤー_1
 62
     7
100
AcDb2dPolyline
 66
     1
 10
0.0
 20
0.0
 30
0.0
  0
VERTEX
  5
AC3
330
AC2
100
AcDbEntity
  8
レイヤー_1
 62
     7
100
AcDbVertex
100
AcDb2dVertex
 10
41.29559395178154
 20
220.334313897541
 30
0.0
  0
VERTEX
  5
AC4
330
AC2
100
AcDbEntity
  8
レイヤー_1
 62
     7
100
AcDbVertex
100
AcDb2dVertex
 10
41.34744295178154
 20
218.727176897541
 30
0.0
  0
VERTEX
  5
AC5
330
AC2
100
AcDbEntity
  8
レイヤー_1
 62
     7
100
AcDbVertex
100
AcDb2dVertex
 10
41.50608995178154
 20
217.142777897541
 30
0.0
  0
VERTEX
  5
AC6
330
AC2
100
AcDbEntity
  8
レイヤー_1
 62
     7
100
AcDbVertex
100
AcDb2dVertex
 10
41.78169695178154
 20
215.556310897541
 30
0.0
  0
VERTEX
  5
AC7
330
AC2
100
AcDbEntity
  8
レイヤー_1
 62
     7
100
AcDbVertex
100
AcDb2dVertex
 10
42.16324095178154
 20
214.004295897541
 30
0.0
  0
VERTEX
  5
AC8
330
AC2
100
AcDbEntity
  8
レイヤー_1
 62
     7
100
AcDbVertex
100
AcDb2dVertex
 10
42.64831095178154
 20
212.481907897541
 30
0.0
  0
VERTEX
  5
AC9
330
AC2
100
AcDbEntity
  8
レイヤー_1
 62
     7
100
AcDbVertex
100
AcDb2dVertex
 10
43.23139295178154
 20
210.992248897541
 30
0.0
  0
VERTEX
  5
ACA
330
AC2
100
AcDbEntity
  8
レイヤー_1
 62
     7
100
AcDbVertex
100
AcDb2dVertex
 10
43.91817295178152
 20
209.543929897541
 30
0.0
  0
VERTEX
  5
ACB
330
AC2
100
AcDbEntity
  8
レイヤー_1
 62
     7
100
AcDbVertex
100
AcDb2dVertex
 10
44.70089895178154
 20
208.147977897541
 30
0.0
  0
VERTEX
  5
ACC
330
AC2
100
AcDbEntity
  8
レイヤー_1
 62
     7
100
AcDbVertex
100
AcDb2dVertex
 10
45.57853695178152
 20
206.807490897541
 30
0.0
  0
VERTEX
  5
ACD
330
AC2
100
AcDbEntity
  8
レイヤー_1
 62
     7
100
AcDbVertex
100
AcDb2dVertex
 10
46.55091495178154
 20
205.528671897541
 30
0.0
  0
VERTEX
  5
ACE
330
AC2
100
AcDbEntity
  8
レイヤー_1
 62
     7
100
AcDbVertex
100
AcDb2dVertex
 10
47.60924795178154
 20
204.322543897541
 30
0.0
  0
VERTEX
  5
ACF
330
AC2
100
AcDbEntity
  8
レイヤー_1
 62
     7
100
AcDbVertex
100
AcDb2dVertex
 10
48.74027295178154
 20
203.191518897541
 30
0.0
  0
VERTEX
  5
AD0
330
AC2
100
AcDbEntity
  8
レイヤー_1
 62
     7
100
AcDbVertex
100
AcDb2dVertex
 10
49.94743495178155
 20
202.135596897541
 30
0.0
  0
VERTEX
  5
AD1
330
AC2
100
AcDbEntity
  8
レイヤー_1
 62
     7
100
AcDbVertex
100
AcDb2dVertex
 10
51.22625395178154
 20
201.163046897541
 30
0.0
  0
VERTEX
  5
AD2
330
AC2
100
AcDbEntity
  8
レイヤー_1
 62
     7
100
AcDbVertex
100
AcDb2dVertex
 10
52.55916195178155
 20
200.286613897541
 30
0.0
  0
VERTEX
  5
AD3
330
AC2
100
AcDbEntity
  8
レイヤー_1
 62
     7
100
AcDbVertex
100
AcDb2dVertex
 10
53.95476995178154
 20
199.502854897541
 30
0.0
  0
VERTEX
  5
AD4
330
AC2
100
AcDbEntity
  8
レイヤー_1
 62
     7
100
AcDbVertex
100
AcDb2dVertex
 10
55.40446595178154
 20
198.817280897541
 30
0.0
  0
VERTEX
  5
AD5
330
AC2
100
AcDbEntity
  8
レイヤー_1
 62
     7
100
AcDbVertex
100
AcDb2dVertex
 10
56.89601995178154
 20
198.225068897541
 30
0.0
  0
VERTEX
  5
AD6
330
AC2
100
AcDbEntity
  8
レイヤー_1
 62
     7
100
AcDbVertex
100
AcDb2dVertex
 10
58.41857995178154
 20
197.738965897541
 30
0.0
  0
VERTEX
  5
AD7
330
AC2
100
AcDbEntity
  8
レイヤー_1
 62
     7
100
AcDbVertex
100
AcDb2dVertex
 10
59.98403095178153
 20
197.358627897541
 30
0.0
  0
VERTEX
  5
AD8
102
{ACAD_REACTORS
330
F32
102
}
330
AC2
100
AcDbEntity
  8
レイヤー_1
 62
     7
100
AcDbVertex
100
AcDb2dVertex
 10
61.55947395178154
 20
197.094043897541
 30
0.0
  0
VERTEX
  5
AD9
330
AC2
100
AcDbEntity
  8
レイヤー_1
 62
     7
100
AcDbVertex
100
AcDb2dVertex
 10
63.15696395178154
 20
196.925234897541
 30
0.0
  0
VERTEX
  5
ADA
330
AC2
100
AcDbEntity
  8
レイヤー_1
 62
     7
100
AcDbVertex
100
AcDb2dVertex
 10
64.75411095178154
 20
196.872524897541
 30
0.0
  0
VERTEX
  5
ADB
330
AC2
100
AcDbEntity
  8
レイヤー_1
 62
     7
100
AcDbVertex
100
AcDb2dVertex
 10
66.36159195178153
 20
196.925234897541
 30
0.0
  0
VERTEX
  5
ADC
330
AC2
100
AcDbEntity
  8
レイヤー_1
 62
     7
100
AcDbVertex
100
AcDb2dVertex
 10
67.94805895178154
 20
197.084053897541
 30
0.0
  0
VERTEX
  5
ADD
330
AC2
100
AcDbEntity
  8
レイヤー_1
 62
     7
100
AcDbVertex
100
AcDb2dVertex
 10
69.53452495178154
 20
197.358627897541
 30
0.0
  0
VERTEX
  5
ADE
330
AC2
100
AcDbEntity
  8
レイヤー_1
 62
     7
100
AcDbVertex
100
AcDb2dVertex
 10
71.08895195178155
 20
197.738965897541
 30
0.0
  0
VERTEX
  5
ADF
330
AC2
100
AcDbEntity
  8
レイヤー_1
 62
     7
100
AcDbVertex
100
AcDb2dVertex
 10
72.61237295178155
 20
198.225068897541
 30
0.0
  0
VERTEX
  5
AE0
330
AC2
100
AcDbEntity
  8
レイヤー_1
 62
     7
100
AcDbVertex
100
AcDb2dVertex
 10
74.10272195178155
 20
198.806256897541
 30
0.0
  0
VERTEX
  5
AE1
330
AC2
100
AcDbEntity
  8
レイヤー_1
 62
     7
100
AcDbVertex
100
AcDb2dVertex
 10
75.55138395178154
 20
199.491830897541
 30
0.0
  0
VERTEX
  5
AE2
330
AC2
100
AcDbEntity
  8
レイヤー_1
 62
     7
100
AcDbVertex
100
AcDb2dVertex
 10
76.94837095178155
 20
200.286613897541
 30
0.0
  0
VERTEX
  5
AE3
330
AC2
100
AcDbEntity
  8
レイヤー_1
 62
     7
100
AcDbVertex
100
AcDb2dVertex
 10
78.29195795178155
 20
201.163046897541
 30
0.0
  0
VERTEX
  5
AE4
330
AC2
100
AcDbEntity
  8
レイヤー_1
 62
     7
100
AcDbVertex
100
AcDb2dVertex
 10
79.57077695178155
 20
202.124572897541
 30
0.0
  0
VERTEX
  5
AE5
330
AC2
100
AcDbEntity
  8
レイヤー_1
 62
     7
100
AcDbVertex
100
AcDb2dVertex
 10
80.77690495178154
 20
203.180494897541
 30
0.0
  0
VERTEX
  5
AE6
330
AC2
100
AcDbEntity
  8
レイヤー_1
 62
     7
100
AcDbVertex
100
AcDb2dVertex
 10
81.90792995178155
 20
204.311518897541
 30
0.0
  0
VERTEX
  5
AE7
330
AC2
100
AcDbEntity
  8
レイヤー_1
 62
     7
100
AcDbVertex
100
AcDb2dVertex
 10
82.96626295178153
 20
205.517646897541
 30
0.0
  0
VERTEX
  5
AE8
330
AC2
100
AcDbEntity
  8
レイヤー_1
 62
     7
100
AcDbVertex
100
AcDb2dVertex
 10
83.92882295178155
 20
206.796466897541
 30
0.0
  0
VERTEX
  5
AE9
330
AC2
100
AcDbEntity
  8
レイヤー_1
 62
     7
100
AcDbVertex
100
AcDb2dVertex
 10
84.80732195178154
 20
208.138331897541
 30
0.0
  0
VERTEX
  5
AEA
330
AC2
100
AcDbEntity
  8
レイヤー_1
 62
     7
100
AcDbVertex
100
AcDb2dVertex
 10
85.59900495178153
 20
209.532905897541
 30
0.0
  0
VERTEX
  5
AEB
330
AC2
100
AcDbEntity
  8
レイヤー_1
 62
     7
100
AcDbVertex
100
AcDb2dVertex
 10
86.28699095178154
 20
210.981223897541
 30
0.0
  0
VERTEX
  5
AEC
330
AC2
100
AcDbEntity
  8
レイヤー_1
 62
     7
100
AcDbVertex
100
AcDb2dVertex
 10
86.86886795178153
 20
212.471916897541
 30
0.0
  0
VERTEX
  5
AED
330
AC2
100
AcDbEntity
  8
レイヤー_1
 62
     7
100
AcDbVertex
100
AcDb2dVertex
 10
87.35531495178154
 20
213.993270897541
 30
0.0
  0
VERTEX
  5
AEE
330
AC2
100
AcDbEntity
  8
レイヤー_1
 62
     7
100
AcDbVertex
100
AcDb2dVertex
 10
87.73668695178153
 20
215.546664897541
 30
0.0
  0
VERTEX
  5
AEF
330
AC2
100
AcDbEntity
  8
レイヤー_1
 62
     7
100
AcDbVertex
100
AcDb2dVertex
 10
88.01126095178153
 20
217.131752897541
 30
0.0
  0
VERTEX
  5
AF0
330
AC2
100
AcDbEntity
  8
レイヤー_1
 62
     7
100
AcDbVertex
100
AcDb2dVertex
 10
88.16973595178152
 20
218.727176897541
 30
0.0
  0
VERTEX
  5
AF1
330
AC2
100
AcDbEntity
  8
レイヤー_1
 62
     7
100
AcDbVertex
100
AcDb2dVertex
 10
88.23381395178154
 20
220.323289897541
 30
0.0
  0
SEQEND
  5
AF2
330
AC2
100
AcDbEntity
  8
レイヤー_1
 62
     7
  0
LINE
  5
AF3
330
75
100
AcDbEntity
  8
レイヤー_1
 62
     7
100
AcDbLine
 10
88.40262395178156
 20
220.323289897541
 30
0.0
 11
41.11593195178154
 21
220.334313897541
 31
0.0
  0
POLYLINE
  5
AF4
330
75
100
AcDbEntity
  8
レイヤー_1
 62
     7
100
AcDb2dPolyline
 66
     1
 10
0.0
 20
0.0
 30
0.0
  0
VERTEX
  5
AF5
330
AF4
100
AcDbEntity
  8
レイヤー_1
 62
     7
100
AcDbVertex
100
AcDb2dVertex
 10
133.7635069517815
 20
114.3885942103417
 30
0.0
  0
VERTEX
  5
AF6
330
AF4
100
AcDbEntity
  8
レイヤー_1
 62
     7
100
AcDbVertex
100
AcDb2dVertex
 10
135.2256059517815
 20
114.1527772103418
 30
0.0
  0
VERTEX
  5
AF7
330
AF4
100
AcDbEntity
  8
レイヤー_1
 62
     7
100
AcDbVertex
100
AcDb2dVertex
 10
136.7049299517815
 20
114.0117002103417
 30
0.0
  0
VERTEX
  5
AF8
330
AF4
100
AcDbEntity
  8
レイヤー_1
 62
     7
100
AcDbVertex
100
AcDb2dVertex
 10
138.1866649517815
 20
113.9641582103417
 30
0.0
  0
VERTEX
  5
AF9
330
AF4
100
AcDbEntity
  8
レイヤー_1
 62
     7
100
AcDbVertex
100
AcDb2dVertex
 10
139.6749469517815
 20
114.0017102103418
 30
0.0
  0
VERTEX
  5
AFA
330
AF4
100
AcDbEntity
  8
レイヤー_1
 62
     7
100
AcDbVertex
100
AcDb2dVertex
 10
141.1456579517815
 20
114.1427862103417
 30
0.0
  0
VERTEX
  5
AFB
330
AF4
100
AcDbEntity
  8
レイヤー_1
 62
     7
100
AcDbVertex
100
AcDb2dVertex
 10
142.6160249517815
 20
114.3699902103417
 30
0.0
  0
VERTEX
  5
AFC
330
AF4
100
AcDbEntity
  8
レイヤー_1
 62
     7
100
AcDbVertex
100
AcDb2dVertex
 10
144.0681319517815
 20
114.6896952103418
 30
0.0
  0
VERTEX
  5
AFD
330
AF4
100
AcDbEntity
  8
レイヤー_1
 62
     7
100
AcDbVertex
100
AcDb2dVertex
 10
145.4913009517815
 20
115.1041402103417
 30
0.0
  0
VERTEX
  5
AFE
330
AF4
100
AcDbEntity
  8
レイヤー_1
 62
     7
100
AcDbVertex
100
AcDb2dVertex
 10
146.8869099517815
 20
115.6035072103418
 30
0.0
  0
VERTEX
  5
AFF
330
AF4
100
AcDbEntity
  8
レイヤー_1
 62
     7
100
AcDbVertex
100
AcDb2dVertex
 10
148.2539229517815
 20
116.1877952103417
 30
0.0
  0
VERTEX
  5
B00
330
AF4
100
AcDbEntity
  8
レイヤー_1
 62
     7
100
AcDbVertex
100
AcDb2dVertex
 10
149.5747729517815
 20
116.8570052103418
 30
0.0
  0
VERTEX
  5
B01
330
AF4
100
AcDbEntity
  8
レイヤー_1
 62
     7
100
AcDbVertex
100
AcDb2dVertex
 10
150.8556599517815
 20
117.6111362103418
 30
0.0
  0
VERTEX
  5
B02
330
AF4
100
AcDbEntity
  8
レイヤー_1
 62
     7
100
AcDbVertex
100
AcDb2dVertex
 10
152.0903819517815
 20
118.4400262103417
 30
0.0
  0
VERTEX
  5
B03
330
AF4
100
AcDbEntity
  8
レイヤー_1
 62
     7
100
AcDbVertex
100
AcDb2dVertex
 10
153.2699819517815
 20
119.3429862103417
 30
0.0
  0
VERTEX
  5
B04
330
AF4
100
AcDbEntity
  8
レイヤー_1
 62
     7
100
AcDbVertex
100
AcDb2dVertex
 10
154.3824039517815
 20
120.3231152103418
 30
0.0
  0
VERTEX
  5
B05
330
AF4
100
AcDbEntity
  8
レイヤー_1
 62
     7
100
AcDbVertex
100
AcDb2dVertex
 10
155.4386699517815
 20
121.3692192103417
 30
0.0
  0
VERTEX
  5
B06
330
AF4
100
AcDbEntity
  8
レイヤー_1
 62
     7
100
AcDbVertex
100
AcDb2dVertex
 10
156.4184549517815
 20
122.4804342103418
 30
0.0
  0
VERTEX
  5
B07
330
AF4
100
AcDbEntity
  8
レイヤー_1
 62
     7
100
AcDbVertex
100
AcDb2dVertex
 10
157.3334729517815
 20
123.6479772103417
 30
0.0
  0
VERTEX
  5
B08
330
AF4
100
AcDbEntity
  8
レイヤー_1
 62
     7
100
AcDbVertex
100
AcDb2dVertex
 10
158.1713199517815
 20
124.8739142103417
 30
0.0
  0
VERTEX
  5
B09
330
AF4
100
AcDbEntity
  8
レイヤー_1
 62
     7
100
AcDbVertex
100
AcDb2dVertex
 10
158.9354419517815
 20
126.1449822103417
 30
0.0
  0
VERTEX
  5
B0A
330
AF4
100
AcDbEntity
  8
レイヤー_1
 62
     7
100
AcDbVertex
100
AcDb2dVertex
 10
159.6144699517815
 20
127.4646262103418
 30
0.0
  0
VERTEX
  5
B0B
330
AF4
100
AcDbEntity
  8
レイヤー_1
 62
     7
100
AcDbVertex
100
AcDb2dVertex
 10
160.2087489517815
 20
128.8206162103417
 30
0.0
  0
VERTEX
  5
B0C
330
AF4
100
AcDbEntity
  8
レイヤー_1
 62
     7
100
AcDbVertex
100
AcDb2dVertex
 10
160.7179339517815
 20
130.2151902103417
 30
0.0
  0
VERTEX
  5
B0D
330
AF4
100
AcDbEntity
  8
レイヤー_1
 62
     7
100
AcDbVertex
100
AcDb2dVertex
 10
161.1413369517815
 20
131.6383592103417
 30
0.0
  0
VERTEX
  5
B0E
330
AF4
100
AcDbEntity
  8
レイヤー_1
 62
     7
100
AcDbVertex
100
AcDb2dVertex
 10
161.4720659517815
 20
133.0892612103418
 30
0.0
  0
VERTEX
  5
B0F
330
AF4
100
AcDbEntity
  8
レイヤー_1
 62
     7
100
AcDbVertex
100
AcDb2dVertex
 10
161.7080549517815
 20
134.5487762103418
 30
0.0
  0
VERTEX
  5
B10
330
AF4
100
AcDbEntity
  8
レイヤー_1
 62
     7
100
AcDbVertex
100
AcDb2dVertex
 10
161.8493039517815
 20
136.0282722103417
 30
0.0
  0
VERTEX
  5
B11
330
AF4
100
AcDbEntity
  8
レイヤー_1
 62
     7
100
AcDbVertex
100
AcDb2dVertex
 10
161.9054589517815
 20
137.5165532103417
 30
0.0
  0
VERTEX
  5
B12
330
AF4
100
AcDbEntity
  8
レイヤー_1
 62
     7
100
AcDbVertex
100
AcDb2dVertex
 10
161.8679069517815
 20
138.9960502103417
 30
0.0
  0
VERTEX
  5
B13
330
AF4
100
AcDbEntity
  8
レイヤー_1
 62
     7
100
AcDbVertex
100
AcDb2dVertex
 10
161.7356159517815
 20
140.4743402103417
 30
0.0
  0
VERTEX
  5
B14
330
AF4
100
AcDbEntity
  8
レイヤー_1
 62
     7
100
AcDbVertex
100
AcDb2dVertex
 10
161.5096169517815
 20
141.9438462103417
 30
0.0
  0
VERTEX
  5
B15
330
AF4
100
AcDbEntity
  8
レイヤー_1
 62
     7
100
AcDbVertex
100
AcDb2dVertex
 10
161.1888789517815
 20
143.3847572103418
 30
0.0
  0
VERTEX
  5
B16
330
AF4
100
AcDbEntity
  8
レイヤー_1
 62
     7
100
AcDbVertex
100
AcDb2dVertex
 10
160.7830469517815
 20
144.8168832103418
 30
0.0
  0
SEQEND
  5
B17
330
AF4
100
AcDbEntity
  8
レイヤー_1
 62
     7
  0
LINE
  5
B18
330
75
100
AcDbEntity
  8
レイヤー_1
 62
     7
100
AcDbLine
 10
160.7644429517815
 20
144.8642532103416
 30
0.0
 11
161.7080549517815
 21
145.1751732103416
 31
0.0
  0
LINE
  5
B19
330
75
100
AcDbEntity
  8
レイヤー_1
 62
     7
100
AcDbLine
 10
159.4435939517815
 20
144.4310322103418
 30
0.0
 11
160.7644429517815
 21
144.8642532103416
 31
0.0
  0
LINE
  5
B1A
330
75
100
AcDbEntity
  8
レイヤー_1
 62
     7
100
AcDbLine
 10
160.6421419517815
 20
145.2413192103418
 30
0.0
 11
161.5847199517815
 21
145.5610242103418
 31
0.0
  0
LINE
  5
B1B
330
75
100
AcDbEntity
  8
レイヤー_1
 62
     7
100
AcDbLine
 10
159.3223259517815
 20
144.8080982103418
 30
0.0
 11
160.6421419517815
 21
145.2413192103418
 31
0.0
  0
POLYLINE
  5
B1C
330
75
100
AcDbEntity
  8
レイヤー_1
 62
     7
100
AcDb2dPolyline
 66
     1
 10
0.0
 20
0.0
 30
0.0
  0
VERTEX
  5
B1D
330
B1C
100
AcDbEntity
  8
レイヤー_1
 62
     7
100
AcDbVertex
100
AcDb2dVertex
 10
120.4430459517815
 20
153.2294622103417
 30
0.0
  0
VERTEX
  5
B1E
330
B1C
100
AcDbEntity
  8
レイヤー_1
 62
     7
100
AcDbVertex
100
AcDb2dVertex
 10
119.4915099517815
 20
152.0806952103417
 30
0.0
  0
VERTEX
  5
B1F
330
B1C
100
AcDbEntity
  8
レイヤー_1
 62
     7
100
AcDbVertex
100
AcDb2dVertex
 10
118.6230019517815
 20
150.8647482103417
 30
0.0
  0
VERTEX
  5
B20
330
B1C
100
AcDbEntity
  8
レイヤー_1
 62
     7
100
AcDbVertex
100
AcDb2dVertex
 10
117.8223609517815
 20
149.6024652103417
 30
0.0
  0
VERTEX
  5
B21
330
B1C
100
AcDbEntity
  8
レイヤー_1
 62
     7
100
AcDbVertex
100
AcDb2dVertex
 10
117.1057819517815
 20
148.2938462103417
 30
0.0
  0
VERTEX
  5
B22
330
B1C
100
AcDbEntity
  8
レイヤー_1
 62
     7
100
AcDbVertex
100
AcDb2dVertex
 10
116.4732619517815
 20
146.9368222103417
 30
0.0
  0
VERTEX
  5
B23
330
B1C
100
AcDbEntity
  8
レイヤー_1
 62
     7
100
AcDbVertex
100
AcDb2dVertex
 10
115.9261809517815
 20
145.5422482103417
 30
0.0
  0
VERTEX
  5
B24
330
B1C
100
AcDbEntity
  8
レイヤー_1
 62
     7
100
AcDbVertex
100
AcDb2dVertex
 10
115.4741839517815
 20
144.1201122103417
 30
0.0
  0
VERTEX
  5
B25
330
B1C
100
AcDbEntity
  8
レイヤー_1
 62
     7
100
AcDbVertex
100
AcDb2dVertex
 10
115.1072819517815
 20
142.6693832103417
 30
0.0
  0
VERTEX
  5
B26
330
B1C
100
AcDbEntity
  8
レイヤー_1
 62
     7
100
AcDbVertex
100
AcDb2dVertex
 10
114.8337409517815
 20
141.2096962103418
 30
0.0
  0
VERTEX
  5
B27
330
B1C
100
AcDbEntity
  8
レイヤー_1
 62
     7
100
AcDbVertex
100
AcDb2dVertex
 10
114.6542519517815
 20
139.7203812103418
 30
0.0
  0
VERTEX
  5
B28
330
B1C
100
AcDbEntity
  8
レイヤー_1
 62
     7
100
AcDbVertex
100
AcDb2dVertex
 10
114.5691579517815
 20
138.2321002103418
 30
0.0
  0
VERTEX
  5
B29
330
B1C
100
AcDbEntity
  8
レイヤー_1
 62
     7
100
AcDbVertex
100
AcDb2dVertex
 10
114.5791489517815
 20
136.7338282103417
 30
0.0
  0
VERTEX
  5
B2A
330
B1C
100
AcDbEntity
  8
レイヤー_1
 62
     7
100
AcDbVertex
100
AcDb2dVertex
 10
114.6828459517815
 20
135.2455462103417
 30
0.0
  0
VERTEX
  5
B2B
330
B1C
100
AcDbEntity
  8
レイヤー_1
 62
     7
100
AcDbVertex
100
AcDb2dVertex
 10
114.8812829517815
 20
133.7660502103418
 30
0.0
  0
VERTEX
  5
B2C
330
B1C
100
AcDbEntity
  8
レイヤー_1
 62
     7
100
AcDbVertex
100
AcDb2dVertex
 10
115.1723939517815
 20
132.2975782103418
 30
0.0
  0
VERTEX
  5
B2D
330
B1C
100
AcDbEntity
  8
レイヤー_1
 62
     7
100
AcDbVertex
100
AcDb2dVertex
 10
115.5492869517815
 20
130.8556332103417
 30
0.0
  0
VERTEX
  5
B2E
330
B1C
100
AcDbEntity
  8
レイヤー_1
 62
     7
100
AcDbVertex
100
AcDb2dVertex
 10
116.0309119517815
 20
129.4334982103417
 30
0.0
  0
VERTEX
  5
B2F
330
B1C
100
AcDbEntity
  8
レイヤー_1
 62
     7
100
AcDbVertex
100
AcDb2dVertex
 10
116.5866059517815
 20
128.0477082103417
 30
0.0
  0
VERTEX
  5
B30
330
B1C
100
AcDbEntity
  8
レイヤー_1
 62
     7
100
AcDbVertex
100
AcDb2dVertex
 10
117.2380729517815
 20
126.7017102103418
 30
0.0
  0
VERTEX
  5
B31
330
B1C
100
AcDbEntity
  8
レイヤー_1
 62
     7
100
AcDbVertex
100
AcDb2dVertex
 10
117.9636099517815
 20
125.4008422103417
 30
0.0
  0
VERTEX
  5
B32
330
B1C
100
AcDbEntity
  8
レイヤー_1
 62
     7
100
AcDbVertex
100
AcDb2dVertex
 10
118.7749299517815
 20
124.1485492103417
 30
0.0
  0
VERTEX
  5
B33
330
B1C
100
AcDbEntity
  8
レイヤー_1
 62
     7
100
AcDbVertex
100
AcDb2dVertex
 10
119.6703109517815
 20
122.9512062103418
 30
0.0
  0
VERTEX
  5
B34
330
B1C
100
AcDbEntity
  8
レイヤー_1
 62
     7
100
AcDbVertex
100
AcDb2dVertex
 10
120.6314919517815
 20
121.8024392103417
 30
0.0
  0
VERTEX
  5
B35
330
B1C
100
AcDbEntity
  8
レイヤー_1
 62
     7
100
AcDbVertex
100
AcDb2dVertex
 10
121.6688109517815
 20
120.7287752103417
 30
0.0
  0
VERTEX
  5
B36
330
B1C
100
AcDbEntity
  8
レイヤー_1
 62
     7
100
AcDbVertex
100
AcDb2dVertex
 10
122.7626279517815
 20
119.7100612103417
 30
0.0
  0
VERTEX
  5
B37
330
B1C
100
AcDbEntity
  8
レイヤー_1
 62
     7
100
AcDbVertex
100
AcDb2dVertex
 10
123.9312049517815
 20
118.7785072103418
 30
0.0
  0
VERTEX
  5
B38
330
B1C
100
AcDbEntity
  8
レイヤー_1
 62
     7
100
AcDbVertex
100
AcDb2dVertex
 10
125.1469789517815
 20
117.9108592103418
 30
0.0
  0
VERTEX
  5
B39
330
B1C
100
AcDbEntity
  8
レイヤー_1
 62
     7
100
AcDbVertex
100
AcDb2dVertex
 10
126.4202859517815
 20
117.1205552103417
 30
0.0
  0
VERTEX
  5
B3A
330
B1C
100
AcDbEntity
  8
レイヤー_1
 62
     7
100
AcDbVertex
100
AcDb2dVertex
 10
127.7311449517815
 20
116.4137932103417
 30
0.0
  0
VERTEX
  5
B3B
330
B1C
100
AcDbEntity
  8
レイヤー_1
 62
     7
100
AcDbVertex
100
AcDb2dVertex
 10
129.0981589517815
 20
115.8019442103417
 30
0.0
  0
VERTEX
  5
B3C
330
B1C
100
AcDbEntity
  8
レイヤー_1
 62
     7
100
AcDbVertex
100
AcDb2dVertex
 10
130.4927339517815
 20
115.2650262103418
 30
0.0
  0
VERTEX
  5
B3D
330
B1C
100
AcDbEntity
  8
レイヤー_1
 62
     7
100
AcDbVertex
100
AcDb2dVertex
 10
131.9159029517815
 20
114.8219872103417
 30
0.0
  0
VERTEX
  5
B3E
330
B1C
100
AcDbEntity
  8
レイヤー_1
 62
     7
100
AcDbVertex
100
AcDb2dVertex
 10
133.3680099517815
 20
114.4636972103417
 30
0.0
  0
SEQEND
  5
B3F
330
B1C
100
AcDbEntity
  8
レイヤー_1
 62
     7
  0
LINE
  5
B40
330
75
100
AcDbEntity
  8
レイヤー_1
 62
     7
100
AcDbLine
 10
120.7065949517815
 20
153.5303912103417
 30
0.0
 11
119.9721009517815
 21
154.1897822103418
 31
0.0
  0
LINE
  5
B41
330
75
100
AcDbEntity
  8
レイヤー_1
 62
     7
100
AcDbLine
 10
121.7539039517815
 20
152.5988372103417
 30
0.0
 11
120.7065949517815
 21
153.5303912103417
 31
0.0
  0
LINE
  5
B42
330
75
100
AcDbEntity
  8
レイヤー_1
 62
     7
100
AcDbLine
 10
120.4430459517815
 20
153.2294622103417
 30
0.0
 11
119.7075179517815
 21
153.8898862103418
 31
0.0
  0
LINE
  5
B43
330
75
100
AcDbEntity
  8
レイヤー_1
 62
     7
100
AcDbLine
 10
121.4803639517815
 20
152.3066932103416
 30
0.0
 11
120.4430459517815
 21
153.2294622103417
 31
0.0
  0
POLYLINE
  5
B44
330
75
100
AcDbEntity
  8
レイヤー_1
 62
     7
100
AcDb2dPolyline
 66
     1
 10
0.0
 20
0.0
 30
0.0
 70
     1
  0
VERTEX
  5
B45
330
B44
100
AcDbEntity
  8
レイヤー_1
 62
     7
100
AcDbVertex
100
AcDb2dVertex
 10
139.1282099517815
 20
118.4577682103417
 30
0.0
  0
VERTEX
  5
B46
330
B44
100
AcDbEntity
  8
レイヤー_1
 62
     7
100
AcDbVertex
100
AcDb2dVertex
 10
139.0817009517815
 20
118.7311372103417
 30
0.0
  0
VERTEX
  5
B47
330
B44
100
AcDbEntity
  8
レイヤー_1
 62
     7
100
AcDbVertex
100
AcDb2dVertex
 10
138.9583669517815
 20
118.9759112103417
 30
0.0
  0
VERTEX
  5
B48
330
B44
100
AcDbEntity
  8
レイヤー_1
 62
     7
100
AcDbVertex
100
AcDb2dVertex
 10
138.7609629517815
 20
119.1743482103418
 30
0.0
  0
VERTEX
  5
B49
330
B44
100
AcDbEntity
  8
レイヤー_1
 62
     7
100
AcDbVertex
100
AcDb2dVertex
 10
138.5063699517815
 20
119.3054342103418
 30
0.0
  0
VERTEX
  5
B4A
330
B44
100
AcDbEntity
  8
レイヤー_1
 62
     7
100
AcDbVertex
100
AcDb2dVertex
 10
138.2328299517815
 20
119.3529762103417
 30
0.0
  0
VERTEX
  5
B4B
330
B44
100
AcDbEntity
  8
レイヤー_1
 62
     7
100
AcDbVertex
100
AcDb2dVertex
 10
137.9596339517815
 20
119.3054342103418
 30
0.0
  0
VERTEX
  5
B4C
330
B44
100
AcDbEntity
  8
レイヤー_1
 62
     7
100
AcDbVertex
100
AcDb2dVertex
 10
137.7046969517815
 20
119.1743482103418
 30
0.0
  0
VERTEX
  5
B4D
330
B44
100
AcDbEntity
  8
レイヤー_1
 62
     7
100
AcDbVertex
100
AcDb2dVertex
 10
137.5076369517815
 20
118.9759112103417
 30
0.0
  0
VERTEX
  5
B4E
330
B44
100
AcDbEntity
  8
レイヤー_1
 62
     7
100
AcDbVertex
100
AcDb2dVertex
 10
137.3839579517815
 20
118.7311372103417
 30
0.0
  0
VERTEX
  5
B4F
330
B44
100
AcDbEntity
  8
レイヤー_1
 62
     7
100
AcDbVertex
100
AcDb2dVertex
 10
137.3377939517815
 20
118.4577682103417
 30
0.0
  0
VERTEX
  5
B50
330
B44
100
AcDbEntity
  8
レイヤー_1
 62
     7
100
AcDbVertex
100
AcDb2dVertex
 10
137.3839579517815
 20
118.1754432103417
 30
0.0
  0
VERTEX
  5
B51
330
B44
100
AcDbEntity
  8
レイヤー_1
 62
     7
100
AcDbVertex
100
AcDb2dVertex
 10
137.5076369517815
 20
117.9308412103417
 30
0.0
  0
VERTEX
  5
B52
330
B44
100
AcDbEntity
  8
レイヤー_1
 62
     7
100
AcDbVertex
100
AcDb2dVertex
 10
137.7046969517815
 20
117.7324042103417
 30
0.0
  0
VERTEX
  5
B53
330
B44
100
AcDbEntity
  8
レイヤー_1
 62
     7
100
AcDbVertex
100
AcDb2dVertex
 10
137.9596339517815
 20
117.6011452103417
 30
0.0
  0
VERTEX
  5
B54
330
B44
100
AcDbEntity
  8
レイヤー_1
 62
     7
100
AcDbVertex
100
AcDb2dVertex
 10
138.2328299517815
 20
117.5625602103418
 30
0.0
  0
VERTEX
  5
B55
330
B44
100
AcDbEntity
  8
レイヤー_1
 62
     7
100
AcDbVertex
100
AcDb2dVertex
 10
138.5063699517815
 20
117.6011452103417
 30
0.0
  0
VERTEX
  5
B56
330
B44
100
AcDbEntity
  8
レイヤー_1
 62
     7
100
AcDbVertex
100
AcDb2dVertex
 10
138.7609629517815
 20
117.7324042103417
 30
0.0
  0
VERTEX
  5
B57
330
B44
100
AcDbEntity
  8
レイヤー_1
 62
     7
100
AcDbVertex
100
AcDb2dVertex
 10
138.9583669517815
 20
117.9308412103417
 30
0.0
  0
VERTEX
  5
B58
330
B44
100
AcDbEntity
  8
レイヤー_1
 62
     7
100
AcDbVertex
100
AcDb2dVertex
 10
139.0817009517815
 20
118.1754432103417
 30
0.0
  0
VERTEX
  5
B59
330
B44
100
AcDbEntity
  8
レイヤー_1
 62
     7
100
AcDbVertex
100
AcDb2dVertex
 10
139.1282099517815
 20
118.4577682103417
 30
0.0
  0
SEQEND
  5
B5A
330
B44
100
AcDbEntity
  8
レイヤー_1
 62
     7
  0
POLYLINE
  5
B5B
330
75
100
AcDbEntity
  8
レイヤー_1
 62
     7
100
AcDb2dPolyline
 66
     1
 10
0.0
 20
0.0
 30
0.0
 70
     1
  0
VERTEX
  5
B5C
330
B5B
100
AcDbEntity
  8
レイヤー_1
 62
     7
100
AcDbVertex
100
AcDb2dVertex
 10
122.5166489517815
 20
147.2101912103417
 30
0.0
  0
VERTEX
  5
B5D
330
B5B
100
AcDbEntity
  8
レイヤー_1
 62
     7
100
AcDbVertex
100
AcDb2dVertex
 10
122.4704839517815
 20
147.4825262103417
 30
0.0
  0
VERTEX
  5
B5E
330
B5B
100
AcDbEntity
  8
レイヤー_1
 62
     7
100
AcDbVertex
100
AcDb2dVertex
 10
122.3468049517815
 20
147.7371182103417
 30
0.0
  0
VERTEX
  5
B5F
330
B5B
100
AcDbEntity
  8
レイヤー_1
 62
     7
100
AcDbVertex
100
AcDb2dVertex
 10
122.1494009517815
 20
147.9345222103416
 30
0.0
  0
VERTEX
  5
B60
330
B5B
100
AcDbEntity
  8
レイヤー_1
 62
     7
100
AcDbVertex
100
AcDb2dVertex
 10
121.8948089517815
 20
148.0580292103416
 30
0.0
  0
VERTEX
  5
B61
330
B5B
100
AcDbEntity
  8
レイヤー_1
 62
     7
100
AcDbVertex
100
AcDb2dVertex
 10
121.6216129517815
 20
148.1043652103418
 30
0.0
  0
VERTEX
  5
B62
330
B5B
100
AcDbEntity
  8
レイヤー_1
 62
     7
100
AcDbVertex
100
AcDb2dVertex
 10
121.3480719517815
 20
148.0580292103416
 30
0.0
  0
VERTEX
  5
B63
330
B5B
100
AcDbEntity
  8
レイヤー_1
 62
     7
100
AcDbVertex
100
AcDb2dVertex
 10
121.0945129517815
 20
147.9345222103416
 30
0.0
  0
VERTEX
  5
B64
330
B5B
100
AcDbEntity
  8
レイヤー_1
 62
     7
100
AcDbVertex
100
AcDb2dVertex
 10
120.8960759517815
 20
147.7371182103417
 30
0.0
  0
VERTEX
  5
B65
330
B5B
100
AcDbEntity
  8
レイヤー_1
 62
     7
100
AcDbVertex
100
AcDb2dVertex
 10
120.7727409517815
 20
147.4825262103417
 30
0.0
  0
VERTEX
  5
B66
330
B5B
100
AcDbEntity
  8
レイヤー_1
 62
     7
100
AcDbVertex
100
AcDb2dVertex
 10
120.7262319517815
 20
147.2101912103417
 30
0.0
  0
VERTEX
  5
B67
330
B5B
100
AcDbEntity
  8
レイヤー_1
 62
     7
100
AcDbVertex
100
AcDb2dVertex
 10
120.7727409517815
 20
146.9368222103417
 30
0.0
  0
VERTEX
  5
B68
330
B5B
100
AcDbEntity
  8
レイヤー_1
 62
     7
100
AcDbVertex
100
AcDb2dVertex
 10
120.8960759517815
 20
146.6822302103417
 30
0.0
  0
VERTEX
  5
B69
330
B5B
100
AcDbEntity
  8
レイヤー_1
 62
     7
100
AcDbVertex
100
AcDb2dVertex
 10
121.0945129517815
 20
146.4848262103418
 30
0.0
  0
VERTEX
  5
B6A
330
B5B
100
AcDbEntity
  8
レイヤー_1
 62
     7
100
AcDbVertex
100
AcDb2dVertex
 10
121.3480719517815
 20
146.3625252103417
 30
0.0
  0
VERTEX
  5
B6B
330
B5B
100
AcDbEntity
  8
レイヤー_1
 62
     7
100
AcDbVertex
100
AcDb2dVertex
 10
121.6216129517815
 20
146.3149832103417
 30
0.0
  0
VERTEX
  5
B6C
330
B5B
100
AcDbEntity
  8
レイヤー_1
 62
     7
100
AcDbVertex
100
AcDb2dVertex
 10
121.8948089517815
 20
146.3625252103417
 30
0.0
  0
VERTEX
  5
B6D
330
B5B
100
AcDbEntity
  8
レイヤー_1
 62
     7
100
AcDbVertex
100
AcDb2dVertex
 10
122.1494009517815
 20
146.4848262103418
 30
0.0
  0
VERTEX
  5
B6E
330
B5B
100
AcDbEntity
  8
レイヤー_1
 62
     7
100
AcDbVertex
100
AcDb2dVertex
 10
122.3468049517815
 20
146.6822302103417
 30
0.0
  0
VERTEX
  5
B6F
330
B5B
100
AcDbEntity
  8
レイヤー_1
 62
     7
100
AcDbVertex
100
AcDb2dVertex
 10
122.4704839517815
 20
146.9368222103417
 30
0.0
  0
VERTEX
  5
B70
330
B5B
100
AcDbEntity
  8
レイヤー_1
 62
     7
100
AcDbVertex
100
AcDb2dVertex
 10
122.5166489517815
 20
147.2101912103417
 30
0.0
  0
SEQEND
  5
B71
330
B5B
100
AcDbEntity
  8
レイヤー_1
 62
     7
  0
POLYLINE
  5
B72
330
75
100
AcDbEntity
  8
レイヤー_1
 62
     7
100
AcDb2dPolyline
 66
     1
 10
0.0
 20
0.0
 30
0.0
 70
     1
  0
VERTEX
  5
B73
330
B72
100
AcDbEntity
  8
レイヤー_1
 62
     7
100
AcDbVertex
100
AcDb2dVertex
 10
155.7394269517815
 20
147.2101912103417
 30
0.0
  0
VERTEX
  5
B74
330
B72
100
AcDbEntity
  8
レイヤー_1
 62
     7
100
AcDbVertex
100
AcDb2dVertex
 10
155.6932629517815
 20
147.4825262103417
 30
0.0
  0
VERTEX
  5
B75
330
B72
100
AcDbEntity
  8
レイヤー_1
 62
     7
100
AcDbVertex
100
AcDb2dVertex
 10
155.5695839517815
 20
147.7371182103417
 30
0.0
  0
VERTEX
  5
B76
330
B72
100
AcDbEntity
  8
レイヤー_1
 62
     7
100
AcDbVertex
100
AcDb2dVertex
 10
155.3725239517815
 20
147.9345222103416
 30
0.0
  0
VERTEX
  5
B77
330
B72
100
AcDbEntity
  8
レイヤー_1
 62
     7
100
AcDbVertex
100
AcDb2dVertex
 10
155.1175869517815
 20
148.0580292103416
 30
0.0
  0
VERTEX
  5
B78
330
B72
100
AcDbEntity
  8
レイヤー_1
 62
     7
100
AcDbVertex
100
AcDb2dVertex
 10
154.8443909517815
 20
148.1043652103418
 30
0.0
  0
VERTEX
  5
B79
330
B72
100
AcDbEntity
  8
レイヤー_1
 62
     7
100
AcDbVertex
100
AcDb2dVertex
 10
154.5708509517815
 20
148.0580292103416
 30
0.0
  0
VERTEX
  5
B7A
330
B72
100
AcDbEntity
  8
レイヤー_1
 62
     7
100
AcDbVertex
100
AcDb2dVertex
 10
154.3162579517815
 20
147.9345222103416
 30
0.0
  0
VERTEX
  5
B7B
330
B72
100
AcDbEntity
  8
レイヤー_1
 62
     7
100
AcDbVertex
100
AcDb2dVertex
 10
154.1188539517815
 20
147.7371182103417
 30
0.0
  0
VERTEX
  5
B7C
330
B72
100
AcDbEntity
  8
レイヤー_1
 62
     7
100
AcDbVertex
100
AcDb2dVertex
 10
153.9955199517815
 20
147.4825262103417
 30
0.0
  0
VERTEX
  5
B7D
330
B72
100
AcDbEntity
  8
レイヤー_1
 62
     7
100
AcDbVertex
100
AcDb2dVertex
 10
153.9490109517815
 20
147.2101912103417
 30
0.0
  0
VERTEX
  5
B7E
330
B72
100
AcDbEntity
  8
レイヤー_1
 62
     7
100
AcDbVertex
100
AcDb2dVertex
 10
153.9955199517815
 20
146.9368222103417
 30
0.0
  0
VERTEX
  5
B7F
330
B72
100
AcDbEntity
  8
レイヤー_1
 62
     7
100
AcDbVertex
100
AcDb2dVertex
 10
154.1188539517815
 20
146.6822302103417
 30
0.0
  0
VERTEX
  5
B80
330
B72
100
AcDbEntity
  8
レイヤー_1
 62
     7
100
AcDbVertex
100
AcDb2dVertex
 10
154.3162579517815
 20
146.4848262103418
 30
0.0
  0
VERTEX
  5
B81
330
B72
100
AcDbEntity
  8
レイヤー_1
 62
     7
100
AcDbVertex
100
AcDb2dVertex
 10
154.5708509517815
 20
146.3625252103417
 30
0.0
  0
VERTEX
  5
B82
330
B72
100
AcDbEntity
  8
レイヤー_1
 62
     7
100
AcDbVertex
100
AcDb2dVertex
 10
154.8443909517815
 20
146.3149832103417
 30
0.0
  0
VERTEX
  5
B83
330
B72
100
AcDbEntity
  8
レイヤー_1
 62
     7
100
AcDbVertex
100
AcDb2dVertex
 10
155.1175869517815
 20
146.3625252103417
 30
0.0
  0
VERTEX
  5
B84
330
B72
100
AcDbEntity
  8
レイヤー_1
 62
     7
100
AcDbVertex
100
AcDb2dVertex
 10
155.3725239517815
 20
146.4848262103418
 30
0.0
  0
VERTEX
  5
B85
330
B72
100
AcDbEntity
  8
レイヤー_1
 62
     7
100
AcDbVertex
100
AcDb2dVertex
 10
155.5695839517815
 20
146.6822302103417
 30
0.0
  0
VERTEX
  5
B86
330
B72
100
AcDbEntity
  8
レイヤー_1
 62
     7
100
AcDbVertex
100
AcDb2dVertex
 10
155.6932629517815
 20
146.9368222103417
 30
0.0
  0
VERTEX
  5
B87
330
B72
100
AcDbEntity
  8
レイヤー_1
 62
     7
100
AcDbVertex
100
AcDb2dVertex
 10
155.7394269517815
 20
147.2101912103417
 30
0.0
  0
SEQEND
  5
B88
330
B72
100
AcDbEntity
  8
レイヤー_1
 62
     7
  0
LINE
  5
B89
330
75
100
AcDbEntity
  8
レイヤー_1
 62
     7
100
AcDbLine
 10
139.9856939517815
 20
113.0315712103417
 30
0.0
 11
139.9856939517815
 21
111.8542092103417
 31
0.0
  0
LINE
  5
B8A
330
75
100
AcDbEntity
  8
レイヤー_1
 62
     7
100
AcDbLine
 10
140.4576719517815
 20
113.0691222103417
 30
0.0
 11
140.4576719517815
 21
111.8542092103417
 31
0.0
  0
LINE
  5
B8B
330
75
100
AcDbEntity
  8
レイヤー_1
 62
     7
100
AcDbLine
 10
138.9869609517815
 20
112.9754162103417
 30
0.0
 11
138.9869609517815
 21
111.7978822103418
 31
0.0
  0
LINE
  5
B8C
330
75
100
AcDbEntity
  8
レイヤー_1
 62
     7
100
AcDbLine
 10
139.4675519517815
 20
113.0040102103418
 30
0.0
 11
139.4675519517815
 21
111.7978822103418
 31
0.0
  0
LINE
  5
B8D
330
75
100
AcDbEntity
  8
レイヤー_1
 62
     7
100
AcDbLine
 10
136.0083319517815
 20
113.0691222103417
 30
0.0
 11
136.0083319517815
 21
111.8542092103417
 31
0.0
  0
LINE
  5
B8E
330
75
100
AcDbEntity
  8
レイヤー_1
 62
     7
100
AcDbLine
 10
136.4799649517815
 20
113.0315712103417
 30
0.0
 11
136.4799649517815
 21
111.8542092103417
 31
0.0
  0
LINE
  5
B8F
330
75
100
AcDbEntity
  8
レイヤー_1
 62
     7
100
AcDbLine
 10
136.9981069517815
 20
113.0040102103418
 30
0.0
 11
136.9981069517815
 21
111.7978822103418
 31
0.0
  0
LINE
  5
B90
330
75
100
AcDbEntity
  8
レイヤー_1
 62
     7
100
AcDbLine
 10
137.4786979517815
 20
112.9754162103417
 30
0.0
 11
137.4786979517815
 21
111.7978822103418
 31
0.0
  0
LINE
  5
B91
330
75
100
AcDbEntity
  8
レイヤー_1
 62
     7
100
AcDbLine
 10
133.3680099517815
 20
114.4735152103417
 30
0.0
 11
133.1706059517815
 21
113.4935582103417
 31
0.0
  0
LINE
  5
B92
330
75
100
AcDbEntity
  8
レイヤー_1
 62
     7
100
AcDbLine
 10
133.6412059517815
 20
115.8295052103418
 30
0.0
 11
133.3680099517815
 21
114.4735152103417
 31
0.0
  0
LINE
  5
B93
330
75
100
AcDbEntity
  8
レイヤー_1
 62
     7
100
AcDbLine
 10
133.7635069517815
 20
114.3885942103417
 30
0.0
 11
133.5650699517815
 21
113.4174212103417
 31
0.0
  0
LINE
  5
B94
330
75
100
AcDbEntity
  8
レイヤー_1
 62
     7
100
AcDbLine
 10
134.0370479517815
 20
115.7545742103417
 30
0.0
 11
133.7635069517815
 21
114.3885942103417
 31
0.0
  0
LINE
  5
B95
330
75
100
AcDbEntity
  8
レイヤー_1
 62
     7
100
AcDbLine
 10
135.9607889517815
 20
114.0766402103417
 30
0.0
 11
135.8560579517815
 21
113.0889322103417
 31
0.0
  0
LINE
  5
B96
330
75
100
AcDbEntity
  8
レイヤー_1
 62
     7
100
AcDbLine
 10
160.1336459517815
 20
146.5983422103418
 30
0.0
 11
158.9168379517815
 21
145.8905472103417
 31
0.0
  0
POLYLINE
  5
B97
330
75
100
AcDbEntity
  8
レイヤー_1
 62
     7
100
AcDb2dPolyline
 66
     1
 10
0.0
 20
0.0
 30
0.0
  0
VERTEX
  5
B98
330
B97
100
AcDbEntity
  8
レイヤー_1
 62
     7
100
AcDbVertex
100
AcDb2dVertex
 10
157.5308769517815
 20
148.7547992103416
 30
0.0
  0
VERTEX
  5
B99
330
B97
100
AcDbEntity
  8
レイヤー_1
 62
     7
100
AcDbVertex
100
AcDb2dVertex
 10
156.7581419517815
 20
149.9983072103417
 30
0.0
  0
VERTEX
  5
B9A
330
B97
100
AcDbEntity
  8
レイヤー_1
 62
     7
100
AcDbVertex
100
AcDb2dVertex
 10
155.9092699517815
 20
151.1856592103418
 30
0.0
  0
VERTEX
  5
B9B
330
B97
100
AcDbEntity
  8
レイヤー_1
 62
     7
100
AcDbVertex
100
AcDb2dVertex
 10
154.9852959517815
 20
152.3066932103416
 30
0.0
  0
VERTEX
  5
B9C
330
B97
100
AcDbEntity
  8
レイヤー_1
 62
     7
100
AcDbVertex
100
AcDb2dVertex
 10
153.9865619517815
 20
153.3705382103417
 30
0.0
  0
VERTEX
  5
B9D
330
B97
100
AcDbEntity
  8
レイヤー_1
 62
     7
100
AcDbVertex
100
AcDb2dVertex
 10
152.9206499517815
 20
154.3694442103416
 30
0.0
  0
VERTEX
  5
B9E
330
B97
100
AcDbEntity
  8
レイヤー_1
 62
     7
100
AcDbVertex
100
AcDb2dVertex
 10
151.7896249517815
 20
155.2922132103416
 30
0.0
  0
VERTEX
  5
B9F
330
B97
100
AcDbEntity
  8
レイヤー_1
 62
     7
100
AcDbVertex
100
AcDb2dVertex
 10
150.6021009517815
 20
156.1410842103418
 30
0.0
  0
VERTEX
  5
BA0
330
B97
100
AcDbEntity
  8
レイヤー_1
 62
     7
100
AcDbVertex
100
AcDb2dVertex
 10
149.3673779517815
 20
156.9127852103417
 30
0.0
  0
VERTEX
  5
BA1
330
B97
100
AcDbEntity
  8
レイヤー_1
 62
     7
100
AcDbVertex
100
AcDb2dVertex
 10
148.0754679517815
 20
157.6005992103416
 30
0.0
  0
VERTEX
  5
BA2
330
B97
100
AcDbEntity
  8
レイヤー_1
 62
     7
100
AcDbVertex
100
AcDb2dVertex
 10
146.7460049517815
 20
158.2046962103417
 30
0.0
  0
VERTEX
  5
BA3
330
B97
100
AcDbEntity
  8
レイヤー_1
 62
     7
100
AcDbVertex
100
AcDb2dVertex
 10
145.3876039517815
 20
158.7118142103417
 30
0.0
  0
VERTEX
  5
BA4
330
B97
100
AcDbEntity
  8
レイヤー_1
 62
     7
100
AcDbVertex
100
AcDb2dVertex
 10
143.9830389517815
 20
159.1362502103416
 30
0.0
  0
VERTEX
  5
BA5
330
B97
100
AcDbEntity
  8
レイヤー_1
 62
     7
100
AcDbVertex
100
AcDb2dVertex
 10
142.5698599517815
 20
159.4659462103417
 30
0.0
  0
VERTEX
  5
BA6
330
B97
100
AcDbEntity
  8
レイヤー_1
 62
     7
100
AcDbVertex
100
AcDb2dVertex
 10
141.1267099517815
 20
159.7019352103418
 30
0.0
  0
VERTEX
  5
BA7
330
B97
100
AcDbEntity
  8
レイヤー_1
 62
     7
100
AcDbVertex
100
AcDb2dVertex
 10
139.6749469517815
 20
159.8430112103418
 30
0.0
  0
VERTEX
  5
BA8
330
B97
100
AcDbEntity
  8
レイヤー_1
 62
     7
100
AcDbVertex
100
AcDb2dVertex
 10
138.2142259517815
 20
159.8893482103417
 30
0.0
  0
VERTEX
  5
BA9
330
B97
100
AcDbEntity
  8
レイヤー_1
 62
     7
100
AcDbVertex
100
AcDb2dVertex
 10
136.7621179517815
 20
159.8430112103418
 30
0.0
  0
VERTEX
  5
BAA
330
B97
100
AcDbEntity
  8
レイヤー_1
 62
     7
100
AcDbVertex
100
AcDb2dVertex
 10
135.3103549517815
 20
159.7019352103418
 30
0.0
  0
VERTEX
  5
BAB
330
B97
100
AcDbEntity
  8
レイヤー_1
 62
     7
100
AcDbVertex
100
AcDb2dVertex
 10
133.8672049517815
 20
159.4571612103418
 30
0.0
  0
VERTEX
  5
BAC
330
B97
100
AcDbEntity
  8
レイヤー_1
 62
     7
100
AcDbVertex
100
AcDb2dVertex
 10
132.4540269517815
 20
159.1264322103417
 30
0.0
  0
VERTEX
  5
BAD
330
B97
100
AcDbEntity
  8
レイヤー_1
 62
     7
100
AcDbVertex
100
AcDb2dVertex
 10
131.0584179517815
 20
158.7030292103418
 30
0.0
  0
VERTEX
  5
BAE
330
B97
100
AcDbEntity
  8
レイヤー_1
 62
     7
100
AcDbVertex
100
AcDb2dVertex
 10
129.6914039517815
 20
158.1848872103417
 30
0.0
  0
VERTEX
  5
BAF
330
B97
100
AcDbEntity
  8
レイヤー_1
 62
     7
100
AcDbVertex
100
AcDb2dVertex
 10
128.3615979517815
 20
157.5818232103417
 30
0.0
  0
VERTEX
  5
BB0
330
B97
100
AcDbEntity
  8
レイヤー_1
 62
     7
100
AcDbVertex
100
AcDb2dVertex
 10
127.0696869517815
 20
156.8950432103416
 30
0.0
  0
VERTEX
  5
BB1
330
B97
100
AcDbEntity
  8
レイヤー_1
 62
     7
100
AcDbVertex
100
AcDb2dVertex
 10
125.8349649517815
 20
156.1211032103418
 30
0.0
  0
VERTEX
  5
BB2
330
B97
100
AcDbEntity
  8
レイヤー_1
 62
     7
100
AcDbVertex
100
AcDb2dVertex
 10
124.6477849517815
 20
155.2744702103417
 30
0.0
  0
VERTEX
  5
BB3
330
B97
100
AcDbEntity
  8
レイヤー_1
 62
     7
100
AcDbVertex
100
AcDb2dVertex
 10
123.5264059517815
 20
154.3506682103417
 30
0.0
  0
VERTEX
  5
BB4
330
B97
100
AcDbEntity
  8
レイヤー_1
 62
     7
100
AcDbVertex
100
AcDb2dVertex
 10
122.4615269517815
 20
153.3519352103416
 30
0.0
  0
SEQEND
  5
BB5
330
B97
100
AcDbEntity
  8
レイヤー_1
 62
     7
  0
POLYLINE
  5
BB6
330
75
100
AcDbEntity
  8
レイヤー_1
 62
     7
100
AcDb2dPolyline
 66
     1
 10
0.0
 20
0.0
 30
0.0
  0
VERTEX
  5
BB7
330
BB6
100
AcDbEntity
  8
レイヤー_1
 62
     7
100
AcDbVertex
100
AcDb2dVertex
 10
160.1426029517815
 20
146.5983422103418
 30
0.0
  0
VERTEX
  5
BB8
330
BB6
100
AcDbEntity
  8
レイヤー_1
 62
     7
100
AcDbVertex
100
AcDb2dVertex
 10
159.5297209517815
 20
147.9543312103416
 30
0.0
  0
VERTEX
  5
BB9
330
BB6
100
AcDbEntity
  8
レイヤー_1
 62
     7
100
AcDbVertex
100
AcDb2dVertex
 10
158.8417349517815
 20
149.2729422103417
 30
0.0
  0
VERTEX
  5
BBA
330
BB6
100
AcDbEntity
  8
レイヤー_1
 62
     7
100
AcDbVertex
100
AcDb2dVertex
 10
158.0590099517815
 20
150.5450432103416
 30
0.0
  0
VERTEX
  5
BBB
330
BB6
100
AcDbEntity
  8
レイヤー_1
 62
     7
100
AcDbVertex
100
AcDb2dVertex
 10
157.2101379517815
 20
151.7687412103417
 30
0.0
  0
VERTEX
  5
BBC
330
BB6
100
AcDbEntity
  8
レイヤー_1
 62
     7
100
AcDbVertex
100
AcDb2dVertex
 10
156.2775509517815
 20
152.9373182103418
 30
0.0
  0
VERTEX
  5
BBD
330
BB6
100
AcDbEntity
  8
レイヤー_1
 62
     7
100
AcDbVertex
100
AcDb2dVertex
 10
155.2788179517815
 20
154.0397482103417
 30
0.0
  0
VERTEX
  5
BBE
330
BB6
100
AcDbEntity
  8
レイヤー_1
 62
     7
100
AcDbVertex
100
AcDb2dVertex
 10
154.2125609517815
 20
155.0848182103417
 30
0.0
  0
VERTEX
  5
BBF
330
BB6
100
AcDbEntity
  8
レイヤー_1
 62
     7
100
AcDbVertex
100
AcDb2dVertex
 10
153.0805019517815
 20
156.0549572103417
 30
0.0
  0
VERTEX
  5
BC0
330
BB6
100
AcDbEntity
  8
レイヤー_1
 62
     7
100
AcDbVertex
100
AcDb2dVertex
 10
151.8929779517815
 20
156.9513712103417
 30
0.0
  0
VERTEX
  5
BC1
330
BB6
100
AcDbEntity
  8
レイヤー_1
 62
     7
100
AcDbVertex
100
AcDb2dVertex
 10
150.6486089517815
 20
157.7704422103417
 30
0.0
  0
VERTEX
  5
BC2
330
BB6
100
AcDbEntity
  8
レイヤー_1
 62
     7
100
AcDbVertex
100
AcDb2dVertex
 10
149.3563539517815
 20
158.5145832103418
 30
0.0
  0
VERTEX
  5
BC3
330
BB6
100
AcDbEntity
  8
レイヤー_1
 62
     7
100
AcDbVertex
100
AcDb2dVertex
 10
148.0179339517815
 20
159.1638112103417
 30
0.0
  0
VERTEX
  5
BC4
330
BB6
100
AcDbEntity
  8
レイヤー_1
 62
     7
100
AcDbVertex
100
AcDb2dVertex
 10
146.6423079517815
 20
159.7393142103417
 30
0.0
  0
VERTEX
  5
BC5
330
BB6
100
AcDbEntity
  8
レイヤー_1
 62
     7
100
AcDbVertex
100
AcDb2dVertex
 10
145.2287849517815
 20
160.2288622103416
 30
0.0
  0
VERTEX
  5
BC6
330
BB6
100
AcDbEntity
  8
レイヤー_1
 62
     7
100
AcDbVertex
100
AcDb2dVertex
 10
143.7956249517815
 20
160.6245312103417
 30
0.0
  0
VERTEX
  5
BC7
330
BB6
100
AcDbEntity
  8
レイヤー_1
 62
     7
100
AcDbVertex
100
AcDb2dVertex
 10
142.3338709517815
 20
160.9256332103417
 30
0.0
  0
VERTEX
  5
BC8
330
BB6
100
AcDbEntity
  8
レイヤー_1
 62
     7
100
AcDbVertex
100
AcDb2dVertex
 10
140.8631599517815
 20
161.1328552103417
 30
0.0
  0
VERTEX
  5
BC9
330
BB6
100
AcDbEntity
  8
レイヤー_1
 62
     7
100
AcDbVertex
100
AcDb2dVertex
 10
139.3738449517815
 20
161.2563622103416
 30
0.0
  0
VERTEX
  5
BCA
330
BB6
100
AcDbEntity
  8
レイヤー_1
 62
     7
100
AcDbVertex
100
AcDb2dVertex
 10
137.8845309517815
 20
161.2849562103417
 30
0.0
  0
VERTEX
  5
BCB
330
BB6
100
AcDbEntity
  8
レイヤー_1
 62
     7
100
AcDbVertex
100
AcDb2dVertex
 10
136.3941819517815
 20
161.2088202103417
 30
0.0
  0
VERTEX
  5
BCC
330
BB6
100
AcDbEntity
  8
レイヤー_1
 62
     7
100
AcDbVertex
100
AcDb2dVertex
 10
134.9145139517815
 20
161.0489672103417
 30
0.0
  0
VERTEX
  5
BCD
330
BB6
100
AcDbEntity
  8
レイヤー_1
 62
     7
100
AcDbVertex
100
AcDb2dVertex
 10
133.4438019517815
 20
160.7943752103417
 30
0.0
  0
VERTEX
  5
BCE
330
BB6
100
AcDbEntity
  8
レイヤー_1
 62
     7
100
AcDbVertex
100
AcDb2dVertex
 10
131.9920389517815
 20
160.4448702103417
 30
0.0
  0
VERTEX
  5
BCF
330
BB6
100
AcDbEntity
  8
レイヤー_1
 62
     7
100
AcDbVertex
100
AcDb2dVertex
 10
130.5678369517815
 20
160.0126822103417
 30
0.0
  0
VERTEX
  5
BD0
330
BB6
100
AcDbEntity
  8
レイヤー_1
 62
     7
100
AcDbVertex
100
AcDb2dVertex
 10
129.1732619517815
 20
159.4857552103418
 30
0.0
  0
VERTEX
  5
BD1
330
BB6
100
AcDbEntity
  8
レイヤー_1
 62
     7
100
AcDbVertex
100
AcDb2dVertex
 10
127.8148609517815
 20
158.8728732103417
 30
0.0
  0
VERTEX
  5
BD2
330
BB6
100
AcDbEntity
  8
レイヤー_1
 62
     7
100
AcDbVertex
100
AcDb2dVertex
 10
126.5053799517815
 20
158.1761022103418
 30
0.0
  0
VERTEX
  5
BD3
330
BB6
100
AcDbEntity
  8
レイヤー_1
 62
     7
100
AcDbVertex
100
AcDb2dVertex
 10
125.2320729517815
 20
157.3933762103417
 30
0.0
  0
VERTEX
  5
BD4
330
BB6
100
AcDbEntity
  8
レイヤー_1
 62
     7
100
AcDbVertex
100
AcDb2dVertex
 10
124.0069969517815
 20
156.5357202103417
 30
0.0
  0
VERTEX
  5
BD5
330
BB6
100
AcDbEntity
  8
レイヤー_1
 62
     7
100
AcDbVertex
100
AcDb2dVertex
 10
122.8473779517815
 20
155.6029602103417
 30
0.0
  0
VERTEX
  5
BD6
330
BB6
100
AcDbEntity
  8
レイヤー_1
 62
     7
100
AcDbVertex
100
AcDb2dVertex
 10
121.7449469517815
 20
154.5954422103416
 30
0.0
  0
VERTEX
  5
BD7
330
BB6
100
AcDbEntity
  8
レイヤー_1
 62
     7
100
AcDbVertex
100
AcDb2dVertex
 10
120.7065949517815
 20
153.5303912103417
 30
0.0
  0
SEQEND
  5
BD8
330
BB6
100
AcDbEntity
  8
レイヤー_1
 62
     7
  0
POLYLINE
  5
BD9
330
75
100
AcDbEntity
  8
レイヤー_1
 62
     7
100
AcDb2dPolyline
 66
     1
 10
0.0
 20
0.0
 30
0.0
  0
VERTEX
  5
BDA
330
BD9
100
AcDbEntity
  8
レイヤー_1
 62
     7
100
AcDbVertex
100
AcDb2dVertex
 10
117.7376119517815
 20
149.4513982103417
 30
0.0
  0
VERTEX
  5
BDB
330
BD9
100
AcDbEntity
  8
レイヤー_1
 62
     7
100
AcDbVertex
100
AcDb2dVertex
 10
117.0310229517815
 20
148.1329602103417
 30
0.0
  0
VERTEX
  5
BDC
330
BD9
100
AcDbEntity
  8
レイヤー_1
 62
     7
100
AcDbVertex
100
AcDb2dVertex
 10
116.4081499517815
 20
146.7769702103417
 30
0.0
  0
SEQEND
  5
BDD
330
BD9
100
AcDbEntity
  8
レイヤー_1
 62
     7
  0
POLYLINE
  5
BDE
330
75
100
AcDbEntity
  8
レイヤー_1
 62
     7
100
AcDb2dPolyline
 66
     1
 10
0.0
 20
0.0
 30
0.0
  0
VERTEX
  5
BDF
330
BDE
100
AcDbEntity
  8
レイヤー_1
 62
     7
100
AcDbVertex
100
AcDb2dVertex
 10
138.2328299517815
 20
113.9641582103417
 30
0.0
  0
VERTEX
  5
BE0
330
BDE
100
AcDbEntity
  8
レイヤー_1
 62
     7
100
AcDbVertex
100
AcDb2dVertex
 10
139.7221439517815
 20
114.0117002103417
 30
0.0
  0
VERTEX
  5
BE1
330
BDE
100
AcDbEntity
  8
レイヤー_1
 62
     7
100
AcDbVertex
100
AcDb2dVertex
 10
141.2118039517815
 20
114.1527772103418
 30
0.0
  0
SEQEND
  5
BE2
330
BDE
100
AcDbEntity
  8
レイヤー_1
 62
     7
  0
POLYLINE
  5
BE3
330
75
100
AcDbEntity
  8
レイヤー_1
 62
     7
100
AcDb2dPolyline
 66
     1
 10
0.0
 20
0.0
 30
0.0
  0
VERTEX
  5
BE4
330
BE3
100
AcDbEntity
  8
レイヤー_1
 62
     7
100
AcDbVertex
100
AcDb2dVertex
 10
158.7280469517815
 20
149.4513982103417
 30
0.0
  0
VERTEX
  5
BE5
330
BE3
100
AcDbEntity
  8
レイヤー_1
 62
     7
100
AcDbVertex
100
AcDb2dVertex
 10
157.9453219517815
 20
150.7236712103417
 30
0.0
  0
VERTEX
  5
BE6
330
BE3
100
AcDbEntity
  8
レイヤー_1
 62
     7
100
AcDbVertex
100
AcDb2dVertex
 10
157.0778469517815
 20
151.9484032103417
 30
0.0
  0
SEQEND
  5
BE7
330
BE3
100
AcDbEntity
  8
レイヤー_1
 62
     7
  0
POLYLINE
  5
BE8
330
75
100
AcDbEntity
  8
レイヤー_1
 62
     7
100
AcDb2dPolyline
 66
     1
 10
0.0
 20
0.0
 30
0.0
  0
VERTEX
  5
BE9
330
BE8
100
AcDbEntity
  8
レイヤー_1
 62
     7
100
AcDbVertex
100
AcDb2dVertex
 10
155.8631059517815
 20
124.0073002103417
 30
0.0
  0
VERTEX
  5
BEA
330
BE8
100
AcDbEntity
  8
レイヤー_1
 62
     7
100
AcDbVertex
100
AcDb2dVertex
 10
156.7205899517816
 20
125.1936192103417
 30
0.0
  0
VERTEX
  5
BEB
330
BE8
100
AcDbEntity
  8
レイヤー_1
 62
     7
100
AcDbVertex
100
AcDb2dVertex
 10
157.4933249517815
 20
126.4371262103417
 30
0.0
  0
VERTEX
  5
BEC
330
BE8
100
AcDbEntity
  8
レイヤー_1
 62
     7
100
AcDbVertex
100
AcDb2dVertex
 10
158.1913009517815
 20
127.7280042103417
 30
0.0
  0
VERTEX
  5
BED
330
BE8
100
AcDbEntity
  8
レイヤー_1
 62
     7
100
AcDbVertex
100
AcDb2dVertex
 10
158.7931599517815
 20
129.0564322103417
 30
0.0
  0
VERTEX
  5
BEE
330
BE8
100
AcDbEntity
  8
レイヤー_1
 62
     7
100
AcDbVertex
100
AcDb2dVertex
 10
159.3123349517815
 20
130.4224132103417
 30
0.0
  0
VERTEX
  5
BEF
330
BE8
100
AcDbEntity
  8
レイヤー_1
 62
     7
100
AcDbVertex
100
AcDb2dVertex
 10
159.7457279517815
 20
131.8257722103417
 30
0.0
  0
VERTEX
  5
BF0
330
BE8
100
AcDbEntity
  8
レイヤー_1
 62
     7
100
AcDbVertex
100
AcDb2dVertex
 10
160.0764579517815
 20
133.2491142103417
 30
0.0
  0
VERTEX
  5
BF1
330
BE8
100
AcDbEntity
  8
レイヤー_1
 62
     7
100
AcDbVertex
100
AcDb2dVertex
 10
160.3210589517815
 20
134.6988102103418
 30
0.0
  0
VERTEX
  5
BF2
330
BE8
100
AcDbEntity
  8
レイヤー_1
 62
     7
100
AcDbVertex
100
AcDb2dVertex
 10
160.4623079517815
 20
136.1495392103417
 30
0.0
  0
VERTEX
  5
BF3
330
BE8
100
AcDbEntity
  8
レイヤー_1
 62
     7
100
AcDbVertex
100
AcDb2dVertex
 10
160.5108839517815
 20
137.6190452103417
 30
0.0
  0
VERTEX
  5
BF4
330
BE8
100
AcDbEntity
  8
レイヤー_1
 62
     7
100
AcDbVertex
100
AcDb2dVertex
 10
160.4623079517815
 20
139.0797652103417
 30
0.0
  0
VERTEX
  5
BF5
330
BE8
100
AcDbEntity
  8
レイヤー_1
 62
     7
100
AcDbVertex
100
AcDb2dVertex
 10
160.3210589517815
 20
140.5394522103418
 30
0.0
  0
VERTEX
  5
BF6
330
BE8
100
AcDbEntity
  8
レイヤー_1
 62
     7
100
AcDbVertex
100
AcDb2dVertex
 10
160.0854149517815
 20
141.9813972103416
 30
0.0
  0
VERTEX
  5
BF7
330
BE8
100
AcDbEntity
  8
レイヤー_1
 62
     7
100
AcDbVertex
100
AcDb2dVertex
 10
159.7457279517815
 20
143.4035332103418
 30
0.0
  0
SEQEND
  5
BF8
330
BE8
100
AcDbEntity
  8
レイヤー_1
 62
     7
  0
POLYLINE
  5
BF9
330
75
100
AcDbEntity
  8
レイヤー_1
 62
     7
100
AcDb2dPolyline
 66
     1
 10
0.0
 20
0.0
 30
0.0
  0
VERTEX
  5
BFA
330
BF9
100
AcDbEntity
  8
レイヤー_1
 62
     7
100
AcDbVertex
100
AcDb2dVertex
 10
159.7457279517815
 20
143.4035332103418
 30
0.0
  0
VERTEX
  5
BFB
330
BF9
100
AcDbEntity
  8
レイヤー_1
 62
     7
100
AcDbVertex
100
AcDb2dVertex
 10
159.3398959517815
 20
144.7605562103418
 30
0.0
  0
VERTEX
  5
BFC
330
BF9
100
AcDbEntity
  8
レイヤー_1
 62
     7
100
AcDbVertex
100
AcDb2dVertex
 10
158.8417349517815
 20
146.0801992103417
 30
0.0
  0
SEQEND
  5
BFD
330
BF9
100
AcDbEntity
  8
レイヤー_1
 62
     7
  0
POLYLINE
  5
BFE
330
75
100
AcDbEntity
  8
レイヤー_1
 62
     7
100
AcDb2dPolyline
 66
     1
 10
0.0
 20
0.0
 30
0.0
  0
VERTEX
  5
BFF
330
BFE
100
AcDbEntity
  8
レイヤー_1
 62
     7
100
AcDbVertex
100
AcDb2dVertex
 10
158.8417349517815
 20
146.0801992103417
 30
0.0
  0
VERTEX
  5
C00
330
BFE
100
AcDbEntity
  8
レイヤー_1
 62
     7
100
AcDbVertex
100
AcDb2dVertex
 10
158.2288529517815
 20
147.4361892103417
 30
0.0
  0
VERTEX
  5
C01
330
BFE
100
AcDbEntity
  8
レイヤー_1
 62
     7
100
AcDbVertex
100
AcDb2dVertex
 10
157.5308769517815
 20
148.7547992103416
 30
0.0
  0
SEQEND
  5
C02
330
BFE
100
AcDbEntity
  8
レイヤー_1
 62
     7
  0
POLYLINE
  5
C03
330
75
100
AcDbEntity
  8
レイヤー_1
 62
     7
100
AcDb2dPolyline
 66
     1
 10
0.0
 20
0.0
 30
0.0
  0
VERTEX
  5
C04
330
C03
100
AcDbEntity
  8
レイヤー_1
 62
     7
100
AcDbVertex
100
AcDb2dVertex
 10
122.4615269517815
 20
153.3519352103416
 30
0.0
  0
VERTEX
  5
C05
330
C03
100
AcDbEntity
  8
レイヤー_1
 62
     7
100
AcDbVertex
100
AcDb2dVertex
 10
121.4989669517815
 20
152.3254692103417
 30
0.0
  0
VERTEX
  5
C06
330
C03
100
AcDbEntity
  8
レイヤー_1
 62
     7
100
AcDbVertex
100
AcDb2dVertex
 10
120.6028979517815
 20
151.2418142103417
 30
0.0
  0
SEQEND
  5
C07
330
C03
100
AcDbEntity
  8
レイヤー_1
 62
     7
  0
POLYLINE
  5
C08
330
75
100
AcDbEntity
  8
レイヤー_1
 62
     7
100
AcDb2dPolyline
 66
     1
 10
0.0
 20
0.0
 30
0.0
  0
VERTEX
  5
C09
330
C08
100
AcDbEntity
  8
レイヤー_1
 62
     7
100
AcDbVertex
100
AcDb2dVertex
 10
148.5650159517815
 20
155.9988022103418
 30
0.0
  0
VERTEX
  5
C0A
330
C08
100
AcDbEntity
  8
レイヤー_1
 62
     7
100
AcDbVertex
100
AcDb2dVertex
 10
148.3100789517815
 20
155.4431082103417
 30
0.0
  0
VERTEX
  5
C0B
330
C08
100
AcDbEntity
  8
レイヤー_1
 62
     7
100
AcDbVertex
100
AcDb2dVertex
 10
148.1416129517815
 20
154.8588202103417
 30
0.0
  0
VERTEX
  5
C0C
330
C08
100
AcDbEntity
  8
レイヤー_1
 62
     7
100
AcDbVertex
100
AcDb2dVertex
 10
148.0654769517815
 20
154.2559282103417
 30
0.0
  0
VERTEX
  5
C0D
330
C08
100
AcDbEntity
  8
レイヤー_1
 62
     7
100
AcDbVertex
100
AcDb2dVertex
 10
148.0840799517815
 20
153.6440792103418
 30
0.0
  0
VERTEX
  5
C0E
330
C08
100
AcDbEntity
  8
レイヤー_1
 62
     7
100
AcDbVertex
100
AcDb2dVertex
 10
148.1967349517815
 20
153.0508332103418
 30
0.0
  0
VERTEX
  5
C0F
330
C08
100
AcDbEntity
  8
レイヤー_1
 62
     7
100
AcDbVertex
100
AcDb2dVertex
 10
148.3951719517815
 20
152.4765362103418
 30
0.0
  0
VERTEX
  5
C10
330
C08
100
AcDbEntity
  8
レイヤー_1
 62
     7
100
AcDbVertex
100
AcDb2dVertex
 10
148.6873159517815
 20
151.9385842103418
 30
0.0
  0
VERTEX
  5
C11
330
C08
100
AcDbEntity
  8
レイヤー_1
 62
     7
100
AcDbVertex
100
AcDb2dVertex
 10
149.0555969517815
 20
151.4490362103417
 30
0.0
  0
VERTEX
  5
C12
330
C08
100
AcDbEntity
  8
レイヤー_1
 62
     7
100
AcDbVertex
100
AcDb2dVertex
 10
149.4886459517815
 20
151.0258062103418
 30
0.0
  0
VERTEX
  5
C13
330
C08
100
AcDbEntity
  8
レイヤー_1
 62
     7
100
AcDbVertex
100
AcDb2dVertex
 10
149.9792269517815
 20
150.6773352103417
 30
0.0
  0
VERTEX
  5
C14
330
C08
100
AcDbEntity
  8
レイヤー_1
 62
     7
100
AcDbVertex
100
AcDb2dVertex
 10
150.5259639517815
 20
150.3939762103418
 30
0.0
  0
VERTEX
  5
C15
330
C08
100
AcDbEntity
  8
レイヤー_1
 62
     7
100
AcDbVertex
100
AcDb2dVertex
 10
151.1016389517815
 20
150.2055292103418
 30
0.0
  0
VERTEX
  5
C16
330
C08
100
AcDbEntity
  8
レイヤー_1
 62
     7
100
AcDbVertex
100
AcDb2dVertex
 10
151.7045309517815
 20
150.1118222103416
 30
0.0
  0
VERTEX
  5
C17
330
C08
100
AcDbEntity
  8
レイヤー_1
 62
     7
100
AcDbVertex
100
AcDb2dVertex
 10
152.3088009517815
 20
150.1018322103417
 30
0.0
  0
VERTEX
  5
C18
330
C08
100
AcDbEntity
  8
レイヤー_1
 62
     7
100
AcDbVertex
100
AcDb2dVertex
 10
152.9106589517815
 20
150.1967442103417
 30
0.0
  0
VERTEX
  5
C19
330
C08
100
AcDbEntity
  8
レイヤー_1
 62
     7
100
AcDbVertex
100
AcDb2dVertex
 10
153.4959809517815
 20
150.3753722103416
 30
0.0
  0
VERTEX
  5
C1A
330
C08
100
AcDbEntity
  8
レイヤー_1
 62
     7
100
AcDbVertex
100
AcDb2dVertex
 10
154.0427169517815
 20
150.6387502103416
 30
0.0
  0
VERTEX
  5
C1B
330
C08
100
AcDbEntity
  8
レイヤー_1
 62
     7
100
AcDbVertex
100
AcDb2dVertex
 10
154.5422559517815
 20
150.9782642103417
 30
0.0
  0
SEQEND
  5
C1C
330
C08
100
AcDbEntity
  8
レイヤー_1
 62
     7
  0
POLYLINE
  5
C5F
330
75
100
AcDbEntity
  8
レイヤー_1
 62
     7
100
AcDb2dPolyline
 66
     1
 10
0.0
 20
0.0
 30
0.0
  0
VERTEX
  5
C60
330
C5F
100
AcDbEntity
  8
レイヤー_1
 62
     7
100
AcDbVertex
100
AcDb2dVertex
 10
120.8199389517815
 20
133.9171182103417
 30
0.0
  0
VERTEX
  5
C61
330
C5F
100
AcDbEntity
  8
レイヤー_1
 62
     7
100
AcDbVertex
100
AcDb2dVertex
 10
121.1220739517815
 20
132.7121952103417
 30
0.0
  0
VERTEX
  5
C62
330
C5F
100
AcDbEntity
  8
レイヤー_1
 62
     7
100
AcDbVertex
100
AcDb2dVertex
 10
121.5089579517815
 20
131.5336282103417
 30
0.0
  0
VERTEX
  5
C63
330
C5F
100
AcDbEntity
  8
レイヤー_1
 62
     7
100
AcDbVertex
100
AcDb2dVertex
 10
121.9699119517815
 20
130.3750432103417
 30
0.0
  0
VERTEX
  5
C64
330
C5F
100
AcDbEntity
  8
レイヤー_1
 62
     7
100
AcDbVertex
100
AcDb2dVertex
 10
122.5166489517815
 20
129.2638272103417
 30
0.0
  0
VERTEX
  5
C65
330
C5F
100
AcDbEntity
  8
レイヤー_1
 62
     7
100
AcDbVertex
100
AcDb2dVertex
 10
123.1395219517815
 20
128.1800002103417
 30
0.0
  0
VERTEX
  5
C66
330
C5F
100
AcDbEntity
  8
レイヤー_1
 62
     7
100
AcDbVertex
100
AcDb2dVertex
 10
123.8374979517815
 20
127.1537062103417
 30
0.0
  0
VERTEX
  5
C67
330
C5F
100
AcDbEntity
  8
レイヤー_1
 62
     7
100
AcDbVertex
100
AcDb2dVertex
 10
124.6091999517815
 20
126.1725432103417
 30
0.0
  0
VERTEX
  5
C68
330
C5F
100
AcDbEntity
  8
レイヤー_1
 62
     7
100
AcDbVertex
100
AcDb2dVertex
 10
125.4401569517815
 20
125.2497742103418
 30
0.0
  0
SEQEND
  5
C69
330
C5F
100
AcDbEntity
  8
レイヤー_1
 62
     7
  0
POLYLINE
  5
C6A
330
75
100
AcDbEntity
  8
レイヤー_1
 62
     7
100
AcDb2dPolyline
 66
     1
 10
0.0
 20
0.0
 30
0.0
  0
VERTEX
  5
C6B
330
C6A
100
AcDbEntity
  8
レイヤー_1
 62
     7
100
AcDbVertex
100
AcDb2dVertex
 10
120.8199389517815
 20
133.9171182103417
 30
0.0
  0
VERTEX
  5
C6C
330
C6A
100
AcDbEntity
  8
レイヤー_1
 62
     7
100
AcDbVertex
100
AcDb2dVertex
 10
120.7162419517815
 20
134.1806672103417
 30
0.0
  0
VERTEX
  5
C6D
330
C6A
100
AcDbEntity
  8
レイヤー_1
 62
     7
100
AcDbVertex
100
AcDb2dVertex
 10
120.5467429517815
 20
134.3977082103417
 30
0.0
  0
VERTEX
  5
C6E
330
C6A
100
AcDbEntity
  8
レイヤー_1
 62
     7
100
AcDbVertex
100
AcDb2dVertex
 10
120.3117869517815
 20
134.5487762103418
 30
0.0
  0
VERTEX
  5
C6F
330
C6A
100
AcDbEntity
  8
レイヤー_1
 62
     7
100
AcDbVertex
100
AcDb2dVertex
 10
120.0382469517815
 20
134.6237072103417
 30
0.0
  0
VERTEX
  5
C70
330
C6A
100
AcDbEntity
  8
レイヤー_1
 62
     7
100
AcDbVertex
100
AcDb2dVertex
 10
119.7550599517815
 20
134.6051032103418
 30
0.0
  0
VERTEX
  5
C71
330
C6A
100
AcDbEntity
  8
レイヤー_1
 62
     7
100
AcDbVertex
100
AcDb2dVertex
 10
119.5004679517815
 20
134.5113972103417
 30
0.0
  0
VERTEX
  5
C72
330
C6A
100
AcDbEntity
  8
レイヤー_1
 62
     7
100
AcDbVertex
100
AcDb2dVertex
 10
119.2844599517815
 20
134.3315632103417
 30
0.0
  0
VERTEX
  5
C73
330
C6A
100
AcDbEntity
  8
レイヤー_1
 62
     7
100
AcDbVertex
100
AcDb2dVertex
 10
119.1232299517815
 20
134.0967792103417
 30
0.0
  0
VERTEX
  5
C74
330
C6A
100
AcDbEntity
  8
レイヤー_1
 62
     7
100
AcDbVertex
100
AcDb2dVertex
 10
119.0570839517815
 20
133.8234112103418
 30
0.0
  0
VERTEX
  5
C75
330
C6A
100
AcDbEntity
  8
レイヤー_1
 62
     7
100
AcDbVertex
100
AcDb2dVertex
 10
119.0670739517815
 20
133.5500432103417
 30
0.0
  0
SEQEND
  5
C76
330
C6A
100
AcDbEntity
  8
レイヤー_1
 62
     7
  0
POLYLINE
  5
C77
330
75
100
AcDbEntity
  8
レイヤー_1
 62
     7
100
AcDb2dPolyline
 66
     1
 10
0.0
 20
0.0
 30
0.0
  0
VERTEX
  5
C78
330
C77
100
AcDbEntity
  8
レイヤー_1
 62
     7
100
AcDbVertex
100
AcDb2dVertex
 10
119.0670739517815
 20
133.5500432103417
 30
0.0
  0
VERTEX
  5
C79
330
C77
100
AcDbEntity
  8
レイヤー_1
 62
     7
100
AcDbVertex
100
AcDb2dVertex
 10
119.4057269517815
 20
132.2028382103417
 30
0.0
  0
VERTEX
  5
C7A
330
C77
100
AcDbEntity
  8
レイヤー_1
 62
     7
100
AcDbVertex
100
AcDb2dVertex
 10
119.8398089517815
 20
130.8931852103418
 30
0.0
  0
VERTEX
  5
C7B
330
C77
100
AcDbEntity
  8
レイヤー_1
 62
     7
100
AcDbVertex
100
AcDb2dVertex
 10
120.3579519517815
 20
129.6121262103417
 30
0.0
  0
VERTEX
  5
C7C
330
C77
100
AcDbEntity
  8
レイヤー_1
 62
     7
100
AcDbVertex
100
AcDb2dVertex
 10
120.9711789517815
 20
128.3686192103417
 30
0.0
  0
VERTEX
  5
C7D
330
C77
100
AcDbEntity
  8
レイヤー_1
 62
     7
100
AcDbVertex
100
AcDb2dVertex
 10
121.6688109517815
 20
127.1724822103417
 30
0.0
  0
VERTEX
  5
C7E
330
C77
100
AcDbEntity
  8
レイヤー_1
 62
     7
100
AcDbVertex
100
AcDb2dVertex
 10
122.4505029517815
 20
126.0325002103417
 30
0.0
  0
VERTEX
  5
C7F
330
C77
100
AcDbEntity
  8
レイヤー_1
 62
     7
100
AcDbVertex
100
AcDb2dVertex
 10
123.3093649517815
 20
124.9400602103418
 30
0.0
  0
VERTEX
  5
C80
330
C77
100
AcDbEntity
  8
レイヤー_1
 62
     7
100
AcDbVertex
100
AcDb2dVertex
 10
124.2419519517815
 20
123.9213452103417
 30
0.0
  0
SEQEND
  5
C81
330
C77
100
AcDbEntity
  8
レイヤー_1
 62
     7
  0
POLYLINE
  5
C82
330
75
100
AcDbEntity
  8
レイヤー_1
 62
     7
100
AcDb2dPolyline
 66
     1
 10
0.0
 20
0.0
 30
0.0
  0
VERTEX
  5
C83
330
C82
100
AcDbEntity
  8
レイヤー_1
 62
     7
100
AcDbVertex
100
AcDb2dVertex
 10
124.7886889517815
 20
123.3756422103417
 30
0.0
  0
VERTEX
  5
C84
330
C82
100
AcDbEntity
  8
レイヤー_1
 62
     7
100
AcDbVertex
100
AcDb2dVertex
 10
124.7325339517815
 20
122.9424212103417
 30
0.0
  0
VERTEX
  5
C85
330
C82
100
AcDbEntity
  8
レイヤー_1
 62
     7
100
AcDbVertex
100
AcDb2dVertex
 10
124.7700859517815
 20
122.4992102103418
 30
0.0
  0
VERTEX
  5
C86
330
C82
100
AcDbEntity
  8
レイヤー_1
 62
     7
100
AcDbVertex
100
AcDb2dVertex
 10
124.9109899517815
 20
122.0759802103418
 30
0.0
  0
VERTEX
  5
C87
330
C82
100
AcDbEntity
  8
レイヤー_1
 62
     7
100
AcDbVertex
100
AcDb2dVertex
 10
125.1383659517815
 20
121.6989142103418
 30
0.0
  0
VERTEX
  5
C88
330
C82
100
AcDbEntity
  8
レイヤー_1
 62
     7
100
AcDbVertex
100
AcDb2dVertex
 10
125.4401569517815
 20
121.3792092103417
 30
0.0
  0
VERTEX
  5
C89
330
C82
100
AcDbEntity
  8
レイヤー_1
 62
     7
100
AcDbVertex
100
AcDb2dVertex
 10
125.8074039517815
 20
121.1334022103417
 30
0.0
  0
VERTEX
  5
C8A
330
C82
100
AcDbEntity
  8
レイヤー_1
 62
     7
100
AcDbVertex
100
AcDb2dVertex
 10
126.2218489517815
 20
120.9735492103417
 30
0.0
  0
VERTEX
  5
C8B
330
C82
100
AcDbEntity
  8
レイヤー_1
 62
     7
100
AcDbVertex
100
AcDb2dVertex
 10
126.6552419517815
 20
120.9074042103418
 30
0.0
  0
VERTEX
  5
C8C
330
C82
100
AcDbEntity
  8
レイヤー_1
 62
     7
100
AcDbVertex
100
AcDb2dVertex
 10
127.0982809517815
 20
120.9447832103417
 30
0.0
  0
VERTEX
  5
C8D
330
C82
100
AcDbEntity
  8
レイヤー_1
 62
     7
100
AcDbVertex
100
AcDb2dVertex
 10
127.5237499517815
 20
121.0770742103417
 30
0.0
  0
VERTEX
  5
C8E
330
C82
100
AcDbEntity
  8
レイヤー_1
 62
     7
100
AcDbVertex
100
AcDb2dVertex
 10
127.9009879517815
 20
121.2932542103417
 30
0.0
  0
VERTEX
  5
C8F
330
C82
100
AcDbEntity
  8
レイヤー_1
 62
     7
100
AcDbVertex
100
AcDb2dVertex
 10
128.2306839517815
 20
121.5952172103417
 30
0.0
  0
VERTEX
  5
C90
330
C82
100
AcDbEntity
  8
レイヤー_1
 62
     7
100
AcDbVertex
100
AcDb2dVertex
 10
128.4752859517815
 20
121.9622922103417
 30
0.0
  0
VERTEX
  5
C91
330
C82
100
AcDbEntity
  8
レイヤー_1
 62
     7
100
AcDbVertex
100
AcDb2dVertex
 10
128.6451289517815
 20
122.3669182103417
 30
0.0
  0
VERTEX
  5
C92
330
C82
100
AcDbEntity
  8
レイヤー_1
 62
     7
100
AcDbVertex
100
AcDb2dVertex
 10
128.7112749517815
 20
122.8101302103418
 30
0.0
  0
VERTEX
  5
C93
330
C82
100
AcDbEntity
  8
レイヤー_1
 62
     7
100
AcDbVertex
100
AcDb2dVertex
 10
128.6826809517815
 20
123.2533412103417
 30
0.0
  0
VERTEX
  5
C94
330
C82
100
AcDbEntity
  8
レイヤー_1
 62
     7
100
AcDbVertex
100
AcDb2dVertex
 10
128.5514219517815
 20
123.6765712103417
 30
0.0
  0
VERTEX
  5
C95
330
C82
100
AcDbEntity
  8
レイヤー_1
 62
     7
100
AcDbVertex
100
AcDb2dVertex
 10
128.3340369517815
 20
124.0636282103417
 30
0.0
  0
VERTEX
  5
C96
330
C82
100
AcDbEntity
  8
レイヤー_1
 62
     7
100
AcDbVertex
100
AcDb2dVertex
 10
128.0418929517815
 20
124.3843662103417
 30
0.0
  0
VERTEX
  5
C97
330
C82
100
AcDbEntity
  8
レイヤー_1
 62
     7
100
AcDbVertex
100
AcDb2dVertex
 10
127.6739569517815
 20
124.6379252103417
 30
0.0
  0
VERTEX
  5
C98
330
C82
100
AcDbEntity
  8
レイヤー_1
 62
     7
100
AcDbVertex
100
AcDb2dVertex
 10
127.2681239517815
 20
124.8077682103417
 30
0.0
  0
VERTEX
  5
C99
330
C82
100
AcDbEntity
  8
レイヤー_1
 62
     7
100
AcDbVertex
100
AcDb2dVertex
 10
126.8250849517815
 20
124.8826992103417
 30
0.0
  0
VERTEX
  5
C9A
330
C82
100
AcDbEntity
  8
レイヤー_1
 62
     7
100
AcDbVertex
100
AcDb2dVertex
 10
126.3817009517815
 20
124.8541052103417
 30
0.0
  0
VERTEX
  5
C9B
330
C82
100
AcDbEntity
  8
レイヤー_1
 62
     7
100
AcDbVertex
100
AcDb2dVertex
 10
125.9582989517815
 20
124.7328382103417
 30
0.0
  0
SEQEND
  5
C9C
330
C82
100
AcDbEntity
  8
レイヤー_1
 62
     7
  0
LINE
  5
C9D
330
75
100
AcDbEntity
  8
レイヤー_1
 62
     7
100
AcDbLine
 10
124.6663879517815
 20
123.7802692103417
 30
0.0
 11
124.2419519517815
 21
123.9213452103417
 31
0.0
  0
LINE
  5
C9E
330
75
100
AcDbEntity
  8
レイヤー_1
 62
     7
100
AcDbLine
 10
124.7886889517815
 20
123.3756422103417
 30
0.0
 11
124.6663879517815
 21
123.7802692103417
 31
0.0
  0
LINE
  5
C9F
330
75
100
AcDbEntity
  8
レイヤー_1
 62
     7
100
AcDbLine
 10
125.5903629517815
 20
124.8363632103417
 30
0.0
 11
125.4401569517815
 21
125.2497742103418
 31
0.0
  0
LINE
  5
CA0
330
75
100
AcDbEntity
  8
レイヤー_1
 62
     7
100
AcDbLine
 10
125.9582989517815
 20
124.7328382103417
 30
0.0
 11
125.5903629517815
 21
124.8363632103417
 31
0.0
  0
POLYLINE
  5
CA1
330
75
100
AcDbEntity
  8
レイヤー_1
 62
     7
100
AcDb2dPolyline
 66
     1
 10
0.0
 20
0.0
 30
0.0
  0
VERTEX
  5
CA2
330
CA1
100
AcDbEntity
  8
レイヤー_1
 62
     7
100
AcDbVertex
100
AcDb2dVertex
 10
156.4846009517815
 20
155.6603212103417
 30
0.0
  0
VERTEX
  5
CA3
330
CA1
100
AcDbEntity
  8
レイヤー_1
 62
     7
100
AcDbVertex
100
AcDb2dVertex
 10
155.3249819517815
 20
156.7529332103418
 30
0.0
  0
VERTEX
  5
CA4
330
CA1
100
AcDbEntity
  8
レイヤー_1
 62
     7
100
AcDbVertex
100
AcDb2dVertex
 10
154.1088629517815
 20
157.7704422103417
 30
0.0
  0
VERTEX
  5
CA5
330
CA1
100
AcDbEntity
  8
レイヤー_1
 62
     7
100
AcDbVertex
100
AcDb2dVertex
 10
152.8355559517815
 20
158.7218052103418
 30
0.0
  0
SEQEND
  5
CA6
330
CA1
100
AcDbEntity
  8
レイヤー_1
 62
     7
  0
INSERT
  5
CA7
102
{ACAD_REACTORS
330
1176
102
}
330
75
100
AcDbEntity
  8
レイヤー_1
 62
     7
100
AcDbBlockReference
  2
AI9-BLK7
 10
154.2005029517815
 20
129.8911792103417
 30
0.0
  0
INSERT
  5
CA8
330
75
100
AcDbEntity
  8
レイヤー_1
 62
     7
100
AcDbBlockReference
  2
AI9-BLK8
 10
123.8616139517815
 20
127.7096582103418
 30
0.0
  0
INSERT
  5
CA9
330
75
100
AcDbEntity
  8
レイヤー_1
 62
     7
100
AcDbBlockReference
  2
AI9-BLK9
 10
137.0783779517815
 20
155.0849042103417
 30
0.0
  0
POLYLINE
  5
CAA
330
75
100
AcDbEntity
  8
レイヤー_1
 62
     7
100
AcDb2dPolyline
 66
     1
 10
0.0
 20
0.0
 30
0.0
 70
     1
  0
VERTEX
  5
CAB
330
CAA
100
AcDbEntity
  8
レイヤー_1
 62
     7
100
AcDbVertex
100
AcDb2dVertex
 10
147.4150429517815
 20
154.2845222103418
 30
0.0
  0
VERTEX
  5
CAC
330
CAA
100
AcDbEntity
  8
レイヤー_1
 62
     7
100
AcDbVertex
100
AcDb2dVertex
 10
147.3588879517815
 20
154.5480722103417
 30
0.0
  0
VERTEX
  5
CAD
330
CAA
100
AcDbEntity
  8
レイヤー_1
 62
     7
100
AcDbVertex
100
AcDb2dVertex
 10
147.2076479517815
 20
154.7740702103418
 30
0.0
  0
VERTEX
  5
CAE
330
CAA
100
AcDbEntity
  8
レイヤー_1
 62
     7
100
AcDbVertex
100
AcDb2dVertex
 10
146.9816499517815
 20
154.9249652103417
 30
0.0
  0
VERTEX
  5
CAF
330
CAA
100
AcDbEntity
  8
レイヤー_1
 62
     7
100
AcDbVertex
100
AcDb2dVertex
 10
146.7170659517815
 20
154.9725082103418
 30
0.0
  0
VERTEX
  5
CB0
330
CAA
100
AcDbEntity
  8
レイヤー_1
 62
     7
100
AcDbVertex
100
AcDb2dVertex
 10
146.4438699517815
 20
154.9249652103417
 30
0.0
  0
VERTEX
  5
CB1
330
CAA
100
AcDbEntity
  8
レイヤー_1
 62
     7
100
AcDbVertex
100
AcDb2dVertex
 10
146.2178719517815
 20
154.7740702103418
 30
0.0
  0
VERTEX
  5
CB2
330
CAA
100
AcDbEntity
  8
レイヤー_1
 62
     7
100
AcDbVertex
100
AcDb2dVertex
 10
146.0666319517815
 20
154.5480722103417
 30
0.0
  0
VERTEX
  5
CB3
330
CAA
100
AcDbEntity
  8
レイヤー_1
 62
     7
100
AcDbVertex
100
AcDb2dVertex
 10
146.0204679517815
 20
154.2845222103418
 30
0.0
  0
VERTEX
  5
CB4
330
CAA
100
AcDbEntity
  8
レイヤー_1
 62
     7
100
AcDbVertex
100
AcDb2dVertex
 10
146.0666319517815
 20
154.0111542103417
 30
0.0
  0
VERTEX
  5
CB5
330
CAA
100
AcDbEntity
  8
レイヤー_1
 62
     7
100
AcDbVertex
100
AcDb2dVertex
 10
146.2178719517815
 20
153.7861892103417
 30
0.0
  0
VERTEX
  5
CB6
330
CAA
100
AcDbEntity
  8
レイヤー_1
 62
     7
100
AcDbVertex
100
AcDb2dVertex
 10
146.4438699517815
 20
153.6340882103417
 30
0.0
  0
VERTEX
  5
CB7
330
CAA
100
AcDbEntity
  8
レイヤー_1
 62
     7
100
AcDbVertex
100
AcDb2dVertex
 10
146.7170659517815
 20
153.5877522103417
 30
0.0
  0
VERTEX
  5
CB8
330
CAA
100
AcDbEntity
  8
レイヤー_1
 62
     7
100
AcDbVertex
100
AcDb2dVertex
 10
146.9816499517815
 20
153.6340882103417
 30
0.0
  0
VERTEX
  5
CB9
330
CAA
100
AcDbEntity
  8
レイヤー_1
 62
     7
100
AcDbVertex
100
AcDb2dVertex
 10
147.2076479517815
 20
153.7861892103417
 30
0.0
  0
VERTEX
  5
CBA
330
CAA
100
AcDbEntity
  8
レイヤー_1
 62
     7
100
AcDbVertex
100
AcDb2dVertex
 10
147.3588879517815
 20
154.0111542103417
 30
0.0
  0
VERTEX
  5
CBB
330
CAA
100
AcDbEntity
  8
レイヤー_1
 62
     7
100
AcDbVertex
100
AcDb2dVertex
 10
147.4150429517815
 20
154.2845222103418
 30
0.0
  0
SEQEND
  5
CBC
330
CAA
100
AcDbEntity
  8
レイヤー_1
 62
     7
  0
POLYLINE
  5
CBD
330
75
100
AcDbEntity
  8
レイヤー_1
 62
     7
100
AcDb2dPolyline
 66
     1
 10
0.0
 20
0.0
 30
0.0
 70
     1
  0
VERTEX
  5
CBE
330
CBD
100
AcDbEntity
  8
レイヤー_1
 62
     7
100
AcDbVertex
100
AcDb2dVertex
 10
130.4641389517815
 20
120.9921532103418
 30
0.0
  0
VERTEX
  5
CBF
330
CBD
100
AcDbEntity
  8
レイヤー_1
 62
     7
100
AcDbVertex
100
AcDb2dVertex
 10
130.4079839517815
 20
121.2557032103418
 30
0.0
  0
VERTEX
  5
CC0
330
CBD
100
AcDbEntity
  8
レイヤー_1
 62
     7
100
AcDbVertex
100
AcDb2dVertex
 10
130.2567449517815
 20
121.4827342103417
 30
0.0
  0
VERTEX
  5
CC1
330
CBD
100
AcDbEntity
  8
レイヤー_1
 62
     7
100
AcDbVertex
100
AcDb2dVertex
 10
130.0307459517815
 20
121.6327682103417
 30
0.0
  0
VERTEX
  5
CC2
330
CBD
100
AcDbEntity
  8
レイヤー_1
 62
     7
100
AcDbVertex
100
AcDb2dVertex
 10
129.7661629517815
 20
121.6801382103417
 30
0.0
  0
VERTEX
  5
CC3
330
CBD
100
AcDbEntity
  8
レイヤー_1
 62
     7
100
AcDbVertex
100
AcDb2dVertex
 10
129.4929669517815
 20
121.6327682103417
 30
0.0
  0
VERTEX
  5
CC4
330
CBD
100
AcDbEntity
  8
レイヤー_1
 62
     7
100
AcDbVertex
100
AcDb2dVertex
 10
129.2766149517815
 20
121.4827342103417
 30
0.0
  0
VERTEX
  5
CC5
330
CBD
100
AcDbEntity
  8
レイヤー_1
 62
     7
100
AcDbVertex
100
AcDb2dVertex
 10
129.1257199517815
 20
121.2557032103418
 30
0.0
  0
VERTEX
  5
CC6
330
CBD
100
AcDbEntity
  8
レイヤー_1
 62
     7
100
AcDbVertex
100
AcDb2dVertex
 10
129.0695649517815
 20
120.9921532103418
 30
0.0
  0
VERTEX
  5
CC7
330
CBD
100
AcDbEntity
  8
レイヤー_1
 62
     7
100
AcDbVertex
100
AcDb2dVertex
 10
129.1257199517815
 20
120.7187852103417
 30
0.0
  0
VERTEX
  5
CC8
330
CBD
100
AcDbEntity
  8
レイヤー_1
 62
     7
100
AcDbVertex
100
AcDb2dVertex
 10
129.2766149517815
 20
120.4927862103417
 30
0.0
  0
VERTEX
  5
CC9
330
CBD
100
AcDbEntity
  8
レイヤー_1
 62
     7
100
AcDbVertex
100
AcDb2dVertex
 10
129.4929669517815
 20
120.3417192103417
 30
0.0
  0
VERTEX
  5
CCA
330
CBD
100
AcDbEntity
  8
レイヤー_1
 62
     7
100
AcDbVertex
100
AcDb2dVertex
 10
129.7661629517815
 20
120.2955552103418
 30
0.0
  0
VERTEX
  5
CCB
330
CBD
100
AcDbEntity
  8
レイヤー_1
 62
     7
100
AcDbVertex
100
AcDb2dVertex
 10
130.0307459517815
 20
120.3417192103417
 30
0.0
  0
VERTEX
  5
CCC
330
CBD
100
AcDbEntity
  8
レイヤー_1
 62
     7
100
AcDbVertex
100
AcDb2dVertex
 10
130.2567449517815
 20
120.4927862103417
 30
0.0
  0
VERTEX
  5
CCD
330
CBD
100
AcDbEntity
  8
レイヤー_1
 62
     7
100
AcDbVertex
100
AcDb2dVertex
 10
130.4079839517815
 20
120.7187852103417
 30
0.0
  0
VERTEX
  5
CCE
330
CBD
100
AcDbEntity
  8
レイヤー_1
 62
     7
100
AcDbVertex
100
AcDb2dVertex
 10
130.4641389517815
 20
120.9921532103418
 30
0.0
  0
SEQEND
  5
CCF
330
CBD
100
AcDbEntity
  8
レイヤー_1
 62
     7
  0
LINE
  5
CD0
102
{ACAD_REACTORS
330
112E
102
}
330
75
100
AcDbEntity
  8
レイヤー_1
 62
     7
100
AcDbLine
 10
152.7783669517815
 20
158.7769272103417
 30
0.0
 11
152.1465369517815
 21
158.0129772103417
 31
0.0
  0
LINE
  5
CD1
102
{ACAD_REACTORS
330
112E
102
}
330
75
100
AcDbEntity
  8
レイヤー_1
 62
     7
100
AcDbLine
 10
156.4846009517815
 20
155.6603212103417
 30
0.0
 11
155.8431239517815
 21
154.8974052103416
 31
0.0
  0
LINE
  5
CD2
330
75
100
AcDbEntity
  8
レイヤー_1
 62
     7
100
AcDbLine
 10
160.6321519517815
 20
150.5450432103416
 30
0.0
 11
159.5958669517815
 21
149.9519702103417
 31
0.0
  0
POLYLINE
  5
CD3
102
{ACAD_REACTORS
330
10B5
102
}
330
75
100
AcDbEntity
  8
レイヤー_1
 62
     7
100
AcDb2dPolyline
 66
     1
 10
0.0
 20
0.0
 30
0.0
 70
     1
  0
VERTEX
  5
CD4
330
CD3
100
AcDbEntity
  8
レイヤー_1
 62
     7
100
AcDbVertex
100
AcDb2dVertex
 10
142.2105369517815
 20
137.6190452103417
 30
0.0
  0
VERTEX
  5
CD5
330
CD3
100
AcDbEntity
  8
レイヤー_1
 62
     7
100
AcDbVertex
100
AcDb2dVertex
 10
142.1640279517815
 20
138.2419182103417
 30
0.0
  0
VERTEX
  5
CD6
330
CD3
100
AcDbEntity
  8
レイヤー_1
 62
     7
100
AcDbVertex
100
AcDb2dVertex
 10
142.0131329517815
 20
138.8537672103417
 30
0.0
  0
VERTEX
  5
CD7
330
CD3
100
AcDbEntity
  8
レイヤー_1
 62
     7
100
AcDbVertex
100
AcDb2dVertex
 10
141.7771439517815
 20
139.4282372103417
 30
0.0
  0
VERTEX
  5
CD8
330
CD3
100
AcDbEntity
  8
レイヤー_1
 62
     7
100
AcDbVertex
100
AcDb2dVertex
 10
141.4564059517815
 20
139.9551642103417
 30
0.0
  0
VERTEX
  5
CD9
330
CD3
100
AcDbEntity
  8
レイヤー_1
 62
     7
100
AcDbVertex
100
AcDb2dVertex
 10
141.0505729517815
 20
140.4357552103417
 30
0.0
  0
VERTEX
  5
CDA
330
CD3
100
AcDbEntity
  8
レイヤー_1
 62
     7
100
AcDbVertex
100
AcDb2dVertex
 10
140.5699819517815
 20
140.8414152103417
 30
0.0
  0
VERTEX
  5
CDB
330
CD3
100
AcDbEntity
  8
レイヤー_1
 62
     7
100
AcDbVertex
100
AcDb2dVertex
 10
140.0432269517815
 20
141.1611202103417
 30
0.0
  0
VERTEX
  5
CDC
330
CD3
100
AcDbEntity
  8
レイヤー_1
 62
     7
100
AcDbVertex
100
AcDb2dVertex
 10
139.4675519517815
 20
141.4071002103417
 30
0.0
  0
VERTEX
  5
CDD
330
CD3
100
AcDbEntity
  8
レイヤー_1
 62
     7
100
AcDbVertex
100
AcDb2dVertex
 10
138.8546689517815
 20
141.5481762103418
 30
0.0
  0
VERTEX
  5
CDE
330
CD3
100
AcDbEntity
  8
レイヤー_1
 62
     7
100
AcDbVertex
100
AcDb2dVertex
 10
138.2328299517815
 20
141.5955462103417
 30
0.0
  0
VERTEX
  5
CDF
330
CD3
100
AcDbEntity
  8
レイヤー_1
 62
     7
100
AcDbVertex
100
AcDb2dVertex
 10
137.6109899517815
 20
141.5481762103418
 30
0.0
  0
VERTEX
  5
CE0
330
CD3
100
AcDbEntity
  8
レイヤー_1
 62
     7
100
AcDbVertex
100
AcDb2dVertex
 10
137.0070649517815
 20
141.4071002103417
 30
0.0
  0
VERTEX
  5
CE1
102
{ACAD_REACTORS
330
10B5
102
}
330
CD3
100
AcDbEntity
  8
レイヤー_1
 62
     7
100
AcDbVertex
100
AcDb2dVertex
 10
136.4327669517815
 20
141.1611202103417
 30
0.0
  0
VERTEX
  5
CE2
330
CD3
100
AcDbEntity
  8
レイヤー_1
 62
     7
100
AcDbVertex
100
AcDb2dVertex
 10
135.8946429517815
 20
140.8414152103417
 30
0.0
  0
VERTEX
  5
CE3
330
CD3
100
AcDbEntity
  8
レイヤー_1
 62
     7
100
AcDbVertex
100
AcDb2dVertex
 10
135.4240429517815
 20
140.4357552103417
 30
0.0
  0
VERTEX
  5
CE4
330
CD3
100
AcDbEntity
  8
レイヤー_1
 62
     7
100
AcDbVertex
100
AcDb2dVertex
 10
135.0182109517815
 20
139.9551642103417
 30
0.0
  0
VERTEX
  5
CE5
330
CD3
100
AcDbEntity
  8
レイヤー_1
 62
     7
100
AcDbVertex
100
AcDb2dVertex
 10
134.6874819517815
 20
139.4282372103417
 30
0.0
  0
VERTEX
  5
CE6
330
CD3
100
AcDbEntity
  8
レイヤー_1
 62
     7
100
AcDbVertex
100
AcDb2dVertex
 10
134.4525259517815
 20
138.8537672103417
 30
0.0
  0
VERTEX
  5
CE7
330
CD3
100
AcDbEntity
  8
レイヤー_1
 62
     7
100
AcDbVertex
100
AcDb2dVertex
 10
134.3016309517815
 20
138.2419182103417
 30
0.0
  0
VERTEX
  5
CE8
330
CD3
100
AcDbEntity
  8
レイヤー_1
 62
     7
100
AcDbVertex
100
AcDb2dVertex
 10
134.2540889517815
 20
137.6190452103417
 30
0.0
  0
VERTEX
  5
CE9
330
CD3
100
AcDbEntity
  8
レイヤー_1
 62
     7
100
AcDbVertex
100
AcDb2dVertex
 10
134.3016309517815
 20
136.9984112103417
 30
0.0
  0
VERTEX
  5
CEA
330
CD3
100
AcDbEntity
  8
レイヤー_1
 62
     7
100
AcDbVertex
100
AcDb2dVertex
 10
134.4525259517815
 20
136.3943132103417
 30
0.0
  0
VERTEX
  5
CEB
330
CD3
100
AcDbEntity
  8
レイヤー_1
 62
     7
100
AcDbVertex
100
AcDb2dVertex
 10
134.6874819517815
 20
135.8210502103417
 30
0.0
  0
VERTEX
  5
CEC
330
CD3
100
AcDbEntity
  8
レイヤー_1
 62
     7
100
AcDbVertex
100
AcDb2dVertex
 10
135.0182109517815
 20
135.2830982103417
 30
0.0
  0
VERTEX
  5
CED
330
CD3
100
AcDbEntity
  8
レイヤー_1
 62
     7
100
AcDbVertex
100
AcDb2dVertex
 10
135.4240429517815
 20
134.8123262103418
 30
0.0
  0
VERTEX
  5
CEE
330
CD3
100
AcDbEntity
  8
レイヤー_1
 62
     7
100
AcDbVertex
100
AcDb2dVertex
 10
135.8946429517815
 20
134.4076992103417
 30
0.0
  0
VERTEX
  5
CEF
330
CD3
100
AcDbEntity
  8
レイヤー_1
 62
     7
100
AcDbVertex
100
AcDb2dVertex
 10
136.4327669517815
 20
134.0769702103417
 30
0.0
  0
VERTEX
  5
CF0
330
CD3
100
AcDbEntity
  8
レイヤー_1
 62
     7
100
AcDbVertex
100
AcDb2dVertex
 10
137.0070649517815
 20
133.8409812103417
 30
0.0
  0
VERTEX
  5
CF1
330
CD3
100
AcDbEntity
  8
レイヤー_1
 62
     7
100
AcDbVertex
100
AcDb2dVertex
 10
137.6109899517815
 20
133.6911192103417
 30
0.0
  0
VERTEX
  5
CF2
330
CD3
100
AcDbEntity
  8
レイヤー_1
 62
     7
100
AcDbVertex
100
AcDb2dVertex
 10
138.2328299517815
 20
133.6447832103418
 30
0.0
  0
VERTEX
  5
CF3
330
CD3
100
AcDbEntity
  8
レイヤー_1
 62
     7
100
AcDbVertex
100
AcDb2dVertex
 10
138.8546689517815
 20
133.6911192103417
 30
0.0
  0
VERTEX
  5
CF4
330
CD3
100
AcDbEntity
  8
レイヤー_1
 62
     7
100
AcDbVertex
100
AcDb2dVertex
 10
139.4675519517815
 20
133.8409812103417
 30
0.0
  0
VERTEX
  5
CF5
102
{ACAD_REACTORS
330
10B5
102
}
330
CD3
100
AcDbEntity
  8
レイヤー_1
 62
     7
100
AcDbVertex
100
AcDb2dVertex
 10
140.0432269517815
 20
134.0769702103417
 30
0.0
  0
VERTEX
  5
CF6
330
CD3
100
AcDbEntity
  8
レイヤー_1
 62
     7
100
AcDbVertex
100
AcDb2dVertex
 10
140.5699819517815
 20
134.4076992103417
 30
0.0
  0
VERTEX
  5
CF7
330
CD3
100
AcDbEntity
  8
レイヤー_1
 62
     7
100
AcDbVertex
100
AcDb2dVertex
 10
141.0505729517815
 20
134.8123262103418
 30
0.0
  0
VERTEX
  5
CF8
330
CD3
100
AcDbEntity
  8
レイヤー_1
 62
     7
100
AcDbVertex
100
AcDb2dVertex
 10
141.4564059517815
 20
135.2830982103417
 30
0.0
  0
VERTEX
  5
CF9
330
CD3
100
AcDbEntity
  8
レイヤー_1
 62
     7
100
AcDbVertex
100
AcDb2dVertex
 10
141.7771439517815
 20
135.8210502103417
 30
0.0
  0
VERTEX
  5
CFA
330
CD3
100
AcDbEntity
  8
レイヤー_1
 62
     7
100
AcDbVertex
100
AcDb2dVertex
 10
142.0131329517815
 20
136.3943132103417
 30
0.0
  0
VERTEX
  5
CFB
330
CD3
100
AcDbEntity
  8
レイヤー_1
 62
     7
100
AcDbVertex
100
AcDb2dVertex
 10
142.1640279517815
 20
136.9984112103417
 30
0.0
  0
VERTEX
  5
CFC
330
CD3
100
AcDbEntity
  8
レイヤー_1
 62
     7
100
AcDbVertex
100
AcDb2dVertex
 10
142.2105369517815
 20
137.6190452103417
 30
0.0
  0
SEQEND
  5
CFD
330
CD3
100
AcDbEntity
  8
レイヤー_1
 62
     7
  0
POLYLINE
  5
D55
330
75
100
AcDbEntity
  8
レイヤー_1
 62
     7
100
AcDb2dPolyline
 66
     1
 10
0.0
 20
0.0
 30
0.0
 70
     1
  0
VERTEX
  5
D56
330
D55
100
AcDbEntity
  8
レイヤー_1
 62
     7
100
AcDbVertex
100
AcDb2dVertex
 10
154.3438189517815
 20
137.6190452103417
 30
0.0
  0
VERTEX
  5
D57
330
D55
100
AcDbEntity
  8
レイヤー_1
 62
     7
100
AcDbVertex
100
AcDb2dVertex
 10
154.2976539517815
 20
138.8262062103418
 30
0.0
  0
VERTEX
  5
D58
330
D55
100
AcDbEntity
  8
レイヤー_1
 62
     7
100
AcDbVertex
100
AcDb2dVertex
 10
154.1653629517815
 20
140.0213102103417
 30
0.0
  0
VERTEX
  5
D59
330
D55
100
AcDbEntity
  8
レイヤー_1
 62
     7
100
AcDbVertex
100
AcDb2dVertex
 10
153.9393649517815
 20
141.2096962103418
 30
0.0
  0
VERTEX
  5
D5A
330
D55
100
AcDbEntity
  8
レイヤー_1
 62
     7
100
AcDbVertex
100
AcDb2dVertex
 10
153.6282719517815
 20
142.3672482103417
 30
0.0
  0
VERTEX
  5
D5B
330
D55
100
AcDbEntity
  8
レイヤー_1
 62
     7
100
AcDbVertex
100
AcDb2dVertex
 10
153.2324309517815
 20
143.5072302103417
 30
0.0
  0
VERTEX
  5
D5C
330
D55
100
AcDbEntity
  8
レイヤー_1
 62
     7
100
AcDbVertex
100
AcDb2dVertex
 10
152.7508069517815
 20
144.6096602103418
 30
0.0
  0
VERTEX
  5
D5D
330
D55
100
AcDbEntity
  8
レイヤー_1
 62
     7
100
AcDbVertex
100
AcDb2dVertex
 10
152.1851219517815
 20
145.6745392103417
 30
0.0
  0
VERTEX
  5
D5E
330
D55
100
AcDbEntity
  8
レイヤー_1
 62
     7
100
AcDbVertex
100
AcDb2dVertex
 10
151.5446789517815
 20
146.6920482103416
 30
0.0
  0
VERTEX
  5
D5F
330
D55
100
AcDbEntity
  8
レイヤー_1
 62
     7
100
AcDbVertex
100
AcDb2dVertex
 10
150.8270649517815
 20
147.6611542103418
 30
0.0
  0
VERTEX
  5
D60
330
D55
100
AcDbEntity
  8
レイヤー_1
 62
     7
100
AcDbVertex
100
AcDb2dVertex
 10
150.0453729517815
 20
148.5761712103417
 30
0.0
  0
VERTEX
  5
D61
330
D55
100
AcDbEntity
  8
レイヤー_1
 62
     7
100
AcDbVertex
100
AcDb2dVertex
 10
149.1975349517815
 20
149.4327942103416
 30
0.0
  0
VERTEX
  5
D62
330
D55
100
AcDbEntity
  8
レイヤー_1
 62
     7
100
AcDbVertex
100
AcDb2dVertex
 10
148.2825179517815
 20
150.2143142103417
 30
0.0
  0
VERTEX
  5
D63
330
D55
100
AcDbEntity
  8
レイヤー_1
 62
     7
100
AcDbVertex
100
AcDb2dVertex
 10
147.3113449517815
 20
150.9308942103416
 30
0.0
  0
VERTEX
  5
D64
330
D55
100
AcDbEntity
  8
レイヤー_1
 62
     7
100
AcDbVertex
100
AcDb2dVertex
 10
146.2940089517815
 20
151.5715092103418
 30
0.0
  0
VERTEX
  5
D65
330
D55
100
AcDbEntity
  8
レイヤー_1
 62
     7
100
AcDbVertex
100
AcDb2dVertex
 10
145.2287849517815
 20
152.1370222103417
 30
0.0
  0
VERTEX
  5
D66
330
D55
100
AcDbEntity
  8
レイヤー_1
 62
     7
100
AcDbVertex
100
AcDb2dVertex
 10
144.1242869517815
 20
152.6176132103417
 30
0.0
  0
VERTEX
  5
D67
330
D55
100
AcDbEntity
  8
レイヤー_1
 62
     7
100
AcDbVertex
100
AcDb2dVertex
 10
142.9843049517815
 20
153.0134542103416
 30
0.0
  0
VERTEX
  5
D68
330
D55
100
AcDbEntity
  8
レイヤー_1
 62
     7
100
AcDbVertex
100
AcDb2dVertex
 10
141.8157289517815
 20
153.3231682103417
 30
0.0
  0
VERTEX
  5
D69
330
D55
100
AcDbEntity
  8
レイヤー_1
 62
     7
100
AcDbVertex
100
AcDb2dVertex
 10
140.6361279517815
 20
153.5503722103418
 30
0.0
  0
VERTEX
  5
D6A
330
D55
100
AcDbEntity
  8
レイヤー_1
 62
     7
100
AcDbVertex
100
AcDb2dVertex
 10
139.4389579517815
 20
153.6826642103416
 30
0.0
  0
VERTEX
  5
D6B
330
D55
100
AcDbEntity
  8
レイヤー_1
 62
     7
100
AcDbVertex
100
AcDb2dVertex
 10
138.2328299517815
 20
153.7288282103417
 30
0.0
  0
VERTEX
  5
D6C
330
D55
100
AcDbEntity
  8
レイヤー_1
 62
     7
100
AcDbVertex
100
AcDb2dVertex
 10
137.0267019517815
 20
153.6826642103416
 30
0.0
  0
VERTEX
  5
D6D
330
D55
100
AcDbEntity
  8
レイヤー_1
 62
     7
100
AcDbVertex
100
AcDb2dVertex
 10
135.8284979517815
 20
153.5503722103418
 30
0.0
  0
VERTEX
  5
D6E
330
D55
100
AcDbEntity
  8
レイヤー_1
 62
     7
100
AcDbVertex
100
AcDb2dVertex
 10
134.6499299517815
 20
153.3231682103417
 30
0.0
  0
VERTEX
  5
D6F
330
D55
100
AcDbEntity
  8
レイヤー_1
 62
     7
100
AcDbVertex
100
AcDb2dVertex
 10
133.4813539517815
 20
153.0134542103416
 30
0.0
  0
VERTEX
  5
D70
330
D55
100
AcDbEntity
  8
レイヤー_1
 62
     7
100
AcDbVertex
100
AcDb2dVertex
 10
132.3503289517815
 20
152.6176132103417
 30
0.0
  0
VERTEX
  5
D71
330
D55
100
AcDbEntity
  8
レイヤー_1
 62
     7
100
AcDbVertex
100
AcDb2dVertex
 10
131.2468649517815
 20
152.1370222103417
 30
0.0
  0
VERTEX
  5
D72
330
D55
100
AcDbEntity
  8
レイヤー_1
 62
     7
100
AcDbVertex
100
AcDb2dVertex
 10
130.1806079517815
 20
151.5715092103418
 30
0.0
  0
VERTEX
  5
D73
330
D55
100
AcDbEntity
  8
レイヤー_1
 62
     7
100
AcDbVertex
100
AcDb2dVertex
 10
129.1532809517815
 20
150.9308942103416
 30
0.0
  0
VERTEX
  5
D74
330
D55
100
AcDbEntity
  8
レイヤー_1
 62
     7
100
AcDbVertex
100
AcDb2dVertex
 10
128.1920989517815
 20
150.2143142103417
 30
0.0
  0
VERTEX
  5
D75
330
D55
100
AcDbEntity
  8
レイヤー_1
 62
     7
100
AcDbVertex
100
AcDb2dVertex
 10
127.2781149517815
 20
149.4327942103416
 30
0.0
  0
VERTEX
  5
D76
330
D55
100
AcDbEntity
  8
レイヤー_1
 62
     7
100
AcDbVertex
100
AcDb2dVertex
 10
126.4202859517815
 20
148.5761712103417
 30
0.0
  0
VERTEX
  5
D77
330
D55
100
AcDbEntity
  8
レイヤー_1
 62
     7
100
AcDbVertex
100
AcDb2dVertex
 10
125.6375609517815
 20
147.6611542103418
 30
0.0
  0
VERTEX
  5
D78
330
D55
100
AcDbEntity
  8
レイヤー_1
 62
     7
100
AcDbVertex
100
AcDb2dVertex
 10
124.9209809517815
 20
146.6920482103416
 30
0.0
  0
VERTEX
  5
D79
330
D55
100
AcDbEntity
  8
レイヤー_1
 62
     7
100
AcDbVertex
100
AcDb2dVertex
 10
124.2805369517815
 20
145.6745392103417
 30
0.0
  0
VERTEX
  5
D7A
330
D55
100
AcDbEntity
  8
レイヤー_1
 62
     7
100
AcDbVertex
100
AcDb2dVertex
 10
123.7138189517815
 20
144.6096602103418
 30
0.0
  0
VERTEX
  5
D7B
330
D55
100
AcDbEntity
  8
レイヤー_1
 62
     7
100
AcDbVertex
100
AcDb2dVertex
 10
123.2332279517815
 20
143.5072302103417
 30
0.0
  0
VERTEX
  5
D7C
330
D55
100
AcDbEntity
  8
レイヤー_1
 62
     7
100
AcDbVertex
100
AcDb2dVertex
 10
122.8384209517815
 20
142.3672482103417
 30
0.0
  0
VERTEX
  5
D7D
330
D55
100
AcDbEntity
  8
レイヤー_1
 62
     7
100
AcDbVertex
100
AcDb2dVertex
 10
122.5266389517815
 20
141.2096962103418
 30
0.0
  0
VERTEX
  5
D7E
330
D55
100
AcDbEntity
  8
レイヤー_1
 62
     7
100
AcDbVertex
100
AcDb2dVertex
 10
122.3006409517815
 20
140.0213102103417
 30
0.0
  0
VERTEX
  5
D7F
330
D55
100
AcDbEntity
  8
レイヤー_1
 62
     7
100
AcDbVertex
100
AcDb2dVertex
 10
122.1683489517815
 20
138.8262062103418
 30
0.0
  0
VERTEX
  5
D80
330
D55
100
AcDbEntity
  8
レイヤー_1
 62
     7
100
AcDbVertex
100
AcDb2dVertex
 10
122.1218409517815
 20
137.6190452103417
 30
0.0
  0
VERTEX
  5
D81
330
D55
100
AcDbEntity
  8
レイヤー_1
 62
     7
100
AcDbVertex
100
AcDb2dVertex
 10
122.1683489517815
 20
136.4229082103417
 30
0.0
  0
VERTEX
  5
D82
330
D55
100
AcDbEntity
  8
レイヤー_1
 62
     7
100
AcDbVertex
100
AcDb2dVertex
 10
122.3006409517815
 20
135.2267712103417
 30
0.0
  0
VERTEX
  5
D83
330
D55
100
AcDbEntity
  8
レイヤー_1
 62
     7
100
AcDbVertex
100
AcDb2dVertex
 10
122.5266389517815
 20
134.0394182103417
 30
0.0
  0
VERTEX
  5
D84
330
D55
100
AcDbEntity
  8
レイヤー_1
 62
     7
100
AcDbVertex
100
AcDb2dVertex
 10
122.8384209517815
 20
132.8720482103417
 30
0.0
  0
VERTEX
  5
D85
330
D55
100
AcDbEntity
  8
レイヤー_1
 62
     7
100
AcDbVertex
100
AcDb2dVertex
 10
123.2332279517815
 20
131.7420572103418
 30
0.0
  0
VERTEX
  5
D86
330
D55
100
AcDbEntity
  8
レイヤー_1
 62
     7
100
AcDbVertex
100
AcDb2dVertex
 10
123.7138189517815
 20
130.6396262103417
 30
0.0
  0
VERTEX
  5
D87
330
D55
100
AcDbEntity
  8
レイヤー_1
 62
     7
100
AcDbVertex
100
AcDb2dVertex
 10
124.2805369517815
 20
129.5745752103417
 30
0.0
  0
VERTEX
  5
D88
330
D55
100
AcDbEntity
  8
レイヤー_1
 62
     7
100
AcDbVertex
100
AcDb2dVertex
 10
124.9209809517815
 20
128.5472472103417
 30
0.0
  0
VERTEX
  5
D89
330
D55
100
AcDbEntity
  8
レイヤー_1
 62
     7
100
AcDbVertex
100
AcDb2dVertex
 10
125.6375609517815
 20
127.5771082103418
 30
0.0
  0
VERTEX
  5
D8A
330
D55
100
AcDbEntity
  8
レイヤー_1
 62
     7
100
AcDbVertex
100
AcDb2dVertex
 10
126.4202859517815
 20
126.6731152103417
 30
0.0
  0
VERTEX
  5
D8B
330
D55
100
AcDbEntity
  8
レイヤー_1
 62
     7
100
AcDbVertex
100
AcDb2dVertex
 10
127.2781149517815
 20
125.8152872103417
 30
0.0
  0
VERTEX
  5
D8C
330
D55
100
AcDbEntity
  8
レイヤー_1
 62
     7
100
AcDbVertex
100
AcDb2dVertex
 10
128.1920989517815
 20
125.0325612103418
 30
0.0
  0
VERTEX
  5
D8D
330
D55
100
AcDbEntity
  8
レイヤー_1
 62
     7
100
AcDbVertex
100
AcDb2dVertex
 10
129.1532809517815
 20
124.3182202103417
 30
0.0
  0
VERTEX
  5
D8E
330
D55
100
AcDbEntity
  8
レイヤー_1
 62
     7
100
AcDbVertex
100
AcDb2dVertex
 10
130.1806079517815
 20
123.6765712103417
 30
0.0
  0
VERTEX
  5
D8F
330
D55
100
AcDbEntity
  8
レイヤー_1
 62
     7
100
AcDbVertex
100
AcDb2dVertex
 10
131.2468649517815
 20
123.1122652103417
 30
0.0
  0
VERTEX
  5
D90
330
D55
100
AcDbEntity
  8
レイヤー_1
 62
     7
100
AcDbVertex
100
AcDb2dVertex
 10
132.3503289517815
 20
122.6315022103418
 30
0.0
  0
VERTEX
  5
D91
330
D55
100
AcDbEntity
  8
レイヤー_1
 62
     7
100
AcDbVertex
100
AcDb2dVertex
 10
133.4813539517815
 20
122.2346272103417
 30
0.0
  0
VERTEX
  5
D92
330
D55
100
AcDbEntity
  8
レイヤー_1
 62
     7
100
AcDbVertex
100
AcDb2dVertex
 10
134.6499299517815
 20
121.9249122103417
 30
0.0
  0
VERTEX
  5
D93
330
D55
100
AcDbEntity
  8
レイヤー_1
 62
     7
100
AcDbVertex
100
AcDb2dVertex
 10
135.8284979517815
 20
121.6989142103418
 30
0.0
  0
VERTEX
  5
D94
330
D55
100
AcDbEntity
  8
レイヤー_1
 62
     7
100
AcDbVertex
100
AcDb2dVertex
 10
137.0267019517815
 20
121.5666232103417
 30
0.0
  0
VERTEX
  5
D95
330
D55
100
AcDbEntity
  8
レイヤー_1
 62
     7
100
AcDbVertex
100
AcDb2dVertex
 10
138.2328299517815
 20
121.5202862103417
 30
0.0
  0
VERTEX
  5
D96
330
D55
100
AcDbEntity
  8
レイヤー_1
 62
     7
100
AcDbVertex
100
AcDb2dVertex
 10
139.4389579517815
 20
121.5666232103417
 30
0.0
  0
VERTEX
  5
D97
330
D55
100
AcDbEntity
  8
レイヤー_1
 62
     7
100
AcDbVertex
100
AcDb2dVertex
 10
140.6361279517815
 20
121.6989142103418
 30
0.0
  0
VERTEX
  5
D98
330
D55
100
AcDbEntity
  8
レイヤー_1
 62
     7
100
AcDbVertex
100
AcDb2dVertex
 10
141.8157289517815
 20
121.9249122103417
 30
0.0
  0
VERTEX
  5
D99
330
D55
100
AcDbEntity
  8
レイヤー_1
 62
     7
100
AcDbVertex
100
AcDb2dVertex
 10
142.9843049517815
 20
122.2346272103417
 30
0.0
  0
VERTEX
  5
D9A
330
D55
100
AcDbEntity
  8
レイヤー_1
 62
     7
100
AcDbVertex
100
AcDb2dVertex
 10
144.1242869517815
 20
122.6315022103418
 30
0.0
  0
VERTEX
  5
D9B
330
D55
100
AcDbEntity
  8
レイヤー_1
 62
     7
100
AcDbVertex
100
AcDb2dVertex
 10
145.2287849517815
 20
123.1122652103417
 30
0.0
  0
VERTEX
  5
D9C
330
D55
100
AcDbEntity
  8
レイヤー_1
 62
     7
100
AcDbVertex
100
AcDb2dVertex
 10
146.2940089517815
 20
123.6765712103417
 30
0.0
  0
VERTEX
  5
D9D
330
D55
100
AcDbEntity
  8
レイヤー_1
 62
     7
100
AcDbVertex
100
AcDb2dVertex
 10
147.3113449517815
 20
124.3182202103417
 30
0.0
  0
VERTEX
  5
D9E
330
D55
100
AcDbEntity
  8
レイヤー_1
 62
     7
100
AcDbVertex
100
AcDb2dVertex
 10
148.2825179517815
 20
125.0325612103418
 30
0.0
  0
VERTEX
  5
D9F
330
D55
100
AcDbEntity
  8
レイヤー_1
 62
     7
100
AcDbVertex
100
AcDb2dVertex
 10
149.1975349517815
 20
125.8152872103417
 30
0.0
  0
VERTEX
  5
DA0
330
D55
100
AcDbEntity
  8
レイヤー_1
 62
     7
100
AcDbVertex
100
AcDb2dVertex
 10
150.0453729517815
 20
126.6731152103417
 30
0.0
  0
VERTEX
  5
DA1
330
D55
100
AcDbEntity
  8
レイヤー_1
 62
     7
100
AcDbVertex
100
AcDb2dVertex
 10
150.8270649517815
 20
127.5771082103418
 30
0.0
  0
VERTEX
  5
DA2
330
D55
100
AcDbEntity
  8
レイヤー_1
 62
     7
100
AcDbVertex
100
AcDb2dVertex
 10
151.5446789517815
 20
128.5472472103417
 30
0.0
  0
VERTEX
  5
DA3
330
D55
100
AcDbEntity
  8
レイヤー_1
 62
     7
100
AcDbVertex
100
AcDb2dVertex
 10
152.1851219517815
 20
129.5745752103417
 30
0.0
  0
VERTEX
  5
DA4
330
D55
100
AcDbEntity
  8
レイヤー_1
 62
     7
100
AcDbVertex
100
AcDb2dVertex
 10
152.7508069517815
 20
130.6396262103417
 30
0.0
  0
VERTEX
  5
DA5
330
D55
100
AcDbEntity
  8
レイヤー_1
 62
     7
100
AcDbVertex
100
AcDb2dVertex
 10
153.2324309517815
 20
131.7420572103418
 30
0.0
  0
VERTEX
  5
DA6
330
D55
100
AcDbEntity
  8
レイヤー_1
 62
     7
100
AcDbVertex
100
AcDb2dVertex
 10
153.6282719517815
 20
132.8720482103417
 30
0.0
  0
VERTEX
  5
DA7
330
D55
100
AcDbEntity
  8
レイヤー_1
 62
     7
100
AcDbVertex
100
AcDb2dVertex
 10
153.9393649517815
 20
134.0394182103417
 30
0.0
  0
VERTEX
  5
DA8
330
D55
100
AcDbEntity
  8
レイヤー_1
 62
     7
100
AcDbVertex
100
AcDb2dVertex
 10
154.1653629517815
 20
135.2267712103417
 30
0.0
  0
VERTEX
  5
DA9
330
D55
100
AcDbEntity
  8
レイヤー_1
 62
     7
100
AcDbVertex
100
AcDb2dVertex
 10
154.2976539517815
 20
136.4229082103417
 30
0.0
  0
VERTEX
  5
DAA
330
D55
100
AcDbEntity
  8
レイヤー_1
 62
     7
100
AcDbVertex
100
AcDb2dVertex
 10
154.3438189517815
 20
137.6190452103417
 30
0.0
  0
SEQEND
  5
DAB
330
D55
100
AcDbEntity
  8
レイヤー_1
 62
     7
  0
POLYLINE
  5
DAC
102
{ACAD_REACTORS
330
10F6
102
}
330
75
100
AcDbEntity
  8
レイヤー_1
 62
     7
100
AcDb2dPolyline
 66
     1
 10
0.0
 20
0.0
 30
0.0
 70
     1
  0
VERTEX
  5
DAD
330
DAC
100
AcDbEntity
  8
レイヤー_1
 62
     7
100
AcDbVertex
100
AcDb2dVertex
 10
164.0913719517815
 20
137.6190452103417
 30
0.0
  0
VERTEX
  5
DAE
330
DAC
100
AcDbEntity
  8
レイヤー_1
 62
     7
100
AcDbVertex
100
AcDb2dVertex
 10
164.0452079517815
 20
139.1834632103417
 30
0.0
  0
VERTEX
  5
DAF
330
DAC
100
AcDbEntity
  8
レイヤー_1
 62
     7
100
AcDbVertex
100
AcDb2dVertex
 10
163.9039589517815
 20
140.7378902103417
 30
0.0
  0
VERTEX
  5
DB0
330
DAC
100
AcDbEntity
  8
レイヤー_1
 62
     7
100
AcDbVertex
100
AcDb2dVertex
 10
163.6683139517815
 20
142.2835322103417
 30
0.0
  0
VERTEX
  5
DB1
330
DAC
100
AcDbEntity
  8
レイヤー_1
 62
     7
100
AcDbVertex
100
AcDb2dVertex
 10
163.3375849517815
 20
143.8091932103416
 30
0.0
  0
VERTEX
  5
DB2
330
DAC
100
AcDbEntity
  8
レイヤー_1
 62
     7
100
AcDbVertex
100
AcDb2dVertex
 10
162.9227959517815
 20
145.3162502103417
 30
0.0
  0
VERTEX
  5
DB3
330
DAC
100
AcDbEntity
  8
レイヤー_1
 62
     7
100
AcDbVertex
100
AcDb2dVertex
 10
162.4146439517815
 20
146.7857552103416
 30
0.0
  0
VERTEX
  5
DB4
330
DAC
100
AcDbEntity
  8
レイヤー_1
 62
     7
100
AcDbVertex
100
AcDb2dVertex
 10
161.8117519517815
 20
148.2277002103417
 30
0.0
  0
VERTEX
  5
DB5
330
DAC
100
AcDbEntity
  8
レイヤー_1
 62
     7
100
AcDbVertex
100
AcDb2dVertex
 10
161.1327239517815
 20
149.6300262103416
 30
0.0
  0
VERTEX
  5
DB6
330
DAC
100
AcDbEntity
  8
レイヤー_1
 62
     7
100
AcDbVertex
100
AcDb2dVertex
 10
160.3586109517815
 20
150.9970402103417
 30
0.0
  0
VERTEX
  5
DB7
330
DAC
100
AcDbEntity
  8
レイヤー_1
 62
     7
100
AcDbVertex
100
AcDb2dVertex
 10
159.5207639517815
 20
152.3066932103416
 30
0.0
  0
VERTEX
  5
DB8
102
{ACAD_REACTORS
330
10F6
102
}
330
DAC
100
AcDbEntity
  8
レイヤー_1
 62
     7
100
AcDbVertex
100
AcDb2dVertex
 10
158.5861089517815
 20
153.5679422103416
 30
0.0
  0
VERTEX
  5
DB9
330
DAC
100
AcDbEntity
  8
レイヤー_1
 62
     7
100
AcDbVertex
100
AcDb2dVertex
 10
157.5870319517815
 20
154.7651132103417
 30
0.0
  0
VERTEX
  5
DBA
330
DAC
100
AcDbEntity
  8
レイヤー_1
 62
     7
100
AcDbVertex
100
AcDb2dVertex
 10
156.5221529517815
 20
155.9050952103417
 30
0.0
  0
VERTEX
  5
DBB
330
DAC
100
AcDbEntity
  8
レイヤー_1
 62
     7
100
AcDbVertex
100
AcDb2dVertex
 10
155.3821709517815
 20
156.9699742103417
 30
0.0
  0
VERTEX
  5
DBC
330
DAC
100
AcDbEntity
  8
レイヤー_1
 62
     7
100
AcDbVertex
100
AcDb2dVertex
 10
154.1849999517815
 20
157.9688792103418
 30
0.0
  0
VERTEX
  5
DBD
330
DAC
100
AcDbEntity
  8
レイヤー_1
 62
     7
100
AcDbVertex
100
AcDb2dVertex
 10
152.9206499517815
 20
158.8904432103418
 30
0.0
  0
VERTEX
  5
DBE
330
DAC
100
AcDbEntity
  8
レイヤー_1
 62
     7
100
AcDbVertex
100
AcDb2dVertex
 10
151.6097909517815
 20
159.7393142103417
 30
0.0
  0
VERTEX
  5
DBF
330
DAC
100
AcDbEntity
  8
レイヤー_1
 62
     7
100
AcDbVertex
100
AcDb2dVertex
 10
150.2527679517815
 20
160.5110152103417
 30
0.0
  0
VERTEX
  5
DC0
330
DAC
100
AcDbEntity
  8
レイヤー_1
 62
     7
100
AcDbVertex
100
AcDb2dVertex
 10
148.8471689517815
 20
161.1902162103417
 30
0.0
  0
VERTEX
  5
DC1
330
DAC
100
AcDbEntity
  8
レイヤー_1
 62
     7
100
AcDbVertex
100
AcDb2dVertex
 10
147.4050519517815
 20
161.7920742103417
 30
0.0
  0
VERTEX
  5
DC2
330
DAC
100
AcDbEntity
  8
レイヤー_1
 62
     7
100
AcDbVertex
100
AcDb2dVertex
 10
145.9257279517815
 20
162.3014322103417
 30
0.0
  0
VERTEX
  5
DC3
330
DAC
100
AcDbEntity
  8
レイヤー_1
 62
     7
100
AcDbVertex
100
AcDb2dVertex
 10
144.4264219517815
 20
162.7158772103418
 30
0.0
  0
VERTEX
  5
DC4
330
DAC
100
AcDbEntity
  8
レイヤー_1
 62
     7
100
AcDbVertex
100
AcDb2dVertex
 10
142.8995559517815
 20
163.0466062103417
 30
0.0
  0
VERTEX
  5
DC5
330
DAC
100
AcDbEntity
  8
レイヤー_1
 62
     7
100
AcDbVertex
100
AcDb2dVertex
 10
141.3527079517815
 20
163.2813892103416
 30
0.0
  0
VERTEX
  5
DC6
330
DAC
100
AcDbEntity
  8
レイヤー_1
 62
     7
100
AcDbVertex
100
AcDb2dVertex
 10
139.7982809517815
 20
163.4236712103417
 30
0.0
  0
VERTEX
  5
DC7
330
DAC
100
AcDbEntity
  8
レイヤー_1
 62
     7
100
AcDbVertex
100
AcDb2dVertex
 10
138.2328299517815
 20
163.4700082103418
 30
0.0
  0
VERTEX
  5
DC8
330
DAC
100
AcDbEntity
  8
レイヤー_1
 62
     7
100
AcDbVertex
100
AcDb2dVertex
 10
136.6773689517815
 20
163.4236712103417
 30
0.0
  0
VERTEX
  5
DC9
330
DAC
100
AcDbEntity
  8
レイヤー_1
 62
     7
100
AcDbVertex
100
AcDb2dVertex
 10
135.1219079517815
 20
163.2813892103416
 30
0.0
  0
VERTEX
  5
DCA
330
DAC
100
AcDbEntity
  8
レイヤー_1
 62
     7
100
AcDbVertex
100
AcDb2dVertex
 10
133.5750609517815
 20
163.0466062103417
 30
0.0
  0
VERTEX
  5
DCB
330
DAC
100
AcDbEntity
  8
レイヤー_1
 62
     7
100
AcDbVertex
100
AcDb2dVertex
 10
132.0481939517815
 20
162.7158772103418
 30
0.0
  0
VERTEX
  5
DCC
330
DAC
100
AcDbEntity
  8
レイヤー_1
 62
     7
100
AcDbVertex
100
AcDb2dVertex
 10
130.5402759517815
 20
162.3014322103417
 30
0.0
  0
VERTEX
  5
DCD
330
DAC
100
AcDbEntity
  8
レイヤー_1
 62
     7
100
AcDbVertex
100
AcDb2dVertex
 10
129.0595739517815
 20
161.7920742103417
 30
0.0
  0
VERTEX
  5
DCE
330
DAC
100
AcDbEntity
  8
レイヤー_1
 62
     7
100
AcDbVertex
100
AcDb2dVertex
 10
127.6174569517815
 20
161.1902162103417
 30
0.0
  0
VERTEX
  5
DCF
330
DAC
100
AcDbEntity
  8
レイヤー_1
 62
     7
100
AcDbVertex
100
AcDb2dVertex
 10
126.2118579517815
 20
160.5110152103417
 30
0.0
  0
VERTEX
  5
DD0
330
DAC
100
AcDbEntity
  8
レイヤー_1
 62
     7
100
AcDbVertex
100
AcDb2dVertex
 10
124.8548349517815
 20
159.7393142103417
 30
0.0
  0
VERTEX
  5
DD1
330
DAC
100
AcDbEntity
  8
レイヤー_1
 62
     7
100
AcDbVertex
100
AcDb2dVertex
 10
123.5439759517815
 20
158.8904432103418
 30
0.0
  0
VERTEX
  5
DD2
330
DAC
100
AcDbEntity
  8
レイヤー_1
 62
     7
100
AcDbVertex
100
AcDb2dVertex
 10
122.2916839517815
 20
157.9688792103418
 30
0.0
  0
VERTEX
  5
DD3
330
DAC
100
AcDbEntity
  8
レイヤー_1
 62
     7
100
AcDbVertex
100
AcDb2dVertex
 10
121.0845219517815
 20
156.9699742103417
 30
0.0
  0
VERTEX
  5
DD4
330
DAC
100
AcDbEntity
  8
レイヤー_1
 62
     7
100
AcDbVertex
100
AcDb2dVertex
 10
119.9524639517815
 20
155.9050952103417
 30
0.0
  0
VERTEX
  5
DD5
330
DAC
100
AcDbEntity
  8
レイヤー_1
 62
     7
100
AcDbVertex
100
AcDb2dVertex
 10
118.8786279517815
 20
154.7651132103417
 30
0.0
  0
VERTEX
  5
DD6
330
DAC
100
AcDbEntity
  8
レイヤー_1
 62
     7
100
AcDbVertex
100
AcDb2dVertex
 10
117.8788609517815
 20
153.5679422103416
 30
0.0
  0
VERTEX
  5
DD7
330
DAC
100
AcDbEntity
  8
レイヤー_1
 62
     7
100
AcDbVertex
100
AcDb2dVertex
 10
116.9548859517815
 20
152.3066932103416
 30
0.0
  0
VERTEX
  5
DD8
330
DAC
100
AcDbEntity
  8
レイヤー_1
 62
     7
100
AcDbVertex
100
AcDb2dVertex
 10
116.1060149517815
 20
150.9970402103417
 30
0.0
  0
VERTEX
  5
DD9
330
DAC
100
AcDbEntity
  8
レイヤー_1
 62
     7
100
AcDbVertex
100
AcDb2dVertex
 10
115.3332799517815
 20
149.6300262103416
 30
0.0
  0
VERTEX
  5
DDA
330
DAC
100
AcDbEntity
  8
レイヤー_1
 62
     7
100
AcDbVertex
100
AcDb2dVertex
 10
114.6542519517815
 20
148.2277002103417
 30
0.0
  0
VERTEX
  5
DDB
330
DAC
100
AcDbEntity
  8
レイヤー_1
 62
     7
100
AcDbVertex
100
AcDb2dVertex
 10
114.0510149517815
 20
146.7857552103416
 30
0.0
  0
VERTEX
  5
DDC
330
DAC
100
AcDbEntity
  8
レイヤー_1
 62
     7
100
AcDbVertex
100
AcDb2dVertex
 10
113.5418299517815
 20
145.3162502103417
 30
0.0
  0
VERTEX
  5
DDD
330
DAC
100
AcDbEntity
  8
レイヤー_1
 62
     7
100
AcDbVertex
100
AcDb2dVertex
 10
113.1273849517815
 20
143.8091932103416
 30
0.0
  0
VERTEX
  5
DDE
330
DAC
100
AcDbEntity
  8
レイヤー_1
 62
     7
100
AcDbVertex
100
AcDb2dVertex
 10
112.7976899517815
 20
142.2835322103417
 30
0.0
  0
VERTEX
  5
DDF
330
DAC
100
AcDbEntity
  8
レイヤー_1
 62
     7
100
AcDbVertex
100
AcDb2dVertex
 10
112.5617009517815
 20
140.7378902103417
 30
0.0
  0
VERTEX
  5
DE0
330
DAC
100
AcDbEntity
  8
レイヤー_1
 62
     7
100
AcDbVertex
100
AcDb2dVertex
 10
112.4204519517815
 20
139.1834632103417
 30
0.0
  0
VERTEX
  5
DE1
330
DAC
100
AcDbEntity
  8
レイヤー_1
 62
     7
100
AcDbVertex
100
AcDb2dVertex
 10
112.3732539517815
 20
137.6190452103417
 30
0.0
  0
VERTEX
  5
DE2
330
DAC
100
AcDbEntity
  8
レイヤー_1
 62
     7
100
AcDbVertex
100
AcDb2dVertex
 10
112.4204519517815
 20
136.0658242103417
 30
0.0
  0
VERTEX
  5
DE3
330
DAC
100
AcDbEntity
  8
レイヤー_1
 62
     7
100
AcDbVertex
100
AcDb2dVertex
 10
112.5617009517815
 20
134.5113972103417
 30
0.0
  0
VERTEX
  5
DE4
330
DAC
100
AcDbEntity
  8
レイヤー_1
 62
     7
100
AcDbVertex
100
AcDb2dVertex
 10
112.7976899517815
 20
132.9657542103418
 30
0.0
  0
VERTEX
  5
DE5
330
DAC
100
AcDbEntity
  8
レイヤー_1
 62
     7
100
AcDbVertex
100
AcDb2dVertex
 10
113.1273849517815
 20
131.4399222103417
 30
0.0
  0
VERTEX
  5
DE6
330
DAC
100
AcDbEntity
  8
レイヤー_1
 62
     7
100
AcDbVertex
100
AcDb2dVertex
 10
113.5418299517815
 20
129.9318312103418
 30
0.0
  0
VERTEX
  5
DE7
330
DAC
100
AcDbEntity
  8
レイヤー_1
 62
     7
100
AcDbVertex
100
AcDb2dVertex
 10
114.0510149517815
 20
128.4535412103418
 30
0.0
  0
VERTEX
  5
DE8
330
DAC
100
AcDbEntity
  8
レイヤー_1
 62
     7
100
AcDbVertex
100
AcDb2dVertex
 10
114.6542519517815
 20
127.0126292103417
 30
0.0
  0
VERTEX
  5
DE9
330
DAC
100
AcDbEntity
  8
レイヤー_1
 62
     7
100
AcDbVertex
100
AcDb2dVertex
 10
115.3332799517815
 20
125.6080642103417
 30
0.0
  0
VERTEX
  5
DEA
330
DAC
100
AcDbEntity
  8
レイヤー_1
 62
     7
100
AcDbVertex
100
AcDb2dVertex
 10
116.1060149517815
 20
124.2520742103417
 30
0.0
  0
VERTEX
  5
DEB
330
DAC
100
AcDbEntity
  8
レイヤー_1
 62
     7
100
AcDbVertex
100
AcDb2dVertex
 10
116.9548859517815
 20
122.9424212103417
 30
0.0
  0
VERTEX
  5
DEC
330
DAC
100
AcDbEntity
  8
レイヤー_1
 62
     7
100
AcDbVertex
100
AcDb2dVertex
 10
117.8788609517815
 20
121.6801382103417
 30
0.0
  0
VERTEX
  5
DED
330
DAC
100
AcDbEntity
  8
レイヤー_1
 62
     7
100
AcDbVertex
100
AcDb2dVertex
 10
118.8786279517815
 20
120.4840012103417
 30
0.0
  0
VERTEX
  5
DEE
330
DAC
100
AcDbEntity
  8
レイヤー_1
 62
     7
100
AcDbVertex
100
AcDb2dVertex
 10
119.9524639517815
 20
119.3429862103417
 30
0.0
  0
VERTEX
  5
DEF
330
DAC
100
AcDbEntity
  8
レイヤー_1
 62
     7
100
AcDbVertex
100
AcDb2dVertex
 10
121.0845219517815
 20
118.2791402103417
 30
0.0
  0
VERTEX
  5
DF0
330
DAC
100
AcDbEntity
  8
レイヤー_1
 62
     7
100
AcDbVertex
100
AcDb2dVertex
 10
122.2916839517815
 20
117.2804072103417
 30
0.0
  0
VERTEX
  5
DF1
330
DAC
100
AcDbEntity
  8
レイヤー_1
 62
     7
100
AcDbVertex
100
AcDb2dVertex
 10
123.5439759517815
 20
116.3476472103417
 30
0.0
  0
VERTEX
  5
DF2
330
DAC
100
AcDbEntity
  8
レイヤー_1
 62
     7
100
AcDbVertex
100
AcDb2dVertex
 10
124.8548349517815
 20
115.4999822103418
 30
0.0
  0
VERTEX
  5
DF3
330
DAC
100
AcDbEntity
  8
レイヤー_1
 62
     7
100
AcDbVertex
100
AcDb2dVertex
 10
126.2118579517815
 20
114.7358592103417
 30
0.0
  0
VERTEX
  5
DF4
330
DAC
100
AcDbEntity
  8
レイヤー_1
 62
     7
100
AcDbVertex
100
AcDb2dVertex
 10
127.6174569517815
 20
114.0490802103417
 30
0.0
  0
VERTEX
  5
DF5
330
DAC
100
AcDbEntity
  8
レイヤー_1
 62
     7
100
AcDbVertex
100
AcDb2dVertex
 10
129.0595739517815
 20
113.4560062103417
 30
0.0
  0
VERTEX
  5
DF6
330
DAC
100
AcDbEntity
  8
レイヤー_1
 62
     7
100
AcDbVertex
100
AcDb2dVertex
 10
130.5402759517815
 20
112.9478552103417
 30
0.0
  0
VERTEX
  5
DF7
330
DAC
100
AcDbEntity
  8
レイヤー_1
 62
     7
100
AcDbVertex
100
AcDb2dVertex
 10
132.0481939517815
 20
112.5234192103417
 30
0.0
  0
VERTEX
  5
DF8
330
DAC
100
AcDbEntity
  8
レイヤー_1
 62
     7
100
AcDbVertex
100
AcDb2dVertex
 10
133.5750609517815
 20
112.2025082103417
 30
0.0
  0
VERTEX
  5
DF9
330
DAC
100
AcDbEntity
  8
レイヤー_1
 62
     7
100
AcDbVertex
100
AcDb2dVertex
 10
135.1219079517815
 20
111.9677252103417
 30
0.0
  0
VERTEX
  5
DFA
330
DAC
100
AcDbEntity
  8
レイヤー_1
 62
     7
100
AcDbVertex
100
AcDb2dVertex
 10
136.6773689517815
 20
111.8254432103417
 30
0.0
  0
VERTEX
  5
DFB
330
DAC
100
AcDbEntity
  8
レイヤー_1
 62
     7
100
AcDbVertex
100
AcDb2dVertex
 10
138.2328299517815
 20
111.7792792103417
 30
0.0
  0
VERTEX
  5
DFC
330
DAC
100
AcDbEntity
  8
レイヤー_1
 62
     7
100
AcDbVertex
100
AcDb2dVertex
 10
139.7982809517815
 20
111.8254432103417
 30
0.0
  0
VERTEX
  5
DFD
330
DAC
100
AcDbEntity
  8
レイヤー_1
 62
     7
100
AcDbVertex
100
AcDb2dVertex
 10
141.3527079517815
 20
111.9677252103417
 30
0.0
  0
VERTEX
  5
DFE
330
DAC
100
AcDbEntity
  8
レイヤー_1
 62
     7
100
AcDbVertex
100
AcDb2dVertex
 10
142.8995559517815
 20
112.2025082103417
 30
0.0
  0
VERTEX
  5
DFF
330
DAC
100
AcDbEntity
  8
レイヤー_1
 62
     7
100
AcDbVertex
100
AcDb2dVertex
 10
144.4264219517815
 20
112.5234192103417
 30
0.0
  0
VERTEX
  5
E00
330
DAC
100
AcDbEntity
  8
レイヤー_1
 62
     7
100
AcDbVertex
100
AcDb2dVertex
 10
145.9257279517815
 20
112.9478552103417
 30
0.0
  0
VERTEX
  5
E01
330
DAC
100
AcDbEntity
  8
レイヤー_1
 62
     7
100
AcDbVertex
100
AcDb2dVertex
 10
147.4050519517815
 20
113.4560062103417
 30
0.0
  0
VERTEX
  5
E02
330
DAC
100
AcDbEntity
  8
レイヤー_1
 62
     7
100
AcDbVertex
100
AcDb2dVertex
 10
148.8471689517815
 20
114.0490802103417
 30
0.0
  0
VERTEX
  5
E03
330
DAC
100
AcDbEntity
  8
レイヤー_1
 62
     7
100
AcDbVertex
100
AcDb2dVertex
 10
150.2527679517815
 20
114.7358592103417
 30
0.0
  0
VERTEX
  5
E04
330
DAC
100
AcDbEntity
  8
レイヤー_1
 62
     7
100
AcDbVertex
100
AcDb2dVertex
 10
151.6097909517815
 20
115.4999822103418
 30
0.0
  0
VERTEX
  5
E05
330
DAC
100
AcDbEntity
  8
レイヤー_1
 62
     7
100
AcDbVertex
100
AcDb2dVertex
 10
152.9206499517815
 20
116.3476472103417
 30
0.0
  0
VERTEX
  5
E06
330
DAC
100
AcDbEntity
  8
レイヤー_1
 62
     7
100
AcDbVertex
100
AcDb2dVertex
 10
154.1849999517815
 20
117.2804072103417
 30
0.0
  0
VERTEX
  5
E07
330
DAC
100
AcDbEntity
  8
レイヤー_1
 62
     7
100
AcDbVertex
100
AcDb2dVertex
 10
155.3821709517815
 20
118.2791402103417
 30
0.0
  0
VERTEX
  5
E08
330
DAC
100
AcDbEntity
  8
レイヤー_1
 62
     7
100
AcDbVertex
100
AcDb2dVertex
 10
156.5221529517815
 20
119.3429862103417
 30
0.0
  0
VERTEX
  5
E09
330
DAC
100
AcDbEntity
  8
レイヤー_1
 62
     7
100
AcDbVertex
100
AcDb2dVertex
 10
157.5870319517815
 20
120.4840012103417
 30
0.0
  0
VERTEX
  5
E0A
330
DAC
100
AcDbEntity
  8
レイヤー_1
 62
     7
100
AcDbVertex
100
AcDb2dVertex
 10
158.5861089517815
 20
121.6801382103417
 30
0.0
  0
VERTEX
  5
E0B
330
DAC
100
AcDbEntity
  8
レイヤー_1
 62
     7
100
AcDbVertex
100
AcDb2dVertex
 10
159.5207639517815
 20
122.9424212103417
 30
0.0
  0
VERTEX
  5
E0C
330
DAC
100
AcDbEntity
  8
レイヤー_1
 62
     7
100
AcDbVertex
100
AcDb2dVertex
 10
160.3586109517815
 20
124.2520742103417
 30
0.0
  0
VERTEX
  5
E0D
330
DAC
100
AcDbEntity
  8
レイヤー_1
 62
     7
100
AcDbVertex
100
AcDb2dVertex
 10
161.1327239517815
 20
125.6080642103417
 30
0.0
  0
VERTEX
  5
E0E
330
DAC
100
AcDbEntity
  8
レイヤー_1
 62
     7
100
AcDbVertex
100
AcDb2dVertex
 10
161.8117519517815
 20
127.0126292103417
 30
0.0
  0
VERTEX
  5
E0F
330
DAC
100
AcDbEntity
  8
レイヤー_1
 62
     7
100
AcDbVertex
100
AcDb2dVertex
 10
162.4146439517815
 20
128.4535412103418
 30
0.0
  0
VERTEX
  5
E10
330
DAC
100
AcDbEntity
  8
レイヤー_1
 62
     7
100
AcDbVertex
100
AcDb2dVertex
 10
162.9227959517815
 20
129.9318312103418
 30
0.0
  0
VERTEX
  5
E11
330
DAC
100
AcDbEntity
  8
レイヤー_1
 62
     7
100
AcDbVertex
100
AcDb2dVertex
 10
163.3375849517815
 20
131.4399222103417
 30
0.0
  0
VERTEX
  5
E12
330
DAC
100
AcDbEntity
  8
レイヤー_1
 62
     7
100
AcDbVertex
100
AcDb2dVertex
 10
163.6683139517815
 20
132.9657542103418
 30
0.0
  0
VERTEX
  5
E13
330
DAC
100
AcDbEntity
  8
レイヤー_1
 62
     7
100
AcDbVertex
100
AcDb2dVertex
 10
163.9039589517815
 20
134.5113972103417
 30
0.0
  0
VERTEX
  5
E14
330
DAC
100
AcDbEntity
  8
レイヤー_1
 62
     7
100
AcDbVertex
100
AcDb2dVertex
 10
164.0452079517815
 20
136.0658242103417
 30
0.0
  0
VERTEX
  5
E15
330
DAC
100
AcDbEntity
  8
レイヤー_1
 62
     7
100
AcDbVertex
100
AcDb2dVertex
 10
164.0913719517815
 20
137.6190452103417
 30
0.0
  0
SEQEND
  5
E16
330
DAC
100
AcDbEntity
  8
レイヤー_1
 62
     7
  0
POLYLINE
  5
E17
330
75
100
AcDbEntity
  8
レイヤー_1
 62
     7
100
AcDb2dPolyline
 66
     1
 10
0.0
 20
0.0
 30
0.0
 70
     1
  0
VERTEX
  5
E18
330
E17
100
AcDbEntity
  8
レイヤー_1
 62
     7
100
AcDbVertex
100
AcDb2dVertex
 10
162.8952349517815
 20
137.6190452103417
 30
0.0
  0
VERTEX
  5
E19
330
E17
100
AcDbEntity
  8
レイヤー_1
 62
     7
100
AcDbVertex
100
AcDb2dVertex
 10
162.8480369517815
 20
139.1746782103417
 30
0.0
  0
VERTEX
  5
E1A
330
E17
100
AcDbEntity
  8
レイヤー_1
 62
     7
100
AcDbVertex
100
AcDb2dVertex
 10
162.7067879517815
 20
140.7091232103417
 30
0.0
  0
VERTEX
  5
E1B
330
E17
100
AcDbEntity
  8
レイヤー_1
 62
     7
100
AcDbVertex
100
AcDb2dVertex
 10
162.4621859517815
 20
142.2459802103418
 30
0.0
  0
VERTEX
  5
E1C
330
E17
100
AcDbEntity
  8
レイヤー_1
 62
     7
100
AcDbVertex
100
AcDb2dVertex
 10
162.1224999517815
 20
143.7518322103418
 30
0.0
  0
VERTEX
  5
E1D
330
E17
100
AcDbEntity
  8
レイヤー_1
 62
     7
100
AcDbVertex
100
AcDb2dVertex
 10
161.6880729517815
 20
145.2413192103418
 30
0.0
  0
VERTEX
  5
E1E
330
E17
100
AcDbEntity
  8
レイヤー_1
 62
     7
100
AcDbVertex
100
AcDb2dVertex
 10
161.1699309517815
 20
146.7020392103417
 30
0.0
  0
VERTEX
  5
E1F
330
E17
100
AcDbEntity
  8
レイヤー_1
 62
     7
100
AcDbVertex
100
AcDb2dVertex
 10
160.5484359517815
 20
148.1241752103418
 30
0.0
  0
VERTEX
  5
E20
330
E17
100
AcDbEntity
  8
レイヤー_1
 62
     7
100
AcDbVertex
100
AcDb2dVertex
 10
159.8504589517815
 20
149.4989402103417
 30
0.0
  0
VERTEX
  5
E21
330
E17
100
AcDbEntity
  8
レイヤー_1
 62
     7
100
AcDbVertex
100
AcDb2dVertex
 10
159.0577429517815
 20
150.8361542103417
 30
0.0
  0
VERTEX
  5
E22
330
E17
100
AcDbEntity
  8
レイヤー_1
 62
     7
100
AcDbVertex
100
AcDb2dVertex
 10
158.1913009517815
 20
152.1182462103418
 30
0.0
  0
VERTEX
  5
E23
330
E17
100
AcDbEntity
  8
レイヤー_1
 62
     7
100
AcDbVertex
100
AcDb2dVertex
 10
157.2387319517815
 20
153.3429782103416
 30
0.0
  0
VERTEX
  5
E24
330
E17
100
AcDbEntity
  8
レイヤー_1
 62
     7
100
AcDbVertex
100
AcDb2dVertex
 10
156.2114049517815
 20
154.5005302103417
 30
0.0
  0
VERTEX
  5
E25
330
E17
100
AcDbEntity
  8
レイヤー_1
 62
     7
100
AcDbVertex
100
AcDb2dVertex
 10
155.1175869517815
 20
155.5941752103418
 30
0.0
  0
VERTEX
  5
E26
330
E17
100
AcDbEntity
  8
レイヤー_1
 62
     7
100
AcDbVertex
100
AcDb2dVertex
 10
153.9579679517815
 20
156.6216752103418
 30
0.0
  0
VERTEX
  5
E27
330
E17
100
AcDbEntity
  8
レイヤー_1
 62
     7
100
AcDbVertex
100
AcDb2dVertex
 10
152.7322029517815
 20
157.5720042103417
 30
0.0
  0
VERTEX
  5
E28
330
E17
100
AcDbEntity
  8
レイヤー_1
 62
     7
100
AcDbVertex
100
AcDb2dVertex
 10
151.4509719517815
 20
158.4384462103417
 30
0.0
  0
VERTEX
  5
E29
330
E17
100
AcDbEntity
  8
レイヤー_1
 62
     7
100
AcDbVertex
100
AcDb2dVertex
 10
150.1215099517815
 20
159.2299572103418
 30
0.0
  0
VERTEX
  5
E2A
330
E17
100
AcDbEntity
  8
レイヤー_1
 62
     7
100
AcDbVertex
100
AcDb2dVertex
 10
148.7345139517815
 20
159.9267272103418
 30
0.0
  0
VERTEX
  5
E2B
330
E17
100
AcDbEntity
  8
レイヤー_1
 62
     7
100
AcDbVertex
100
AcDb2dVertex
 10
147.3113449517815
 20
160.5485672103417
 30
0.0
  0
VERTEX
  5
E2C
330
E17
100
AcDbEntity
  8
レイヤー_1
 62
     7
100
AcDbVertex
100
AcDb2dVertex
 10
145.8595819517815
 20
161.0667092103417
 30
0.0
  0
VERTEX
  5
E2D
330
E17
100
AcDbEntity
  8
レイヤー_1
 62
     7
100
AcDbVertex
100
AcDb2dVertex
 10
144.3702669517815
 20
161.5009642103417
 30
0.0
  0
VERTEX
  5
E2E
330
E17
100
AcDbEntity
  8
レイヤー_1
 62
     7
100
AcDbVertex
100
AcDb2dVertex
 10
142.8520139517815
 20
161.8406502103417
 30
0.0
  0
VERTEX
  5
E2F
330
E17
100
AcDbEntity
  8
レイヤー_1
 62
     7
100
AcDbVertex
100
AcDb2dVertex
 10
141.3241139517815
 20
162.0852522103417
 30
0.0
  0
VERTEX
  5
E30
330
E17
100
AcDbEntity
  8
レイヤー_1
 62
     7
100
AcDbVertex
100
AcDb2dVertex
 10
139.7786439517815
 20
162.2265012103418
 30
0.0
  0
VERTEX
  5
E31
330
E17
100
AcDbEntity
  8
レイヤー_1
 62
     7
100
AcDbVertex
100
AcDb2dVertex
 10
138.2328299517815
 20
162.2826562103417
 30
0.0
  0
VERTEX
  5
E32
330
E17
100
AcDbEntity
  8
レイヤー_1
 62
     7
100
AcDbVertex
100
AcDb2dVertex
 10
136.6873599517815
 20
162.2265012103418
 30
0.0
  0
VERTEX
  5
E33
330
E17
100
AcDbEntity
  8
レイヤー_1
 62
     7
100
AcDbVertex
100
AcDb2dVertex
 10
135.1405119517815
 20
162.0852522103417
 30
0.0
  0
VERTEX
  5
E34
330
E17
100
AcDbEntity
  8
レイヤー_1
 62
     7
100
AcDbVertex
100
AcDb2dVertex
 10
133.6136459517815
 20
161.8406502103417
 30
0.0
  0
VERTEX
  5
E35
330
E17
100
AcDbEntity
  8
レイヤー_1
 62
     7
100
AcDbVertex
100
AcDb2dVertex
 10
132.0957369517815
 20
161.5009642103417
 30
0.0
  0
VERTEX
  5
E36
330
E17
100
AcDbEntity
  8
レイヤー_1
 62
     7
100
AcDbVertex
100
AcDb2dVertex
 10
130.6150349517815
 20
161.0667092103417
 30
0.0
  0
VERTEX
  5
E37
330
E17
100
AcDbEntity
  8
レイヤー_1
 62
     7
100
AcDbVertex
100
AcDb2dVertex
 10
129.1532809517815
 20
160.5485672103417
 30
0.0
  0
VERTEX
  5
E38
330
E17
100
AcDbEntity
  8
レイヤー_1
 62
     7
100
AcDbVertex
100
AcDb2dVertex
 10
127.7311449517815
 20
159.9267272103418
 30
0.0
  0
VERTEX
  5
E39
330
E17
100
AcDbEntity
  8
レイヤー_1
 62
     7
100
AcDbVertex
100
AcDb2dVertex
 10
126.3541399517815
 20
159.2299572103418
 30
0.0
  0
VERTEX
  5
E3A
330
E17
100
AcDbEntity
  8
レイヤー_1
 62
     7
100
AcDbVertex
100
AcDb2dVertex
 10
125.0146869517815
 20
158.4384462103417
 30
0.0
  0
VERTEX
  5
E3B
330
E17
100
AcDbEntity
  8
レイヤー_1
 62
     7
100
AcDbVertex
100
AcDb2dVertex
 10
123.7338009517815
 20
157.5720042103417
 30
0.0
  0
VERTEX
  5
E3C
330
E17
100
AcDbEntity
  8
レイヤー_1
 62
     7
100
AcDbVertex
100
AcDb2dVertex
 10
122.5076909517815
 20
156.6216752103418
 30
0.0
  0
VERTEX
  5
E3D
330
E17
100
AcDbEntity
  8
レイヤー_1
 62
     7
100
AcDbVertex
100
AcDb2dVertex
 10
121.3480719517815
 20
155.5941752103418
 30
0.0
  0
VERTEX
  5
E3E
330
E17
100
AcDbEntity
  8
レイヤー_1
 62
     7
100
AcDbVertex
100
AcDb2dVertex
 10
120.2545989517815
 20
154.5005302103417
 30
0.0
  0
VERTEX
  5
E3F
330
E17
100
AcDbEntity
  8
レイヤー_1
 62
     7
100
AcDbVertex
100
AcDb2dVertex
 10
119.2269269517815
 20
153.3429782103416
 30
0.0
  0
VERTEX
  5
E40
330
E17
100
AcDbEntity
  8
レイヤー_1
 62
     7
100
AcDbVertex
100
AcDb2dVertex
 10
118.2743579517815
 20
152.1182462103418
 30
0.0
  0
VERTEX
  5
E41
330
E17
100
AcDbEntity
  8
レイヤー_1
 62
     7
100
AcDbVertex
100
AcDb2dVertex
 10
117.4079169517815
 20
150.8361542103417
 30
0.0
  0
VERTEX
  5
E42
330
E17
100
AcDbEntity
  8
レイヤー_1
 62
     7
100
AcDbVertex
100
AcDb2dVertex
 10
116.6151999517815
 20
149.4989402103417
 30
0.0
  0
VERTEX
  5
E43
330
E17
100
AcDbEntity
  8
レイヤー_1
 62
     7
100
AcDbVertex
100
AcDb2dVertex
 10
115.9175679517815
 20
148.1241752103418
 30
0.0
  0
VERTEX
  5
E44
330
E17
100
AcDbEntity
  8
レイヤー_1
 62
     7
100
AcDbVertex
100
AcDb2dVertex
 10
115.3046859517815
 20
146.7020392103417
 30
0.0
  0
VERTEX
  5
E45
330
E17
100
AcDbEntity
  8
レイヤー_1
 62
     7
100
AcDbVertex
100
AcDb2dVertex
 10
114.7775859517815
 20
145.2413192103418
 30
0.0
  0
VERTEX
  5
E46
330
E17
100
AcDbEntity
  8
レイヤー_1
 62
     7
100
AcDbVertex
100
AcDb2dVertex
 10
114.3431599517815
 20
143.7518322103418
 30
0.0
  0
VERTEX
  5
E47
330
E17
100
AcDbEntity
  8
レイヤー_1
 62
     7
100
AcDbVertex
100
AcDb2dVertex
 10
114.0038179517815
 20
142.2459802103418
 30
0.0
  0
VERTEX
  5
E48
330
E17
100
AcDbEntity
  8
レイヤー_1
 62
     7
100
AcDbVertex
100
AcDb2dVertex
 10
113.7588709517815
 20
140.7091232103417
 30
0.0
  0
VERTEX
  5
E49
330
E17
100
AcDbEntity
  8
レイヤー_1
 62
     7
100
AcDbVertex
100
AcDb2dVertex
 10
113.6179669517815
 20
139.1746782103417
 30
0.0
  0
VERTEX
  5
E4A
330
E17
100
AcDbEntity
  8
レイヤー_1
 62
     7
100
AcDbVertex
100
AcDb2dVertex
 10
113.5693909517815
 20
137.6190452103417
 30
0.0
  0
VERTEX
  5
E4B
330
E17
100
AcDbEntity
  8
レイヤー_1
 62
     7
100
AcDbVertex
100
AcDb2dVertex
 10
113.6179669517815
 20
136.0746092103418
 30
0.0
  0
VERTEX
  5
E4C
330
E17
100
AcDbEntity
  8
レイヤー_1
 62
     7
100
AcDbVertex
100
AcDb2dVertex
 10
113.7588709517815
 20
134.5289672103417
 30
0.0
  0
VERTEX
  5
E4D
330
E17
100
AcDbEntity
  8
レイヤー_1
 62
     7
100
AcDbVertex
100
AcDb2dVertex
 10
114.0038179517815
 20
133.0031342103418
 30
0.0
  0
VERTEX
  5
E4E
330
E17
100
AcDbEntity
  8
レイヤー_1
 62
     7
100
AcDbVertex
100
AcDb2dVertex
 10
114.3431599517815
 20
131.4962492103417
 30
0.0
  0
VERTEX
  5
E4F
330
E17
100
AcDbEntity
  8
レイヤー_1
 62
     7
100
AcDbVertex
100
AcDb2dVertex
 10
114.7775859517815
 20
130.0079682103417
 30
0.0
  0
VERTEX
  5
E50
330
E17
100
AcDbEntity
  8
レイヤー_1
 62
     7
100
AcDbVertex
100
AcDb2dVertex
 10
115.3046859517815
 20
128.5472472103417
 30
0.0
  0
VERTEX
  5
E51
330
E17
100
AcDbEntity
  8
レイヤー_1
 62
     7
100
AcDbVertex
100
AcDb2dVertex
 10
115.9175679517815
 20
127.1251122103417
 30
0.0
  0
VERTEX
  5
E52
330
E17
100
AcDbEntity
  8
レイヤー_1
 62
     7
100
AcDbVertex
100
AcDb2dVertex
 10
116.6151999517815
 20
125.7491412103417
 30
0.0
  0
VERTEX
  5
E53
330
E17
100
AcDbEntity
  8
レイヤー_1
 62
     7
100
AcDbVertex
100
AcDb2dVertex
 10
117.4079169517815
 20
124.4119272103417
 30
0.0
  0
VERTEX
  5
E54
330
E17
100
AcDbEntity
  8
レイヤー_1
 62
     7
100
AcDbVertex
100
AcDb2dVertex
 10
118.2743579517815
 20
123.1308682103417
 30
0.0
  0
VERTEX
  5
E55
330
E17
100
AcDbEntity
  8
レイヤー_1
 62
     7
100
AcDbVertex
100
AcDb2dVertex
 10
119.2269269517815
 20
121.9061372103417
 30
0.0
  0
VERTEX
  5
E56
330
E17
100
AcDbEntity
  8
レイヤー_1
 62
     7
100
AcDbVertex
100
AcDb2dVertex
 10
120.2545989517815
 20
120.7463452103417
 30
0.0
  0
VERTEX
  5
E57
330
E17
100
AcDbEntity
  8
レイヤー_1
 62
     7
100
AcDbVertex
100
AcDb2dVertex
 10
121.3480719517815
 20
119.6549392103417
 30
0.0
  0
VERTEX
  5
E58
330
E17
100
AcDbEntity
  8
レイヤー_1
 62
     7
100
AcDbVertex
100
AcDb2dVertex
 10
122.5076909517815
 20
118.6274392103417
 30
0.0
  0
VERTEX
  5
E59
330
E17
100
AcDbEntity
  8
レイヤー_1
 62
     7
100
AcDbVertex
100
AcDb2dVertex
 10
123.7338009517815
 20
117.6772822103418
 30
0.0
  0
VERTEX
  5
E5A
330
E17
100
AcDbEntity
  8
レイヤー_1
 62
     7
100
AcDbVertex
100
AcDb2dVertex
 10
125.0146869517815
 20
116.8084292103417
 30
0.0
  0
VERTEX
  5
E5B
330
E17
100
AcDbEntity
  8
レイヤー_1
 62
     7
100
AcDbVertex
100
AcDb2dVertex
 10
126.3541399517815
 20
116.0191582103417
 30
0.0
  0
VERTEX
  5
E5C
330
E17
100
AcDbEntity
  8
レイヤー_1
 62
     7
100
AcDbVertex
100
AcDb2dVertex
 10
127.7311449517815
 20
115.3113632103417
 30
0.0
  0
VERTEX
  5
E5D
330
E17
100
AcDbEntity
  8
レイヤー_1
 62
     7
100
AcDbVertex
100
AcDb2dVertex
 10
129.1532809517815
 20
114.6984802103417
 30
0.0
  0
VERTEX
  5
E5E
330
E17
100
AcDbEntity
  8
レイヤー_1
 62
     7
100
AcDbVertex
100
AcDb2dVertex
 10
130.6150349517815
 20
114.1715532103417
 30
0.0
  0
VERTEX
  5
E5F
330
E17
100
AcDbEntity
  8
レイヤー_1
 62
     7
100
AcDbVertex
100
AcDb2dVertex
 10
132.0957369517815
 20
113.7381602103418
 30
0.0
  0
VERTEX
  5
E60
330
E17
100
AcDbEntity
  8
レイヤー_1
 62
     7
100
AcDbVertex
100
AcDb2dVertex
 10
133.6136459517815
 20
113.4086362103417
 30
0.0
  0
VERTEX
  5
E61
330
E17
100
AcDbEntity
  8
レイヤー_1
 62
     7
100
AcDbVertex
100
AcDb2dVertex
 10
135.1405119517815
 20
113.1638622103417
 30
0.0
  0
VERTEX
  5
E62
330
E17
100
AcDbEntity
  8
レイヤー_1
 62
     7
100
AcDbVertex
100
AcDb2dVertex
 10
136.6873599517815
 20
113.0140012103417
 30
0.0
  0
VERTEX
  5
E63
330
E17
100
AcDbEntity
  8
レイヤー_1
 62
     7
100
AcDbVertex
100
AcDb2dVertex
 10
138.2328299517815
 20
112.9654252103418
 30
0.0
  0
VERTEX
  5
E64
330
E17
100
AcDbEntity
  8
レイヤー_1
 62
     7
100
AcDbVertex
100
AcDb2dVertex
 10
139.7786439517815
 20
113.0140012103417
 30
0.0
  0
VERTEX
  5
E65
330
E17
100
AcDbEntity
  8
レイヤー_1
 62
     7
100
AcDbVertex
100
AcDb2dVertex
 10
141.3241139517815
 20
113.1638622103417
 30
0.0
  0
VERTEX
  5
E66
330
E17
100
AcDbEntity
  8
レイヤー_1
 62
     7
100
AcDbVertex
100
AcDb2dVertex
 10
142.8520139517815
 20
113.4086362103417
 30
0.0
  0
VERTEX
  5
E67
330
E17
100
AcDbEntity
  8
レイヤー_1
 62
     7
100
AcDbVertex
100
AcDb2dVertex
 10
144.3702669517815
 20
113.7381602103418
 30
0.0
  0
VERTEX
  5
E68
330
E17
100
AcDbEntity
  8
レイヤー_1
 62
     7
100
AcDbVertex
100
AcDb2dVertex
 10
145.8595819517815
 20
114.1715532103417
 30
0.0
  0
VERTEX
  5
E69
330
E17
100
AcDbEntity
  8
レイヤー_1
 62
     7
100
AcDbVertex
100
AcDb2dVertex
 10
147.3113449517815
 20
114.6984802103417
 30
0.0
  0
VERTEX
  5
E6A
330
E17
100
AcDbEntity
  8
レイヤー_1
 62
     7
100
AcDbVertex
100
AcDb2dVertex
 10
148.7345139517815
 20
115.3113632103417
 30
0.0
  0
VERTEX
  5
E6B
330
E17
100
AcDbEntity
  8
レイヤー_1
 62
     7
100
AcDbVertex
100
AcDb2dVertex
 10
150.1215099517815
 20
116.0191582103417
 30
0.0
  0
VERTEX
  5
E6C
330
E17
100
AcDbEntity
  8
レイヤー_1
 62
     7
100
AcDbVertex
100
AcDb2dVertex
 10
151.4509719517815
 20
116.8084292103417
 30
0.0
  0
VERTEX
  5
E6D
330
E17
100
AcDbEntity
  8
レイヤー_1
 62
     7
100
AcDbVertex
100
AcDb2dVertex
 10
152.7322029517815
 20
117.6772822103418
 30
0.0
  0
VERTEX
  5
E6E
330
E17
100
AcDbEntity
  8
レイヤー_1
 62
     7
100
AcDbVertex
100
AcDb2dVertex
 10
153.9579679517815
 20
118.6274392103417
 30
0.0
  0
VERTEX
  5
E6F
330
E17
100
AcDbEntity
  8
レイヤー_1
 62
     7
100
AcDbVertex
100
AcDb2dVertex
 10
155.1175869517815
 20
119.6549392103417
 30
0.0
  0
VERTEX
  5
E70
330
E17
100
AcDbEntity
  8
レイヤー_1
 62
     7
100
AcDbVertex
100
AcDb2dVertex
 10
156.2114049517815
 20
120.7463452103417
 30
0.0
  0
VERTEX
  5
E71
330
E17
100
AcDbEntity
  8
レイヤー_1
 62
     7
100
AcDbVertex
100
AcDb2dVertex
 10
157.2387319517815
 20
121.9061372103417
 30
0.0
  0
VERTEX
  5
E72
330
E17
100
AcDbEntity
  8
レイヤー_1
 62
     7
100
AcDbVertex
100
AcDb2dVertex
 10
158.1913009517815
 20
123.1308682103417
 30
0.0
  0
VERTEX
  5
E73
330
E17
100
AcDbEntity
  8
レイヤー_1
 62
     7
100
AcDbVertex
100
AcDb2dVertex
 10
159.0577429517815
 20
124.4119272103417
 30
0.0
  0
VERTEX
  5
E74
330
E17
100
AcDbEntity
  8
レイヤー_1
 62
     7
100
AcDbVertex
100
AcDb2dVertex
 10
159.8504589517815
 20
125.7491412103417
 30
0.0
  0
VERTEX
  5
E75
330
E17
100
AcDbEntity
  8
レイヤー_1
 62
     7
100
AcDbVertex
100
AcDb2dVertex
 10
160.5484359517815
 20
127.1251122103417
 30
0.0
  0
VERTEX
  5
E76
330
E17
100
AcDbEntity
  8
レイヤー_1
 62
     7
100
AcDbVertex
100
AcDb2dVertex
 10
161.1699309517815
 20
128.5472472103417
 30
0.0
  0
VERTEX
  5
E77
330
E17
100
AcDbEntity
  8
レイヤー_1
 62
     7
100
AcDbVertex
100
AcDb2dVertex
 10
161.6880729517815
 20
130.0079682103417
 30
0.0
  0
VERTEX
  5
E78
330
E17
100
AcDbEntity
  8
レイヤー_1
 62
     7
100
AcDbVertex
100
AcDb2dVertex
 10
162.1224999517815
 20
131.4962492103417
 30
0.0
  0
VERTEX
  5
E79
330
E17
100
AcDbEntity
  8
レイヤー_1
 62
     7
100
AcDbVertex
100
AcDb2dVertex
 10
162.4621859517815
 20
133.0031342103418
 30
0.0
  0
VERTEX
  5
E7A
330
E17
100
AcDbEntity
  8
レイヤー_1
 62
     7
100
AcDbVertex
100
AcDb2dVertex
 10
162.7067879517815
 20
134.5289672103417
 30
0.0
  0
VERTEX
  5
E7B
330
E17
100
AcDbEntity
  8
レイヤー_1
 62
     7
100
AcDbVertex
100
AcDb2dVertex
 10
162.8480369517815
 20
136.0746092103418
 30
0.0
  0
VERTEX
  5
E7C
330
E17
100
AcDbEntity
  8
レイヤー_1
 62
     7
100
AcDbVertex
100
AcDb2dVertex
 10
162.8952349517815
 20
137.6190452103417
 30
0.0
  0
SEQEND
  5
E7D
330
E17
100
AcDbEntity
  8
レイヤー_1
 62
     7
  0
POLYLINE
  5
E7E
330
75
100
AcDbEntity
  8
レイヤー_1
 62
     7
100
AcDb2dPolyline
 66
     1
 10
0.0
 20
0.0
 30
0.0
  0
VERTEX
  5
E7F
330
E7E
100
AcDbEntity
  8
レイヤー_1
 62
     7
100
AcDbVertex
100
AcDb2dVertex
 10
120.6028979517815
 20
151.2418142103417
 30
0.0
  0
VERTEX
  5
E80
330
E7E
100
AcDbEntity
  8
レイヤー_1
 62
     7
100
AcDbVertex
100
AcDb2dVertex
 10
119.7364569517815
 20
150.0269012103418
 30
0.0
  0
VERTEX
  5
E81
330
E7E
100
AcDbEntity
  8
レイヤー_1
 62
     7
100
AcDbVertex
100
AcDb2dVertex
 10
118.9437399517815
 20
148.7547992103416
 30
0.0
  0
SEQEND
  5
E82
330
E7E
100
AcDbEntity
  8
レイヤー_1
 62
     7
  0
POLYLINE
  5
E83
330
75
100
AcDbEntity
  8
レイヤー_1
 62
     7
100
AcDb2dPolyline
 66
     1
 10
0.0
 20
0.0
 30
0.0
  0
VERTEX
  5
E84
330
E83
100
AcDbEntity
  8
レイヤー_1
 62
     7
100
AcDbVertex
100
AcDb2dVertex
 10
118.9437399517815
 20
148.7547992103416
 30
0.0
  0
VERTEX
  5
E85
330
E83
100
AcDbEntity
  8
レイヤー_1
 62
     7
100
AcDbVertex
100
AcDb2dVertex
 10
118.2557549517815
 20
147.4737412103416
 30
0.0
  0
VERTEX
  5
E86
330
E83
100
AcDbEntity
  8
レイヤー_1
 62
     7
100
AcDbVertex
100
AcDb2dVertex
 10
117.6528629517815
 20
146.1453122103417
 30
0.0
  0
VERTEX
  5
E87
330
E83
100
AcDbEntity
  8
レイヤー_1
 62
     7
100
AcDbVertex
100
AcDb2dVertex
 10
117.1347199517815
 20
144.7793312103418
 30
0.0
  0
VERTEX
  5
E88
330
E83
100
AcDbEntity
  8
レイヤー_1
 62
     7
100
AcDbVertex
100
AcDb2dVertex
 10
116.7089069517815
 20
143.3847572103418
 30
0.0
  0
VERTEX
  5
E89
330
E83
100
AcDbEntity
  8
レイヤー_1
 62
     7
100
AcDbVertex
100
AcDb2dVertex
 10
116.3795559517815
 20
141.9626212103417
 30
0.0
  0
VERTEX
  5
E8A
330
E83
100
AcDbEntity
  8
レイヤー_1
 62
     7
100
AcDbVertex
100
AcDb2dVertex
 10
116.1445999517815
 20
140.5217102103418
 30
0.0
  0
VERTEX
  5
E8B
330
E83
100
AcDbEntity
  8
レイヤー_1
 62
     7
100
AcDbVertex
100
AcDb2dVertex
 10
116.0023179517815
 20
139.0709802103417
 30
0.0
  0
VERTEX
  5
E8C
330
E83
100
AcDbEntity
  8
レイヤー_1
 62
     7
100
AcDbVertex
100
AcDb2dVertex
 10
115.9551199517815
 20
137.6190452103417
 30
0.0
  0
VERTEX
  5
E8D
330
E83
100
AcDbEntity
  8
レイヤー_1
 62
     7
100
AcDbVertex
100
AcDb2dVertex
 10
116.0023179517815
 20
136.1595302103417
 30
0.0
  0
VERTEX
  5
E8E
330
E83
100
AcDbEntity
  8
レイヤー_1
 62
     7
100
AcDbVertex
100
AcDb2dVertex
 10
116.1445999517815
 20
134.7086282103417
 30
0.0
  0
VERTEX
  5
E8F
330
E83
100
AcDbEntity
  8
レイヤー_1
 62
     7
100
AcDbVertex
100
AcDb2dVertex
 10
116.3892019517815
 20
133.2677172103418
 30
0.0
  0
VERTEX
  5
E90
330
E83
100
AcDbEntity
  8
レイヤー_1
 62
     7
100
AcDbVertex
100
AcDb2dVertex
 10
116.7188969517815
 20
131.8545392103417
 30
0.0
  0
VERTEX
  5
E91
330
E83
100
AcDbEntity
  8
レイヤー_1
 62
     7
100
AcDbVertex
100
AcDb2dVertex
 10
117.1433329517815
 20
130.4499732103417
 30
0.0
  0
VERTEX
  5
E92
330
E83
100
AcDbEntity
  8
レイヤー_1
 62
     7
100
AcDbVertex
100
AcDb2dVertex
 10
117.6528629517815
 20
129.0939842103417
 30
0.0
  0
VERTEX
  5
E93
330
E83
100
AcDbEntity
  8
レイヤー_1
 62
     7
100
AcDbVertex
100
AcDb2dVertex
 10
118.2557549517815
 20
127.7655552103418
 30
0.0
  0
VERTEX
  5
E94
330
E83
100
AcDbEntity
  8
レイヤー_1
 62
     7
100
AcDbVertex
100
AcDb2dVertex
 10
118.9437399517815
 20
126.4746782103417
 30
0.0
  0
VERTEX
  5
E95
330
E83
100
AcDbEntity
  8
レイヤー_1
 62
     7
100
AcDbVertex
100
AcDb2dVertex
 10
119.7175089517815
 20
125.2399562103418
 30
0.0
  0
VERTEX
  5
E96
330
E83
100
AcDbEntity
  8
レイヤー_1
 62
     7
100
AcDbVertex
100
AcDb2dVertex
 10
120.5653469517815
 20
124.0536372103417
 30
0.0
  0
VERTEX
  5
E97
330
E83
100
AcDbEntity
  8
レイヤー_1
 62
     7
100
AcDbVertex
100
AcDb2dVertex
 10
121.4989669517815
 20
122.9236462103417
 30
0.0
  0
VERTEX
  5
E98
330
E83
100
AcDbEntity
  8
レイヤー_1
 62
     7
100
AcDbVertex
100
AcDb2dVertex
 10
122.4890879517815
 20
121.8685852103417
 30
0.0
  0
VERTEX
  5
E99
330
E83
100
AcDbEntity
  8
レイヤー_1
 62
     7
100
AcDbVertex
100
AcDb2dVertex
 10
123.5539669517815
 20
120.8698522103418
 30
0.0
  0
VERTEX
  5
E9A
330
E83
100
AcDbEntity
  8
レイヤー_1
 62
     7
100
AcDbVertex
100
AcDb2dVertex
 10
124.6849919517815
 20
119.9460502103417
 30
0.0
  0
VERTEX
  5
E9B
330
E83
100
AcDbEntity
  8
レイヤー_1
 62
     7
100
AcDbVertex
100
AcDb2dVertex
 10
125.8735499517815
 20
119.0994172103417
 30
0.0
  0
VERTEX
  5
E9C
330
E83
100
AcDbEntity
  8
レイヤー_1
 62
     7
100
AcDbVertex
100
AcDb2dVertex
 10
127.1082719517815
 20
118.3265102103417
 30
0.0
  0
VERTEX
  5
E9D
330
E83
100
AcDbEntity
  8
レイヤー_1
 62
     7
100
AcDbVertex
100
AcDb2dVertex
 10
128.3991489517815
 20
117.6386972103417
 30
0.0
  0
VERTEX
  5
E9E
330
E83
100
AcDbEntity
  8
レイヤー_1
 62
     7
100
AcDbVertex
100
AcDb2dVertex
 10
129.7286109517815
 20
117.0444182103417
 30
0.0
  0
VERTEX
  5
E9F
330
E83
100
AcDbEntity
  8
レイヤー_1
 62
     7
100
AcDbVertex
100
AcDb2dVertex
 10
131.0956249517815
 20
116.5262762103417
 30
0.0
  0
VERTEX
  5
EA0
330
E83
100
AcDbEntity
  8
レイヤー_1
 62
     7
100
AcDbVertex
100
AcDb2dVertex
 10
132.4915779517815
 20
116.1028732103417
 30
0.0
  0
SEQEND
  5
EA1
330
E83
100
AcDbEntity
  8
レイヤー_1
 62
     7
  0
POLYLINE
  5
EA2
330
75
100
AcDbEntity
  8
レイヤー_1
 62
     7
100
AcDb2dPolyline
 66
     1
 10
0.0
 20
0.0
 30
0.0
  0
VERTEX
  5
EA3
330
EA2
100
AcDbEntity
  8
レイヤー_1
 62
     7
100
AcDbVertex
100
AcDb2dVertex
 10
132.4915779517815
 20
116.1028732103417
 30
0.0
  0
VERTEX
  5
EA4
330
EA2
100
AcDbEntity
  8
レイヤー_1
 62
     7
100
AcDbVertex
100
AcDb2dVertex
 10
133.8585919517815
 20
115.7921262103417
 30
0.0
  0
VERTEX
  5
EA5
330
EA2
100
AcDbEntity
  8
レイヤー_1
 62
     7
100
AcDbVertex
100
AcDb2dVertex
 10
135.2442089517815
 20
115.5561372103417
 30
0.0
  0
SEQEND
  5
EA6
330
EA2
100
AcDbEntity
  8
レイヤー_1
 62
     7
  0
POLYLINE
  5
EA7
330
75
100
AcDbEntity
  8
レイヤー_1
 62
     7
100
AcDb2dPolyline
 66
     1
 10
0.0
 20
0.0
 30
0.0
  0
VERTEX
  5
EA8
330
EA7
100
AcDbEntity
  8
レイヤー_1
 62
     7
100
AcDbVertex
100
AcDb2dVertex
 10
135.2442089517815
 20
115.5561372103417
 30
0.0
  0
VERTEX
  5
EA9
330
EA7
100
AcDbEntity
  8
レイヤー_1
 62
     7
100
AcDbVertex
100
AcDb2dVertex
 10
136.7335239517815
 20
115.4062752103417
 30
0.0
  0
VERTEX
  5
EAA
330
EA7
100
AcDbEntity
  8
レイヤー_1
 62
     7
100
AcDbVertex
100
AcDb2dVertex
 10
138.2328299517815
 20
115.3587332103418
 30
0.0
  0
SEQEND
  5
EAB
330
EA7
100
AcDbEntity
  8
レイヤー_1
 62
     7
  0
POLYLINE
  5
EAC
330
75
100
AcDbEntity
  8
レイヤー_1
 62
     7
100
AcDb2dPolyline
 66
     1
 10
0.0
 20
0.0
 30
0.0
  0
VERTEX
  5
EAD
330
EAC
100
AcDbEntity
  8
レイヤー_1
 62
     7
100
AcDbVertex
100
AcDb2dVertex
 10
138.2328299517815
 20
115.3587332103418
 30
0.0
  0
VERTEX
  5
EAE
330
EAC
100
AcDbEntity
  8
レイヤー_1
 62
     7
100
AcDbVertex
100
AcDb2dVertex
 10
139.6849369517815
 20
115.4062752103417
 30
0.0
  0
VERTEX
  5
EAF
330
EAC
100
AcDbEntity
  8
レイヤー_1
 62
     7
100
AcDbVertex
100
AcDb2dVertex
 10
141.1267099517815
 20
115.5473522103417
 30
0.0
  0
VERTEX
  5
EB0
330
EAC
100
AcDbEntity
  8
レイヤー_1
 62
     7
100
AcDbVertex
100
AcDb2dVertex
 10
142.5598699517815
 20
115.7831682103417
 30
0.0
  0
VERTEX
  5
EB1
330
EAC
100
AcDbEntity
  8
レイヤー_1
 62
     7
100
AcDbVertex
100
AcDb2dVertex
 10
143.9830389517815
 20
116.1028732103417
 30
0.0
  0
VERTEX
  5
EB2
330
EAC
100
AcDbEntity
  8
レイヤー_1
 62
     7
100
AcDbVertex
100
AcDb2dVertex
 10
145.3700339517815
 20
116.5262762103417
 30
0.0
  0
VERTEX
  5
EB3
330
EAC
100
AcDbEntity
  8
レイヤー_1
 62
     7
100
AcDbVertex
100
AcDb2dVertex
 10
146.7270569517815
 20
117.0356332103418
 30
0.0
  0
VERTEX
  5
EB4
330
EAC
100
AcDbEntity
  8
レイヤー_1
 62
     7
100
AcDbVertex
100
AcDb2dVertex
 10
148.0554859517815
 20
117.6287062103417
 30
0.0
  0
VERTEX
  5
EB5
330
EAC
100
AcDbEntity
  8
レイヤー_1
 62
     7
100
AcDbVertex
100
AcDb2dVertex
 10
149.3387839517815
 20
118.3166922103417
 30
0.0
  0
VERTEX
  5
EB6
330
EAC
100
AcDbEntity
  8
レイヤー_1
 62
     7
100
AcDbVertex
100
AcDb2dVertex
 10
150.5735059517815
 20
119.0794362103418
 30
0.0
  0
VERTEX
  5
EB7
330
EAC
100
AcDbEntity
  8
レイヤー_1
 62
     7
100
AcDbVertex
100
AcDb2dVertex
 10
151.7520729517815
 20
119.9184892103417
 30
0.0
  0
VERTEX
  5
EB8
330
EAC
100
AcDbEntity
  8
レイヤー_1
 62
     7
100
AcDbVertex
100
AcDb2dVertex
 10
152.8731069517815
 20
120.8412582103417
 30
0.0
  0
VERTEX
  5
EB9
330
EAC
100
AcDbEntity
  8
レイヤー_1
 62
     7
100
AcDbVertex
100
AcDb2dVertex
 10
153.9393649517815
 20
121.8312062103418
 30
0.0
  0
VERTEX
  5
EBA
330
EAC
100
AcDbEntity
  8
レイヤー_1
 62
     7
100
AcDbVertex
100
AcDb2dVertex
 10
154.9391309517815
 20
122.8850612103417
 30
0.0
  0
VERTEX
  5
EBB
330
EAC
100
AcDbEntity
  8
レイヤー_1
 62
     7
100
AcDbVertex
100
AcDb2dVertex
 10
155.8631059517815
 20
124.0073002103417
 30
0.0
  0
SEQEND
  5
EBC
330
EAC
100
AcDbEntity
  8
レイヤー_1
 62
     7
  0
POLYLINE
  5
EBD
330
75
100
AcDbEntity
  8
レイヤー_1
 62
     7
100
AcDb2dPolyline
 66
     1
 10
0.0
 20
0.0
 30
0.0
  0
VERTEX
  5
EBE
330
EBD
100
AcDbEntity
  8
レイヤー_1
 62
     7
100
AcDbVertex
100
AcDb2dVertex
 10
154.8157969517815
 20
151.2793652103417
 30
0.0
  0
VERTEX
  5
EBF
330
EBD
100
AcDbEntity
  8
レイヤー_1
 62
     7
100
AcDbVertex
100
AcDb2dVertex
 10
153.9490109517815
 20
152.2693132103417
 30
0.0
  0
VERTEX
  5
EC0
330
EBD
100
AcDbEntity
  8
レイヤー_1
 62
     7
100
AcDbVertex
100
AcDb2dVertex
 10
153.0143559517815
 20
153.2019012103416
 30
0.0
  0
VERTEX
  5
EC1
330
EBD
100
AcDbEntity
  8
レイヤー_1
 62
     7
100
AcDbVertex
100
AcDb2dVertex
 10
152.0352599517815
 20
154.0773002103418
 30
0.0
  0
VERTEX
  5
EC2
330
EBD
100
AcDbEntity
  8
レイヤー_1
 62
     7
100
AcDbVertex
100
AcDb2dVertex
 10
150.9979419517815
 20
154.8974052103416
 30
0.0
  0
VERTEX
  5
EC3
330
EBD
100
AcDbEntity
  8
レイヤー_1
 62
     7
100
AcDbVertex
100
AcDb2dVertex
 10
149.9130809517815
 20
155.6515362103418
 30
0.0
  0
VERTEX
  5
EC4
330
EBD
100
AcDbEntity
  8
レイヤー_1
 62
     7
100
AcDbVertex
100
AcDb2dVertex
 10
148.7810229517815
 20
156.3284972103416
 30
0.0
  0
SEQEND
  5
EC5
330
EBD
100
AcDbEntity
  8
レイヤー_1
 62
     7
  0
LINE
  5
EC6
330
75
100
AcDbEntity
  8
レイヤー_1
 62
     7
100
AcDbLine
 10
149.2250959517815
 20
156.9975352103416
 30
0.0
 11
148.5650159517815
 21
155.9988022103418
 31
0.0
  0
LINE
  5
EC7
330
75
100
AcDbEntity
  8
レイヤー_1
 62
     7
100
AcDbLine
 10
155.3625329517815
 20
151.8724382103416
 30
0.0
 11
154.5422559517815
 21
150.9782642103417
 31
0.0
  0
LINE
  5
EC8
330
75
100
AcDbEntity
  8
レイヤー_1
 62
     7
100
AcDbLine
 10
137.9968409517815
 20
112.9654252103418
 30
0.0
 11
137.9968409517815
 21
111.7792792103417
 31
0.0
  0
LINE
  5
EC9
330
75
100
AcDbEntity
  8
レイヤー_1
 62
     7
100
AcDbLine
 10
138.4688189517815
 20
112.9654252103418
 30
0.0
 11
138.4688189517815
 21
111.7792792103417
 31
0.0
  0
INSERT
  5
ED1
330
75
100
AcDbEntity
  8
レイヤー_1
 62
     7
100
AcDbBlockReference
  2
AI9-BLK25
 10
64.86883195178155
 20
129.6860242103417
 30
0.0
  0
ELLIPSE
  5
ED2
330
75
100
AcDbEntity
  8
レイヤー_1
 62
     7
100
AcDbEllipse
 10
64.86883195178155
 20
137.3623852103418
 30
0.0
 11
-26.29985894097222
 21
0.0
 31
0.0
210
0.0
220
0.0
230
1.0
 40
0.9700479999999998
 41
0.0
 42
6.283185307179584
  0
ELLIPSE
  5
ED3
330
75
100
AcDbEntity
  8
レイヤー_1
 62
     7
100
AcDbEllipse
 10
64.86883195178155
 20
137.4648772103417
 30
0.0
 11
-23.73136800130208
 21
0.0
 31
0.0
210
0.0
220
0.0
230
1.0
 40
0.972708
 41
0.0
 42
6.283185307179584
  0
ELLIPSE
  5
ED4
330
75
100
AcDbEntity
  8
レイヤー_1
 62
     7
100
AcDbEllipse
 10
64.86900495178153
 20
137.4648772103417
 30
0.0
 11
-22.60103217230901
 21
0.0
 31
0.0
210
0.0
220
0.0
230
0.9999999999999998
 40
0.9727219999999999
 41
0.0
 42
6.283185307179584
  0
MTEXT
  5
ED5
330
75
100
AcDbEntity
  8
レイヤー_1
 62
     7
100
AcDbMText
 10
176.1519619517815
 20
106.8450572103417
 30
0.0
 40
2.624835
 41
0.0
 71
     1
 72
     2
  1
\fSwis721 BT|b0|i0;(mm)
  7
STD
 73
     1
 44
1.0
1001
ACAD
1000
MTEXTBEGIN
1070
    73
1070
     1
1070
    44
1040
1.0
1070
    74
1070
     0
1000
MTEXTEND
  0
DIMENSION
  5
EE5
102
{ACAD_XDICTIONARY
360
EF3
102
}
102
{ACAD_REACTORS
330
EF4
102
}
330
75
100
AcDbEntity
  8
AM_5
100
AcDbDimension
  2
*D28
 10
38.90555895178155
 20
257.795982414034
 30
0.0
 11
64.75919195178153
 21
260.295982414034
 31
0.0
 70
    32
  1
%%c130
 71
     5
 42
51.70726599999999
  3
AM_ISO$0
100
AcDbAlignedDimension
 13
90.61282495178152
 23
234.242508897541
 33
0.0
 14
38.90555895178155
 24
234.253532897541
 34
0.0
 50
0.0000000000000114
100
AcDbRotatedDimension
1001
ACAD
1000
DSTYLE
1002
{
1070
    50
1040
1.570796326794896
1002
}
1001
ACAD_DSTYLE_DIMINSPECT
1070
   396
1000
100%
1070
   395
1000

1070
   394
1070
    33
1070
   393
1070
     0
  0
DIMENSION
  5
F24
102
{ACAD_XDICTIONARY
360
F31
102
}
102
{ACAD_REACTORS
330
F32
102
}
330
75
100
AcDbEntity
  8
AM_5
100
AcDbDimension
  2
*D29
 10
111.5346120806557
 20
197.009639397541
 30
0.0
 11
111.5346120806557
 21
215.626074147541
 31
0.0
 70
   160
  1
94
 71
     5
 42
37.23286949999999
  3
AM_ISO$0
100
AcDbAlignedDimension
 13
90.61282495178152
 23
234.242508897541
 33
0.0
 14
62.35821895178154
 24
197.009639397541
 34
0.0
 50
90.00000000000005
100
AcDbRotatedDimension
1001
ACAD
1000
DSTYLE
1002
{
1070
    50
1040
1.570796326794896
1002
}
1001
ACAD_DSTYLE_DIMINSPECT
1070
   396
1000
100%
1070
   395
1000

1070
   394
1070
    33
1070
   393
1070
     0
  0
DIMENSION
  5
F45
102
{ACAD_XDICTIONARY
360
F52
102
}
102
{ACAD_REACTORS
330
F53
102
}
330
75
100
AcDbEntity
  8
AM_5
100
AcDbDimension
  2
*D30
 10
102.5322374057259
 20
220.349816897541
 30
0.0
 11
102.5322374057259
 21
227.296162897541
 31
0.0
 70
   160
  1
35
 71
     5
 42
13.89269199999998
  3
AM_ISO$0
100
AcDbAlignedDimension
 13
90.61282495178152
 23
234.242508897541
 33
0.0
 14
89.13281195178154
 24
220.349816897541
 34
0.0
 50
90.0
100
AcDbRotatedDimension
1001
ACAD
1000
DSTYLE
1002
{
1070
    50
1040
1.570796326794896
1002
}
1001
ACAD_DSTYLE_DIMINSPECT
1070
   396
1000
100%
1070
   395
1000

1070
   394
1070
    33
1070
   393
1070
     0
  0
DIMENSION
  5
100C
330
75
100
AcDbEntity
  8
AM_5
100
AcDbDimension
  2
*D31
 10
156.5545953785691
 20
141.0986570014006
 30
0.0
 11
127.8688292852737
 21
135.628191381304
 31
0.0
 70
   160
  1
%%c94
 71
     5
 42
37.18743603701381
  3
AM_ISO$0
100
AcDbAlignedDimension
 13
119.6248349517815
 23
136.2332552103417
 33
0.0
 14
156.6875169517815
 24
140.4016492103418
 34
0.0
 50
10.79684524683997
100
AcDbRotatedDimension
1001
ACAD
1000
DSTYLE
1002
{
1070
    50
1040
1.570796326794896
1002
}
1001
ACAD_DSTYLE_DIMINSPECT
1070
   396
1000
100%
1070
   395
1000

1070
   394
1070
    33
1070
   393
1070
     0
  0
DIMENSION
  5
10A6
102
{ACAD_XDICTIONARY
360
10B4
102
}
102
{ACAD_REACTORS
330
10B5
102
}
330
75
100
AcDbEntity
  8
AM_5
100
AcDbDimension
  2
*D32
 10
140.2862570997316
 20
134.2295593984869
 30
0.0
 11
143.7577616038318
 21
128.7004635071163
 31
0.0
 70
   160
  1
%%c20
 71
     5
 42
7.934828264546651
  3
AM_ISO$0
100
AcDbAlignedDimension
 13
135.8946429517815
 23
140.8414152103417
 33
0.0
 14
140.5699819517815
 24
134.4076992103417
 34
0.0
 50
122.1231151997189
100
AcDbRotatedDimension
1001
ACAD
1000
DSTYLE
1002
{
1070
    50
1040
1.570796326794896
1002
}
1001
ACAD_DSTYLE_DIMINSPECT
1070
   396
1000
100%
1070
   395
1000

1070
   394
1070
    33
1070
   393
1070
     0
  0
DIMENSION
  5
10E7
102
{ACAD_XDICTIONARY
360
10F5
102
}
102
{ACAD_REACTORS
330
10F6
102
}
330
75
100
AcDbEntity
  8
AM_5
100
AcDbDimension
  2
*D33
 10
172.0242666017665
 20
172.2626332328486
 30
0.0
 11
170.5441071719542
 21
176.7250503405531
 31
0.0
 70
    33
  1
20
 71
     5
 42
7.963425991568044
  3
AM_ISO$0
100
AcDbAlignedDimension
 13
151.4445647956612
 23
159.8332737010093
 33
0.0
 14
157.5870319517815
 24
154.7651132103417
 34
0.0
1001
ACAD
1000
DSTYLE
1002
{
1070
    50
1040
1.570796326794896
1002
}
1001
ACAD_DSTYLE_DIMINSPECT
1070
   396
1000
100%
1070
   395
1000

1070
   394
1070
    33
1070
   393
1070
     0
  0
DIMENSION
  5
111E
102
{ACAD_XDICTIONARY
360
112D
102
}
102
{ACAD_REACTORS
330
112E
102
}
330
75
100
AcDbEntity
  8
AM_5
100
AcDbDimension
  2
*D34
 10
160.8923212157964
 20
160.9024737940525
 30
0.0
 11
159.0391252152692
 21
162.4606828378138
 31
0.0
 70
   160
  1
12
 71
     5
 42
4.842458400618113
  3
AM_ISO$0
100
AcDbAlignedDimension
 13
152.7783669517815
 23
158.7769272103418
 33
0.0
 14
156.4846009517815
 24
155.6603212103417
 34
0.0
 50
139.9421191785848
100
AcDbRotatedDimension
1001
ACAD
1000
DSTYLE
1002
{
1070
    50
1040
1.570796326794896
1002
}
1001
ACAD_DSTYLE_DIMINSPECT
1070
   396
1000
100%
1070
   395
1000

1070
   394
1070
    33
1070
   393
1070
     0
  0
DIMENSION
  5
1166
102
{ACAD_XDICTIONARY
360
1175
102
}
102
{ACAD_REACTORS
330
1176
102
}
330
75
100
AcDbEntity
  8
AM_5
100
AcDbDimension
  2
*D35
 10
158.467994885681
 20
135.7780643405998
 30
0.0
 11
175.4447766425936
 21
142.6484313178909
 31
0.0
 70
   160
  1
3-%%c10
 71
     5
 42
3.955431307318518
  3
AM_ISO$0
100
AcDbAlignedDimension
 13
154.8857319517815
 23
134.0859272103417
 33
0.0
 14
158.4073089517815
 24
135.9280202103418
 34
0.0
 50
22.03278314792706
100
AcDbRotatedDimension
1001
ACAD
1000
DSTYLE
1002
{
1070
    50
1040
1.570796326794896
1002
}
1001
ACAD_DSTYLE_DIMINSPECT
1070
   396
1000
100%
1070
   395
1000

1070
   394
1070
    33
1070
   393
1070
     0
  0
DIMENSION
  5
11C4
330
75
100
AcDbEntity
  8
AM_5
100
AcDbDimension
  2
*D36
 10
153.6955135746094
 20
125.6879879862687
 30
0.0
 11
161.2628747574081
 21
118.9342972592099
 31
0.0
 70
   160
  1
4.5
 71
     5
 42
1.740507895992151
  3
AM_ISO$0
100
AcDbAlignedDimension
 13
152.033803116734
 23
126.4400120064646
 33
0.0
 14
153.5938214517815
 24
125.5740442103417
 34
0.0
 50
138.2518432081517
100
AcDbRotatedDimension
1001
ACAD
1000
DSTYLE
1002
{
1070
    50
1040
1.570796326794896
1002
}
1001
ACAD_DSTYLE_DIMINSPECT
1070
   396
1000
100%
1070
   395
1000

1070
   394
1070
    33
1070
   393
1070
     0
  0
CIRCLE
  5
1243
330
75
100
AcDbEntity
  8
0
  6
HIDDEN
 48
0.3
100
AcDbCircle
 10
138.2900314147508
 20
137.5773409686115
 30
0.0
 40
18.60062191507533
  0
ENDSEC
  0
SECTION
  2
OBJECTS
  0
DICTIONARY
  5
C
330
0
100
AcDbDictionary
281
     1
  3
ACAD_2007HEADERVARS_RT
350
12F0
  3
ACAD_COLOR
350
6B
  3
ACAD_GROUP
350
D
  3
ACAD_LAYOUT
350
6A
  3
ACAD_MATERIAL
350
10
  3
ACAD_MLEADERSTYLE
350
6E
  3
ACAD_MLINESTYLE
350
67
  3
ACAD_PLOTSETTINGS
350
69
  3
ACAD_PLOTSTYLENAME
350
E
  3
ACAD_SCALELIST
350
3A
  3
ACAD_TABLESTYLE
350
6C
  3
ACAD_VISUALSTYLE
350
29
  3
ACDB_RECOMPOSE_DATA
350
163
  3
AcDbVariableDictionary
350
164
  3
AcmDictionary
350
DC
  3
AMG
350
7F
  3
AMGSNAPSETTINGS
350
13A
  3
ASE_INDEX_DICTIONARY
350
239
  3
DWGPROPS
350
12EF
  0
DICTIONARY
  5
12A
330
2
100
AcDbDictionary
280
     1
281
     1
  3
ACAD_LAYERSTATES
360
12B
  3
AMLAYER_GROUPCOLORS
360
1BE
  0
DICTIONARY
  5
158
330
5C
100
AcDbDictionary
280
     1
281
     1
  3
ADSK_XREC_LAYER_RECONCILED
360
159
  0
DICTIONARY
  5
11A
330
119
100
AcDbDictionary
280
     1
281
     1
  3
ADSK_XREC_LAYER_RECONCILED
360
15A
  0
DICTIONARY
  5
11C
330
11B
100
AcDbDictionary
280
     1
281
     1
  3
ADSK_XREC_LAYER_RECONCILED
360
15B
  0
DICTIONARY
  5
15C
330
11D
100
AcDbDictionary
280
     1
281
     1
  3
ADSK_XREC_LAYER_RECONCILED
360
15D
  0
DICTIONARY
  5
EF3
330
EE5
100
AcDbDictionary
280
     1
281
     1
  3
ACAD_DIMASSOC
360
EF4
  0
DICTIONARY
  5
F31
330
F24
100
AcDbDictionary
280
     1
281
     1
  3
ACAD_DIMASSOC
360
F32
  0
DICTIONARY
  5
F52
330
F45
100
AcDbDictionary
280
     1
281
     1
  3
ACAD_DIMASSOC
360
F53
  0
DICTIONARY
  5
10B4
330
10A6
100
AcDbDictionary
280
     1
281
     1
  3
ACAD_DIMASSOC
360
10B5
  0
DICTIONARY
  5
10F5
330
10E7
100
AcDbDictionary
280
     1
281
     1
  3
ACAD_DIMASSOC
360
10F6
  0
DICTIONARY
  5
112D
330
111E
100
AcDbDictionary
280
     1
281
     1
  3
ACAD_DIMASSOC
360
112E
  0
DICTIONARY
  5
1175
330
1166
100
AcDbDictionary
280
     1
281
     1
  3
ACAD_DIMASSOC
360
1176
  0
DICTIONARY
  5
12F0
102
{ACAD_REACTORS
330
C
102
}
330
C
100
AcDbDictionary
281
     1
  3
DIMARCSYM
350
12F1
  3
DIMJOGANG
350
12F2
  0
DICTIONARY
  5
6B
102
{ACAD_REACTORS
330
C
102
}
330
C
100
AcDbDictionary
281
     1
  0
DICTIONARY
  5
D
102
{ACAD_REACTORS
330
C
102
}
330
C
100
AcDbDictionary
281
     1
  0
DICTIONARY
  5
6A
102
{ACAD_REACTORS
330
C
102
}
330
C
100
AcDbDictionary
281
     1
  3
Model
350
78
  3
レイアウト1
350
74
  3
レイアウト2
350
7C
  0
DICTIONARY
  5
10
102
{ACAD_REACTORS
330
C
102
}
330
C
100
AcDbDictionary
281
     1
  3
ByBlock
350
19
  3
ByLayer
350
11
  3
Global
350
21
  0
DICTIONARY
  5
6E
102
{ACAD_REACTORS
330
C
102
}
330
C
100
AcDbDictionary
281
     1
  3
Standard
350
6F
  0
DICTIONARY
  5
67
102
{ACAD_REACTORS
330
C
102
}
330
C
100
AcDbDictionary
281
     1
  3
Standard
350
68
  0
DICTIONARY
  5
69
102
{ACAD_REACTORS
330
C
102
}
330
C
100
AcDbDictionary
281
     1
  0
ACDBDICTIONARYWDFLT
  5
E
102
{ACAD_REACTORS
330
C
102
}
330
C
100
AcDbDictionary
281
     1
  3
Normal
350
F
100
AcDbDictionaryWithDefault
340
F
  0
DICTIONARY
  5
3A
102
{ACAD_REACTORS
330
C
102
}
330
C
100
AcDbDictionary
281
     1
  3
A0
350
3B
  3
A1
350
3C
  3
A2
350
3D
  3
A3
350
3E
  3
A4
350
3F
  3
A5
350
40
  3
A6
350
41
  3
A7
350
42
  3
A8
350
43
  3
A9
350
44
  3
B0
350
45
  3
B1
350
46
  3
B2
350
47
  3
B3
350
48
  3
B4
350
49
  3
B5
350
4A
  3
B6
350
4B
  3
B7
350
4C
  3
B8
350
4D
  3
B9
350
4E
  3
C0
350
4F
  3
C1
350
50
  3
C2
350
51
  3
C3
350
52
  3
C4
350
53
  3
C5
350
54
  3
C6
350
55
  3
C7
350
56
  3
C8
350
57
  3
C9
350
58
  3
D0
350
59
  3
D1
350
5A
  3
D2
350
5B
  0
DICTIONARY
  5
6C
102
{ACAD_REACTORS
330
C
102
}
330
C
100
AcDbDictionary
281
     1
  3
Standard
350
6D
  0
DICTIONARY
  5
29
102
{ACAD_REACTORS
330
C
102
}
330
C
100
AcDbDictionary
281
     1
  3
2dWireframe
350
2F
  3
3D Hidden
350
31
  3
3dWireframe
350
30
  3
Basic
350
2E
  3
Brighten
350
35
  3
ColorChange
350
39
  3
Conceptual
350
32
  3
Dim
350
34
  3
Facepattern
350
38
  3
Flat
350
2A
  3
FlatWithEdges
350
2B
  3
Gouraud
350
2C
  3
GouraudWithEdges
350
2D
  3
Linepattern
350
37
  3
Realistic
350
33
  3
Thicken
350
36
  0
XRECORD
  5
163
102
{ACAD_REACTORS
330
C
102
}
330
C
100
AcDbXrecord
280
     1
 90
        1
330
6D
  0
DICTIONARY
  5
164
102
{ACAD_REACTORS
330
C
102
}
330
C
100
AcDbDictionary
281
     1
  3
CANNOSCALE
350
167
  3
CMLEADERSTYLE
350
166
  3
CTABLESTYLE
350
165
  3
DIMASSOC
350
240
  3
HIDETEXT
350
23F
  3
INDEXCTL
350
23E
  3
LIGHTINGUNITS
350
23C
  3
MSLTSCALE
350
23B
  3
SORTENTS
350
23D
  0
DICTIONARY
  5
DC
102
{ACAD_REACTORS
330
C
102
}
330
C
100
AcDbDictionary
281
     1
  3
AcmStdDictionary
350
DE
  3
AMDTSECTSYM_ARROWCOLOR
350
F6
  0
DICTIONARY
  5
7F
102
{ACAD_REACTORS
330
C
102
}
330
C
100
AcDbDictionary
281
     1
  0
DICTIONARY
  5
13A
102
{ACAD_REACTORS
330
C
102
}
330
C
100
AcDbDictionary
281
     1
  0
DICTIONARY
  5
239
102
{ACAD_REACTORS
330
C
102
}
330
C
100
AcDbDictionary
281
     1
  3
ASEBlockHierarchyIndexRecord
350
23A
1001
DCO15
1040
1599799633.89
  0
XRECORD
  5
12EF
102
{ACAD_REACTORS
330
C
102
}
330
C
100
AcDbXrecord
280
     1
  1
DWGPROPS COOKIE
  2

  3

  4

  6

  7

  8
Administrator
  9

300
=
301
=
302
=
303
=
304
=
305
=
306
=
307
=
308
=
309
=
 40
0.0307486805555556
 41
2454313.581725069
 42
2454768.568298785
  1

 90
        0
  0
DICTIONARY
  5
12B
102
{ACAD_REACTORS
330
12A
102
}
330
12A
100
AcDbDictionary
281
     1
  0
DICTIONARY
  5
1BE
102
{ACAD_REACTORS
330
12A
102
}
330
12A
100
AcDbDictionary
280
     1
281
     1
  0
XRECORD
  5
159
102
{ACAD_REACTORS
330
158
102
}
330
158
100
AcDbXrecord
280
     1
290
     1
  0
XRECORD
  5
15A
102
{ACAD_REACTORS
330
11A
102
}
330
11A
100
AcDbXrecord
280
     1
290
     1
  0
XRECORD
  5
15B
102
{ACAD_REACTORS
330
11C
102
}
330
11C
100
AcDbXrecord
280
     1
290
     1
  0
XRECORD
  5
15D
102
{ACAD_REACTORS
330
15C
102
}
330
15C
100
AcDbXrecord
280
     1
290
     1
  0
DIMASSOC
  5
EF4
102
{ACAD_REACTORS
330
EF3
102
}
330
EF3
100
AcDbDimAssoc
330
EE5
 90
        3
 70
     0
 71
     0
  1
AcDbOsnapPointRef
 72
     1
331
AA7
331
AAD
 73
     0
 91
        0
 40
0.0
 10
0.0
 20
0.0
 30
2.000000000000000E+50
 75
     0
  1
AcDbOsnapPointRef
 72
    13
331
AB8
331
AB9
 73
     0
 91
        0
 40
0.0
 10
0.0
 20
0.0
 30
2.000000000000000E+50
 75
     0
  0
DIMASSOC
  5
F32
102
{ACAD_REACTORS
330
F31
102
}
330
F31
100
AcDbDimAssoc
330
F24
 90
        2
 70
     0
 71
     0
  1
AcDbOsnapPointRef
 72
     2
331
AC2
331
AD8
 73
     0
 91
        0
 40
0.0
 10
0.0
 20
0.0
 30
0.0
 75
     0
  0
DIMASSOC
  5
F53
102
{ACAD_REACTORS
330
F52
102
}
330
F52
100
AcDbDimAssoc
330
F45
 90
        2
 70
     0
 71
     0
  1
AcDbOsnapPointRef
 72
     2
331
AA1
331
AA2
 73
     0
 91
        0
 40
0.0
 10
0.0
 20
0.0
 30
0.0
 75
     0
  0
DIMASSOC
  5
10B5
102
{ACAD_REACTORS
330
10B4
102
}
330
10B4
100
AcDbDimAssoc
330
10A6
 90
        3
 70
     0
 71
     1
  1
AcDbOsnapPointRef
 72
     1
331
CD3
331
CE1
 73
     0
 91
        0
 40
0.0
 10
0.0
 20
0.0
 30
2.000000000000000E+50
 75
     0
  1
AcDbOsnapPointRef
 72
     1
331
CD3
331
CF5
 73
     0
 91
        0
 40
0.0
 10
0.0
 20
0.0
 30
2.000000000000000E+50
 75
     0
  0
DIMASSOC
  5
10F6
102
{ACAD_REACTORS
330
10F5
102
}
330
10F5
100
AcDbDimAssoc
330
10E7
 90
        2
 70
     0
 71
     0
  1
AcDbOsnapPointRef
 72
     1
331
DAC
331
DB8
 73
     0
 91
        0
 40
0.0
 10
0.0
 20
0.0
 30
2.000000000000000E+50
 75
     0
  0
DIMASSOC
  5
112E
102
{ACAD_REACTORS
330
112D
102
}
330
112D
100
AcDbDimAssoc
330
111E
 90
        3
 70
     0
 71
     1
  1
AcDbOsnapPointRef
 72
    13
331
CD0
 73
     0
 91
        0
 40
0.0
 10
0.0
 20
0.0
 30
2.000000000000000E+50
 75
     0
  1
AcDbOsnapPointRef
 72
    13
331
CD1
 73
     0
 91
        0
 40
0.0
 10
0.0
 20
0.0
 30
2.000000000000000E+50
 75
     0
  0
DIMASSOC
  5
1176
102
{ACAD_REACTORS
330
1175
102
}
330
1175
100
AcDbDimAssoc
330
1166
 90
        3
 70
     0
 71
     1
  1
AcDbOsnapPointRef
 72
     1
331
CA7
331
43E
331
454
 73
     0
 91
        0
 40
0.0
 10
0.0
 20
0.0
 30
2.000000000000000E+50
 75
     0
  1
AcDbOsnapPointRef
 72
     1
331
CA7
331
43E
331
446
 73
     0
 91
        0
 40
0.0
 10
0.0
 20
0.0
 30
2.000000000000000E+50
 75
     0
  0
XRECORD
  5
12F1
102
{ACAD_REACTORS
330
12F0
102
}
330
12F0
100
AcDbXrecord
280
     1
 70
     1
  0
XRECORD
  5
12F2
102
{ACAD_REACTORS
330
12F0
102
}
330
12F0
100
AcDbXrecord
280
     1
 40
1.570796326794896
  0
LAYOUT
  5
78
102
{ACAD_XDICTIONARY
360
12F6
102
}
102
{ACAD_REACTORS
330
6A
102
}
330
6A
100
AcDbPlotSettings
  1

  2
EPSON LP-8800C
  4
A4
  6

 40
5.873749732971191
 41
5.873717308044432
 42
5.873748779296875
 43
5.873748779296875
 44
209.9733276367186
 45
297.0106506347656
 46
-5.887085437774657
 47
-5.868407726287839
 48
0.0
 49
0.0
140
0.0
141
0.0
142
1.0
143
1.0
 70
 11940
 72
     1
 73
     0
 74
     2
  7
monochrome.ctb
 75
     0
147
0.6674270340890596
148
0.0
149
0.0
100
AcDbLayout
  1
Model
 70
     1
 71
     0
 10
0.0
 20
0.0
 11
12.0
 21
9.0
 12
0.0
 22
0.0
 32
0.0
 14
0.0
 24
0.0
 34
0.0
 15
0.0
 25
0.0
 35
0.0
146
0.0
 13
0.0
 23
0.0
 33
0.0
 16
1.0
 26
0.0
 36
0.0
 17
0.0
 27
1.0
 37
0.0
 76
     0
330
75
331
5F
1001
ACAD_PSEXT
1000
EPSON LP-8800C
1000
EPSON LP-8800C
1000
IP_192.168.0.95
1000

1070
     0
  0
LAYOUT
  5
74
102
{ACAD_XDICTIONARY
360
12F4
102
}
102
{ACAD_REACTORS
330
6A
102
}
330
6A
100
AcDbPlotSettings
  1

  2
EPSON LP-8800C
  4

  6

 40
0.0
 41
0.0
 42
0.0
 43
0.0
 44
0.0
 45
0.0
 46
0.0
 47
0.0
 48
0.0
 49
0.0
140
0.0
141
0.0
142
1.0
143
1.0
 70
   688
 72
     0
 73
     0
 74
     5
  7
monochrome.ctb
 75
    16
147
1.0
148
0.0
149
0.0
100
AcDbLayout
  1
レイアウト1
 70
     1
 71
     1
 10
0.0
 20
0.0
 11
420.0
 21
297.0
 12
0.0
 22
0.0
 32
0.0
 14
1.000000000000000E+20
 24
1.000000000000000E+20
 34
1.000000000000000E+20
 15
-1.000000000000000E+20
 25
-1.000000000000000E+20
 35
-1.000000000000000E+20
146
0.0
 13
0.0
 23
0.0
 33
0.0
 16
1.0
 26
0.0
 36
0.0
 17
0.0
 27
1.0
 37
0.0
 76
     0
330
71
  0
LAYOUT
  5
7C
102
{ACAD_XDICTIONARY
360
12F8
102
}
102
{ACAD_REACTORS
330
6A
102
}
330
6A
100
AcDbPlotSettings
  1

  2
EPSON LP-8800C
  4

  6

 40
0.0
 41
0.0
 42
0.0
 43
0.0
 44
0.0
 45
0.0
 46
0.0
 47
0.0
 48
0.0
 49
0.0
140
0.0
141
0.0
142
1.0
143
1.0
 70
   688
 72
     0
 73
     0
 74
     5
  7
monochrome.ctb
 75
    16
147
1.0
148
0.0
149
0.0
100
AcDbLayout
  1
レイアウト2
 70
     1
 71
     2
 10
0.0
 20
0.0
 11
12.0
 21
9.0
 12
0.0
 22
0.0
 32
0.0
 14
0.0
 24
0.0
 34
0.0
 15
0.0
 25
0.0
 35
0.0
146
0.0
 13
0.0
 23
0.0
 33
0.0
 16
1.0
 26
0.0
 36
0.0
 17
0.0
 27
1.0
 37
0.0
 76
     0
330
79
  0
MATERIAL
  5
19
102
{ACAD_XDICTIONARY
360
1A
102
}
102
{ACAD_REACTORS
330
10
102
}
330
10
100
AcDbMaterial
  1
ByBlock
 72
     0
 43
0.0208333333333333
 43
0.0
 43
0.0
 43
0.0
 43
0.0
 43
0.0208333333333333
 43
0.0
 43
0.0
 43
0.0
 43
0.0
 43
1.0
 43
0.0
 43
0.0
 43
0.0
 43
0.0
 43
1.0
 77
     0
 47
0.0208333333333333
 47
0.0
 47
0.0
 47
0.0
 47
0.0
 47
0.0208333333333333
 47
0.0
 47
0.0
 47
0.0
 47
0.0
 47
1.0
 47
0.0
 47
0.0
 47
0.0
 47
0.0
 47
1.0
171
     0
 49
0.0208333333333333
 49
0.0
 49
0.0
 49
0.0
 49
0.0
 49
0.0208333333333333
 49
0.0
 49
0.0
 49
0.0
 49
0.0
 49
1.0
 49
0.0
 49
0.0
 49
0.0
 49
0.0
 49
1.0
175
     0
142
0.0208333333333333
142
0.0
142
0.0
142
0.0
142
0.0
142
0.0208333333333333
142
0.0
142
0.0
142
0.0
142
0.0
142
1.0
142
0.0
142
0.0
142
0.0
142
0.0
142
1.0
179
     0
144
0.0208333333333333
144
0.0
144
0.0
144
0.0
144
0.0
144
0.0208333333333333
144
0.0
144
0.0
144
0.0
144
0.0
144
1.0
144
0.0
144
0.0
144
0.0
144
0.0
144
1.0
147
0.0208333333333333
147
0.0
147
0.0
147
0.0
147
0.0
147
0.0208333333333333
147
0.0
147
0.0
147
0.0
147
0.0
147
1.0
147
0.0
147
0.0
147
0.0
147
0.0
147
1.0
  0
MATERIAL
  5
11
102
{ACAD_XDICTIONARY
360
12
102
}
102
{ACAD_REACTORS
330
10
102
}
330
10
100
AcDbMaterial
  1
ByLayer
 72
     0
 43
0.0208333333333333
 43
0.0
 43
0.0
 43
0.0
 43
0.0
 43
0.0208333333333333
 43
0.0
 43
0.0
 43
0.0
 43
0.0
 43
1.0
 43
0.0
 43
0.0
 43
0.0
 43
0.0
 43
1.0
 77
     0
 47
0.0208333333333333
 47
0.0
 47
0.0
 47
0.0
 47
0.0
 47
0.0208333333333333
 47
0.0
 47
0.0
 47
0.0
 47
0.0
 47
1.0
 47
0.0
 47
0.0
 47
0.0
 47
0.0
 47
1.0
171
     0
 49
0.0208333333333333
 49
0.0
 49
0.0
 49
0.0
 49
0.0
 49
0.0208333333333333
 49
0.0
 49
0.0
 49
0.0
 49
0.0
 49
1.0
 49
0.0
 49
0.0
 49
0.0
 49
0.0
 49
1.0
175
     0
142
0.0208333333333333
142
0.0
142
0.0
142
0.0
142
0.0
142
0.0208333333333333
142
0.0
142
0.0
142
0.0
142
0.0
142
1.0
142
0.0
142
0.0
142
0.0
142
0.0
142
1.0
179
     0
144
0.0208333333333333
144
0.0
144
0.0
144
0.0
144
0.0
144
0.0208333333333333
144
0.0
144
0.0
144
0.0
144
0.0
144
1.0
144
0.0
144
0.0
144
0.0
144
0.0
144
1.0
147
0.0208333333333333
147
0.0
147
0.0
147
0.0
147
0.0
147
0.0208333333333333
147
0.0
147
0.0
147
0.0
147
0.0
147
1.0
147
0.0
147
0.0
147
0.0
147
0.0
147
1.0
  0
MATERIAL
  5
21
102
{ACAD_XDICTIONARY
360
22
102
}
102
{ACAD_REACTORS
330
10
102
}
330
10
100
AcDbMaterial
  1
Global
 72
     0
 43
0.0208333333333333
 43
0.0
 43
0.0
 43
0.0
 43
0.0
 43
0.0208333333333333
 43
0.0
 43
0.0
 43
0.0
 43
0.0
 43
1.0
 43
0.0
 43
0.0
 43
0.0
 43
0.0
 43
1.0
 77
     0
 47
0.0208333333333333
 47
0.0
 47
0.0
 47
0.0
 47
0.0
 47
0.0208333333333333
 47
0.0
 47
0.0
 47
0.0
 47
0.0
 47
1.0
 47
0.0
 47
0.0
 47
0.0
 47
0.0
 47
1.0
171
     0
 49
0.0208333333333333
 49
0.0
 49
0.0
 49
0.0
 49
0.0
 49
0.0208333333333333
 49
0.0
 49
0.0
 49
0.0
 49
0.0
 49
1.0
 49
0.0
 49
0.0
 49
0.0
 49
0.0
 49
1.0
175
     0
142
0.0208333333333333
142
0.0
142
0.0
142
0.0
142
0.0
142
0.0208333333333333
142
0.0
142
0.0
142
0.0
142
0.0
142
1.0
142
0.0
142
0.0
142
0.0
142
0.0
142
1.0
179
     0
144
0.0208333333333333
144
0.0
144
0.0
144
0.0
144
0.0
144
0.0208333333333333
144
0.0
144
0.0
144
0.0
144
0.0
144
1.0
144
0.0
144
0.0
144
0.0
144
0.0
144
1.0
147
0.0208333333333333
147
0.0
147
0.0
147
0.0
147
0.0
147
0.0208333333333333
147
0.0
147
0.0
147
0.0
147
0.0
147
1.0
147
0.0
147
0.0
147
0.0
147
0.0
147
1.0
  0
MLEADERSTYLE
  5
6F
102
{ACAD_REACTORS
330
6E
102
}
330
6E
100
AcDbMLeaderStyle
170
     2
171
     1
172
     0
 90
        2
 40
0.0
 41
0.0
173
     1
 91
-1056964608
340
63
 92
       -2
290
     1
 42
0.09
291
     1
 43
0.36
  3
Standard
 44
0.18
300

342
5D
174
     1
178
     6
175
     1
176
     0
 93
-1056964608
 45
0.18
292
     0
297
     0
 46
0.18
 94
-1056964608
 47
1.0
 49
1.0
140
1.0
293
     1
141
0.0
294
     1
177
     0
142
1.0
295
     0
296
     0
143
0.125
1001
ACAD_MLEADERVER
1070
     2
  0
MLINESTYLE
  5
68
102
{ACAD_REACTORS
330
67
102
}
330
67
100
AcDbMlineStyle
  2
STANDARD
 70
     0
  3

 62
   256
 51
90.0
 52
90.0
 71
     2
 49
0.5
 62
   256
  6
BYLAYER
 49
-0.5
 62
   256
  6
BYLAYER
  0
ACDBPLACEHOLDER
  5
F
102
{ACAD_REACTORS
330
E
102
}
330
E
  0
SCALE
  5
3B
102
{ACAD_REACTORS
330
3A
102
}
330
3A
100
AcDbScale
 70
     0
300
1:1
140
1.0
141
1.0
290
     1
  0
SCALE
  5
3C
102
{ACAD_REACTORS
330
3A
102
}
330
3A
100
AcDbScale
 70
     0
300
1:2
140
1.0
141
2.0
290
     0
  0
SCALE
  5
3D
102
{ACAD_REACTORS
330
3A
102
}
330
3A
100
AcDbScale
 70
     0
300
1:4
140
1.0
141
4.0
290
     0
  0
SCALE
  5
3E
102
{ACAD_REACTORS
330
3A
102
}
330
3A
100
AcDbScale
 70
     0
300
1:5
140
1.0
141
5.0
290
     0
  0
SCALE
  5
3F
102
{ACAD_REACTORS
330
3A
102
}
330
3A
100
AcDbScale
 70
     0
300
1:8
140
1.0
141
8.0
290
     0
  0
SCALE
  5
40
102
{ACAD_REACTORS
330
3A
102
}
330
3A
100
AcDbScale
 70
     0
300
1:10
140
1.0
141
10.0
290
     0
  0
SCALE
  5
41
102
{ACAD_REACTORS
330
3A
102
}
330
3A
100
AcDbScale
 70
     0
300
1:16
140
1.0
141
16.0
290
     0
  0
SCALE
  5
42
102
{ACAD_REACTORS
330
3A
102
}
330
3A
100
AcDbScale
 70
     0
300
1:20
140
1.0
141
20.0
290
     0
  0
SCALE
  5
43
102
{ACAD_REACTORS
330
3A
102
}
330
3A
100
AcDbScale
 70
     0
300
1:30
140
1.0
141
30.0
290
     0
  0
SCALE
  5
44
102
{ACAD_REACTORS
330
3A
102
}
330
3A
100
AcDbScale
 70
     0
300
1:40
140
1.0
141
40.0
290
     0
  0
SCALE
  5
45
102
{ACAD_REACTORS
330
3A
102
}
330
3A
100
AcDbScale
 70
     0
300
1:50
140
1.0
141
50.0
290
     0
  0
SCALE
  5
46
102
{ACAD_REACTORS
330
3A
102
}
330
3A
100
AcDbScale
 70
     0
300
1:100
140
1.0
141
100.0
290
     0
  0
SCALE
  5
47
102
{ACAD_REACTORS
330
3A
102
}
330
3A
100
AcDbScale
 70
     0
300
2:1
140
2.0
141
1.0
290
     0
  0
SCALE
  5
48
102
{ACAD_REACTORS
330
3A
102
}
330
3A
100
AcDbScale
 70
     0
300
4:1
140
4.0
141
1.0
290
     0
  0
SCALE
  5
49
102
{ACAD_REACTORS
330
3A
102
}
330
3A
100
AcDbScale
 70
     0
300
8:1
140
8.0
141
1.0
290
     0
  0
SCALE
  5
4A
102
{ACAD_REACTORS
330
3A
102
}
330
3A
100
AcDbScale
 70
     0
300
10:1
140
10.0
141
1.0
290
     0
  0
SCALE
  5
4B
102
{ACAD_REACTORS
330
3A
102
}
330
3A
100
AcDbScale
 70
     0
300
100:1
140
100.0
141
1.0
290
     0
  0
SCALE
  5
4C
102
{ACAD_REACTORS
330
3A
102
}
330
3A
100
AcDbScale
 70
     0
300
1/128" = 1'-0"
140
0.0078125
141
12.0
290
     0
  0
SCALE
  5
4D
102
{ACAD_REACTORS
330
3A
102
}
330
3A
100
AcDbScale
 70
     0
300
1/64" = 1'-0"
140
0.015625
141
12.0
290
     0
  0
SCALE
  5
4E
102
{ACAD_REACTORS
330
3A
102
}
330
3A
100
AcDbScale
 70
     0
300
1/32" = 1'-0"
140
0.03125
141
12.0
290
     0
  0
SCALE
  5
4F
102
{ACAD_REACTORS
330
3A
102
}
330
3A
100
AcDbScale
 70
     0
300
1/16" = 1'-0"
140
0.0625
141
12.0
290
     0
  0
SCALE
  5
50
102
{ACAD_REACTORS
330
3A
102
}
330
3A
100
AcDbScale
 70
     0
300
3/32" = 1'-0"
140
0.09375
141
12.0
290
     0
  0
SCALE
  5
51
102
{ACAD_REACTORS
330
3A
102
}
330
3A
100
AcDbScale
 70
     0
300
1/8" = 1'-0"
140
0.125
141
12.0
290
     0
  0
SCALE
  5
52
102
{ACAD_REACTORS
330
3A
102
}
330
3A
100
AcDbScale
 70
     0
300
3/16" = 1'-0"
140
0.1875
141
12.0
290
     0
  0
SCALE
  5
53
102
{ACAD_REACTORS
330
3A
102
}
330
3A
100
AcDbScale
 70
     0
300
1/4" = 1'-0"
140
0.25
141
12.0
290
     0
  0
SCALE
  5
54
102
{ACAD_REACTORS
330
3A
102
}
330
3A
100
AcDbScale
 70
     0
300
3/8" = 1'-0"
140
0.375
141
12.0
290
     0
  0
SCALE
  5
55
102
{ACAD_REACTORS
330
3A
102
}
330
3A
100
AcDbScale
 70
     0
300
1/2" = 1'-0"
140
0.5
141
12.0
290
     0
  0
SCALE
  5
56
102
{ACAD_REACTORS
330
3A
102
}
330
3A
100
AcDbScale
 70
     0
300
3/4" = 1'-0"
140
0.75
141
12.0
290
     0
  0
SCALE
  5
57
102
{ACAD_REACTORS
330
3A
102
}
330
3A
100
AcDbScale
 70
     0
300
1" = 1'-0"
140
1.0
141
12.0
290
     0
  0
SCALE
  5
58
102
{ACAD_REACTORS
330
3A
102
}
330
3A
100
AcDbScale
 70
     0
300
1-1/2" = 1'-0"
140
1.5
141
12.0
290
     0
  0
SCALE
  5
59
102
{ACAD_REACTORS
330
3A
102
}
330
3A
100
AcDbScale
 70
     0
300
3" = 1'-0"
140
3.0
141
12.0
290
     0
  0
SCALE
  5
5A
102
{ACAD_REACTORS
330
3A
102
}
330
3A
100
AcDbScale
 70
     0
300
6" = 1'-0"
140
6.0
141
12.0
290
     0
  0
SCALE
  5
5B
102
{ACAD_REACTORS
330
3A
102
}
330
3A
100
AcDbScale
 70
     0
300
1'-0" = 1'-0"
140
12.0
141
12.0
290
     0
  0
TABLESTYLE
  5
6D
102
{ACAD_XDICTIONARY
360
161
102
}
102
{ACAD_REACTORS
330
6C
102
}
330
6C
100
AcDbTableStyle
  3
Standard
 70
     0
 71
     0
 40
1.5
 41
1.5
280
     0
281
     0
  7
STANDARD
140
4.5
170
     2
 62
     0
 63
     7
283
     0
274
    -2
284
     1
 64
     0
275
    -2
285
     1
 65
     0
276
    -2
286
     1
 66
     0
277
    -2
287
     1
 67
     0
278
    -2
288
     1
 68
     0
279
    -2
289
     1
 69
     0
  7
STANDARD
140
6.0
170
     5
 62
     0
 63
     7
283
     0
274
    -2
284
     1
 64
     0
275
    -2
285
     1
 65
     0
276
    -2
286
     1
 66
     0
277
    -2
287
     1
 67
     0
278
    -2
288
     1
 68
     0
279
    -2
289
     1
 69
     0
  7
STANDARD
140
4.5
170
     5
 62
     0
 63
     7
283
     0
274
    -2
284
     1
 64
     0
275
    -2
285
     1
 65
     0
276
    -2
286
     1
 66
     0
277
    -2
287
     1
 67
     0
278
    -2
288
     1
 68
     0
279
    -2
289
     1
 69
     0
  0
VISUALSTYLE
  5
2F
102
{ACAD_REACTORS
330
29
102
}
330
29
100
AcDbVisualStyle
  2
2dWireframe
 70
     4
 71
     0
 72
     2
 73
     0
 90
        0
 40
-0.6
 41
-30.0
 62
     5
 63
     7
 74
     1
 91
        4
 64
     7
 65
   257
 75
     1
175
     1
 42
1.0
 92
        0
 66
   257
 43
1.0
 76
     1
 77
     6
 78
     2
 67
     7
 79
     5
170
     0
171
     0
290
     0
174
     0
 93
        1
 44
0.0
173
     0
291
     0
 45
0.0
1001
ACAD
1000
AcDbSavedByObjectVersion
1070
     0
1000
AcDbSavedByObjectVersion
1070
     0
1000
AcDbSavedByObjectVersion
1070
     0
1000
AcDbSavedByObjectVersion
1070
     0
1000
AcDbSavedByObjectVersion
1070
     0
  0
VISUALSTYLE
  5
31
102
{ACAD_REACTORS
330
29
102
}
330
29
100
AcDbVisualStyle
  2
3D Hidden
 70
     6
 71
     1
 72
     2
 73
     2
 90
        0
 40
-0.6
 41
-30.0
 62
     5
 63
     7
 74
     2
 91
        2
 64
     7
 65
   257
 75
     2
175
     1
 42
40.0
 92
        0
 66
   257
 43
1.0
 76
     1
 77
     6
 78
     2
 67
     7
 79
     3
170
     0
171
     0
290
     0
174
     0
 93
        1
 44
0.0
173
     0
291
     0
 45
0.0
1001
ACAD
1000
AcDbSavedByObjectVersion
1070
     0
1000
AcDbSavedByObjectVersion
1070
     0
1000
AcDbSavedByObjectVersion
1070
     0
1000
AcDbSavedByObjectVersion
1070
     0
1000
AcDbSavedByObjectVersion
1070
     0
  0
VISUALSTYLE
  5
30
102
{ACAD_REACTORS
330
29
102
}
330
29
100
AcDbVisualStyle
  2
3dWireframe
 70
     5
 71
     0
 72
     2
 73
     0
 90
        0
 40
-0.6
 41
-30.0
 62
     5
 63
     7
 74
     1
 91
        4
 64
     7
 65
   257
 75
     1
175
     1
 42
1.0
 92
        0
 66
   257
 43
1.0
 76
     1
 77
     6
 78
     2
 67
     7
 79
     5
170
     0
171
     0
290
     0
174
     0
 93
        1
 44
0.0
173
     0
291
     0
 45
0.0
1001
ACAD
1000
AcDbSavedByObjectVersion
1070
     0
1000
AcDbSavedByObjectVersion
1070
     0
1000
AcDbSavedByObjectVersion
1070
     0
1000
AcDbSavedByObjectVersion
1070
     0
1000
AcDbSavedByObjectVersion
1070
     0
  0
VISUALSTYLE
  5
2E
102
{ACAD_REACTORS
330
29
102
}
330
29
100
AcDbVisualStyle
  2
Basic
 70
     7
 71
     1
 72
     0
 73
     1
 90
        0
 40
-0.6
 41
-30.0
 62
     5
 63
     7
 74
     0
 91
        4
 64
     7
 65
   257
 75
     1
175
     1
 42
1.0
 92
        8
 66
     7
 43
1.0
 76
     1
 77
     6
 78
     2
 67
     7
 79
     5
170
     0
171
     0
290
     0
174
     0
 93
        1
 44
0.0
173
     0
291
     1
 45
0.0
1001
ACAD
1000
AcDbSavedByObjectVersion
1070
     0
1000
AcDbSavedByObjectVersion
1070
     0
1000
AcDbSavedByObjectVersion
1070
     0
1000
AcDbSavedByObjectVersion
1070
     0
1000
AcDbSavedByObjectVersion
1070
     0
  0
VISUALSTYLE
  5
35
102
{ACAD_REACTORS
330
29
102
}
330
29
100
AcDbVisualStyle
  2
Brighten
 70
    12
 71
     2
 72
     2
 73
     0
 90
        0
 40
-0.6
 41
-30.0
 62
     5
 63
     7
 74
     1
 91
        4
 64
     7
 65
   257
 75
     1
175
     1
 42
1.0
 92
        8
 66
     7
 43
1.0
 76
     1
 77
     6
 78
     2
 67
     7
 79
     5
170
     0
171
     0
290
     0
174
     0
 93
        1
 44
50.0
173
     0
291
     1
 45
0.0
1001
ACAD
1000
AcDbSavedByObjectVersion
1070
     0
1000
AcDbSavedByObjectVersion
1070
     0
1000
AcDbSavedByObjectVersion
1070
     0
1000
AcDbSavedByObjectVersion
1070
     0
1000
AcDbSavedByObjectVersion
1070
     0
  0
VISUALSTYLE
  5
39
102
{ACAD_REACTORS
330
29
102
}
330
29
100
AcDbVisualStyle
  2
ColorChange
 70
    16
 71
     2
 72
     2
 73
     3
 90
        0
 40
-0.6
 41
-30.0
 62
     5
 63
     8
 74
     1
 91
        4
 64
     7
 65
   257
 75
     1
175
     1
 42
1.0
 92
        8
 66
     8
 43
1.0
 76
     1
 77
     6
 78
     2
 67
     7
 79
     5
170
     0
171
     0
290
     0
174
     0
 93
        1
 44
0.0
173
     0
291
     1
 45
0.0
1001
ACAD
1000
AcDbSavedByObjectVersion
1070
     0
1000
AcDbSavedByObjectVersion
1070
     0
1000
AcDbSavedByObjectVersion
1070
     0
1000
AcDbSavedByObjectVersion
1070
     0
1000
AcDbSavedByObjectVersion
1070
     0
  0
VISUALSTYLE
  5
32
102
{ACAD_REACTORS
330
29
102
}
330
29
100
AcDbVisualStyle
  2
Conceptual
 70
     9
 71
     3
 72
     2
 73
     0
 90
        0
 40
-0.6
 41
-30.0
 62
     5
 63
     7
 74
     2
 91
        2
 64
     7
 65
   257
 75
     1
175
     1
 42
40.0
 92
        8
 66
     7
 43
1.0
 76
     1
 77
     6
 78
     2
 67
     7
 79
     3
170
     0
171
     0
290
     0
174
     0
 93
        1
 44
0.0
173
     0
291
     0
 45
0.0
1001
ACAD
1000
AcDbSavedByObjectVersion
1070
     0
1000
AcDbSavedByObjectVersion
1070
     0
1000
AcDbSavedByObjectVersion
1070
     0
1000
AcDbSavedByObjectVersion
1070
     0
1000
AcDbSavedByObjectVersion
1070
     0
  0
VISUALSTYLE
  5
34
102
{ACAD_REACTORS
330
29
102
}
330
29
100
AcDbVisualStyle
  2
Dim
 70
    11
 71
     2
 72
     2
 73
     0
 90
        0
 40
-0.6
 41
-30.0
 62
     5
 63
     7
 74
     1
 91
        4
 64
     7
 65
   257
 75
     1
175
     1
 42
1.0
 92
        8
 66
     7
 43
1.0
 76
     1
 77
     6
 78
     2
 67
     7
 79
     5
170
     0
171
     0
290
     0
174
     0
 93
        1
 44
-50.0
173
     0
291
     1
 45
0.0
1001
ACAD
1000
AcDbSavedByObjectVersion
1070
     0
1000
AcDbSavedByObjectVersion
1070
     0
1000
AcDbSavedByObjectVersion
1070
     0
1000
AcDbSavedByObjectVersion
1070
     0
1000
AcDbSavedByObjectVersion
1070
     0
  0
VISUALSTYLE
  5
38
102
{ACAD_REACTORS
330
29
102
}
330
29
100
AcDbVisualStyle
  2
Facepattern
 70
    15
 71
     2
 72
     2
 73
     0
 90
        0
 40
-0.6
 41
-30.0
 62
     5
 63
     7
 74
     1
 91
        4
 64
     7
 65
   257
 75
     1
175
     1
 42
1.0
 92
        8
 66
     7
 43
1.0
 76
     1
 77
     6
 78
     2
 67
     7
 79
     5
170
     0
171
     0
290
     0
174
     0
 93
        1
 44
0.0
173
     0
291
     1
 45
0.0
1001
ACAD
1000
AcDbSavedByObjectVersion
1070
     0
1000
AcDbSavedByObjectVersion
1070
     0
1000
AcDbSavedByObjectVersion
1070
     0
1000
AcDbSavedByObjectVersion
1070
     0
1000
AcDbSavedByObjectVersion
1070
     0
  0
VISUALSTYLE
  5
2A
102
{ACAD_REACTORS
330
29
102
}
330
29
100
AcDbVisualStyle
  2
Flat
 70
     0
 71
     2
 72
     1
 73
     1
 90
        2
 40
-0.6
 41
30.0
 62
     5
 63
     7
 74
     0
 91
        4
 64
     7
 65
   257
 75
     1
175
     1
 42
1.0
 92
        8
 66
     7
 43
1.0
 76
     1
 77
     6
 78
     2
 67
     7
 79
     5
170
     0
171
     0
290
     0
174
     0
 93
       13
 44
0.0
173
     0
291
     1
 45
0.0
1001
ACAD
1000
AcDbSavedByObjectVersion
1070
     0
1000
AcDbSavedByObjectVersion
1070
     0
1000
AcDbSavedByObjectVersion
1070
     0
1000
AcDbSavedByObjectVersion
1070
     0
1000
AcDbSavedByObjectVersion
1070
     0
  0
VISUALSTYLE
  5
2B
102
{ACAD_REACTORS
330
29
102
}
330
29
100
AcDbVisualStyle
  2
FlatWithEdges
 70
     1
 71
     2
 72
     1
 73
     1
 90
        2
 40
-0.6
 41
30.0
 62
     5
 63
     7
 74
     1
 91
        4
 64
     7
 65
   257
 75
     1
175
     1
 42
1.0
 92
        0
 66
   257
 43
1.0
 76
     1
 77
     6
 78
     2
 67
     7
 79
     5
170
     0
171
     0
290
     0
174
     0
 93
       13
 44
0.0
173
     0
291
     1
 45
0.0
1001
ACAD
1000
AcDbSavedByObjectVersion
1070
     0
1000
AcDbSavedByObjectVersion
1070
     0
1000
AcDbSavedByObjectVersion
1070
     0
1000
AcDbSavedByObjectVersion
1070
     0
1000
AcDbSavedByObjectVersion
1070
     0
  0
VISUALSTYLE
  5
2C
102
{ACAD_REACTORS
330
29
102
}
330
29
100
AcDbVisualStyle
  2
Gouraud
 70
     2
 71
     2
 72
     2
 73
     1
 90
        2
 40
-0.6
 41
30.0
 62
     5
 63
     7
 74
     0
 91
        4
 64
     7
 65
   257
 75
     1
175
     1
 42
1.0
 92
        0
 66
     7
 43
1.0
 76
     1
 77
     6
 78
     2
 67
     7
 79
     5
170
     0
171
     0
290
     0
174
     0
 93
       13
 44
0.0
173
     0
291
     1
 45
0.0
1001
ACAD
1000
AcDbSavedByObjectVersion
1070
     0
1000
AcDbSavedByObjectVersion
1070
     0
1000
AcDbSavedByObjectVersion
1070
     0
1000
AcDbSavedByObjectVersion
1070
     0
1000
AcDbSavedByObjectVersion
1070
     0
  0
VISUALSTYLE
  5
2D
102
{ACAD_REACTORS
330
29
102
}
330
29
100
AcDbVisualStyle
  2
GouraudWithEdges
 70
     3
 71
     2
 72
     2
 73
     1
 90
        2
 40
-0.6
 41
30.0
 62
     5
 63
     7
 74
     1
 91
        4
 64
     7
 65
   257
 75
     1
175
     1
 42
1.0
 92
        0
 66
   257
 43
1.0
 76
     1
 77
     6
 78
     2
 67
     7
 79
     5
170
     0
171
     0
290
     0
174
     0
 93
       13
 44
0.0
173
     0
291
     1
 45
0.0
1001
ACAD
1000
AcDbSavedByObjectVersion
1070
     0
1000
AcDbSavedByObjectVersion
1070
     0
1000
AcDbSavedByObjectVersion
1070
     0
1000
AcDbSavedByObjectVersion
1070
     0
1000
AcDbSavedByObjectVersion
1070
     0
  0
VISUALSTYLE
  5
37
102
{ACAD_REACTORS
330
29
102
}
330
29
100
AcDbVisualStyle
  2
Linepattern
 70
    14
 71
     2
 72
     2
 73
     0
 90
        0
 40
-0.6
 41
-30.0
 62
     5
 63
     7
 74
     1
 91
        4
 64
     7
 65
   257
 75
     7
175
     7
 42
1.0
 92
        8
 66
     7
 43
1.0
 76
     1
 77
     6
 78
     2
 67
     7
 79
     5
170
     0
171
     0
290
     0
174
     0
 93
        1
 44
0.0
173
     0
291
     1
 45
0.0
1001
ACAD
1000
AcDbSavedByObjectVersion
1070
     0
1000
AcDbSavedByObjectVersion
1070
     0
1000
AcDbSavedByObjectVersion
1070
     0
1000
AcDbSavedByObjectVersion
1070
     0
1000
AcDbSavedByObjectVersion
1070
     0
  0
VISUALSTYLE
  5
33
102
{ACAD_REACTORS
330
29
102
}
330
29
100
AcDbVisualStyle
  2
Realistic
 70
     8
 71
     2
 72
     2
 73
     0
 90
        0
 40
-0.6
 41
-30.0
 62
     5
 63
     7
 74
     1
 91
        0
 64
     7
 65
   257
 75
     1
175
     1
 42
1.0
 92
        8
 66
     8
 43
1.0
 76
     1
 77
     6
 78
     2
 67
     7
 79
     5
170
     0
171
     0
290
     0
174
     0
 93
       13
 44
0.0
173
     0
291
     0
 45
0.0
1001
ACAD
1000
AcDbSavedByObjectVersion
1070
     0
1000
AcDbSavedByObjectVersion
1070
     0
1000
AcDbSavedByObjectVersion
1070
     0
1000
AcDbSavedByObjectVersion
1070
     0
1000
AcDbSavedByObjectVersion
1070
     0
  0
VISUALSTYLE
  5
36
102
{ACAD_REACTORS
330
29
102
}
330
29
100
AcDbVisualStyle
  2
Thicken
 70
    13
 71
     2
 72
     2
 73
     0
 90
        0
 40
-0.6
 41
-30.0
 62
     5
 63
     7
 74
     1
 91
        4
 64
     7
 65
   257
 75
     1
175
     1
 42
1.0
 92
       12
 66
     7
 43
1.0
 76
     1
 77
     6
 78
     2
 67
     7
 79
     5
170
     0
171
     0
290
     0
174
     0
 93
        1
 44
0.0
173
     0
291
     1
 45
0.0
1001
ACAD
1000
AcDbSavedByObjectVersion
1070
     0
1000
AcDbSavedByObjectVersion
1070
     0
1000
AcDbSavedByObjectVersion
1070
     0
1000
AcDbSavedByObjectVersion
1070
     0
1000
AcDbSavedByObjectVersion
1070
     0
  0
DICTIONARYVAR
  5
167
102
{ACAD_REACTORS
330
164
102
}
330
164
100
DictionaryVariables
280
     0
  1
1:1
  0
DICTIONARYVAR
  5
166
102
{ACAD_REACTORS
330
164
102
}
330
164
100
DictionaryVariables
280
     0
  1
STANDARD
  0
DICTIONARYVAR
  5
165
102
{ACAD_REACTORS
330
164
102
}
330
164
100
DictionaryVariables
280
     0
  1
STANDARD
  0
DICTIONARYVAR
  5
240
102
{ACAD_REACTORS
330
164
102
}
330
164
100
DictionaryVariables
280
     0
  1
2
  0
DICTIONARYVAR
  5
23F
102
{ACAD_REACTORS
330
164
102
}
330
164
100
DictionaryVariables
280
     0
  1
1
  0
DICTIONARYVAR
  5
23E
102
{ACAD_REACTORS
330
164
102
}
330
164
100
DictionaryVariables
280
     0
  1
0
  0
DICTIONARYVAR
  5
23C
102
{ACAD_REACTORS
330
164
102
}
330
164
100
DictionaryVariables
280
     0
  1
2
  0
DICTIONARYVAR
  5
23B
102
{ACAD_REACTORS
330
164
102
}
330
164
100
DictionaryVariables
280
     0
  1
1
  0
DICTIONARYVAR
  5
23D
102
{ACAD_REACTORS
330
164
102
}
330
164
100
DictionaryVariables
280
     0
  1
127
  0
DICTIONARY
  5
DE
102
{ACAD_REACTORS
330
DC
102
}
330
DC
100
AcDbDictionary
281
     1
  0
XRECORD
  5
F6
102
{ACAD_REACTORS
330
DC
102
}
330
DC
100
AcDbXrecord
280
     1
 90
-1023410169
  0
XRECORD
  5
23A
102
{ACAD_REACTORS
330
239
102
}
330
239
100
AcDbXrecord
280
     1
  0
DICTIONARY
  5
12F6
330
78
100
AcDbDictionary
280
     1
281
     1
  3
ACAD_XREC_ROUNDTRIP
360
12F7
  0
DICTIONARY
  5
12F4
330
74
100
AcDbDictionary
280
     1
281
     1
  3
ACAD_XREC_ROUNDTRIP
360
12F5
  0
DICTIONARY
  5
12F8
330
7C
100
AcDbDictionary
280
     1
281
     1
  3
ACAD_XREC_ROUNDTRIP
360
12F9
  0
DICTIONARY
  5
1A
330
19
100
AcDbDictionary
280
     1
281
     1
  3
ACAD_XREC_ROUNDTRIP
360
246
  3
BUMPTILE
360
1C
  3
DIFFUSETILE
360
1B
  3
OPACITYTILE
360
1F
  3
REFLECTIONTILE
360
1E
  3
REFRACTIONTILE
360
20
  3
SPECULARTILE
360
1D
  0
DICTIONARY
  5
12
330
11
100
AcDbDictionary
280
     1
281
     1
  3
ACAD_XREC_ROUNDTRIP
360
245
  3
BUMPTILE
360
14
  3
DIFFUSETILE
360
13
  3
OPACITYTILE
360
17
  3
REFLECTIONTILE
360
16
  3
REFRACTIONTILE
360
18
  3
SPECULARTILE
360
15
  0
DICTIONARY
  5
22
330
21
100
AcDbDictionary
280
     1
281
     1
  3
ACAD_XREC_ROUNDTRIP
360
247
  3
BUMPTILE
360
24
  3
DIFFUSETILE
360
23
  3
OPACITYTILE
360
27
  3
REFLECTIONTILE
360
26
  3
REFRACTIONTILE
360
28
  3
SPECULARTILE
360
25
  0
DICTIONARY
  5
161
330
6D
100
AcDbDictionary
280
     1
281
     1
  3
ACAD_ROUNDTRIP_2008_TABLESTYLE_CELLSTYLEMAP
360
12EE
  3
ACAD_XREC_ROUNDTRIP
360
12F3
  0
XRECORD
  5
12F7
102
{ACAD_REACTORS
330
12F6
102
}
330
12F6
100
AcDbXrecord
280
     1
102
SHADEPLOT
 70
     0
102
SHADEPLOTRESLEVEL
 70
     2
102
SHADEPLOTCUSTOMDPI
 70
   300
  0
XRECORD
  5
12F5
102
{ACAD_REACTORS
330
12F4
102
}
330
12F4
100
AcDbXrecord
280
     1
102
SHADEPLOT
 70
     0
102
SHADEPLOTRESLEVEL
 70
     2
102
SHADEPLOTCUSTOMDPI
 70
   300
  0
XRECORD
  5
12F9
102
{ACAD_REACTORS
330
12F8
102
}
330
12F8
100
AcDbXrecord
280
     1
102
SHADEPLOT
 70
     0
102
SHADEPLOTRESLEVEL
 70
     2
102
SHADEPLOTCUSTOMDPI
 70
   300
  0
XRECORD
  5
246
102
{ACAD_REACTORS
330
1A
102
}
330
1A
100
AcDbXrecord
280
     1
102
MATERIAL
148
0.0
149
0.0
149
0.0
 93
        0
 94
      127
282
     0
 72
     0
 77
     0
171
     0
175
     0
179
     0
273
     0
  0
XRECORD
  5
1C
102
{ACAD_REACTORS
330
1A
102
}
330
1A
100
AcDbXrecord
280
     1
270
     1
271
     1
  0
XRECORD
  5
1B
102
{ACAD_REACTORS
330
1A
102
}
330
1A
100
AcDbXrecord
280
     1
270
     1
271
     1
  0
XRECORD
  5
1F
102
{ACAD_REACTORS
330
1A
102
}
330
1A
100
AcDbXrecord
280
     1
270
     1
271
     1
  0
XRECORD
  5
1E
102
{ACAD_REACTORS
330
1A
102
}
330
1A
100
AcDbXrecord
280
     1
270
     1
271
     1
  0
XRECORD
  5
20
102
{ACAD_REACTORS
330
1A
102
}
330
1A
100
AcDbXrecord
280
     1
270
     1
271
     1
  0
XRECORD
  5
1D
102
{ACAD_REACTORS
330
1A
102
}
330
1A
100
AcDbXrecord
280
     1
270
     1
271
     1
  0
XRECORD
  5
245
102
{ACAD_REACTORS
330
12
102
}
330
12
100
AcDbXrecord
280
     1
102
MATERIAL
148
0.0
149
0.0
149
0.0
 93
        0
 94
      127
282
     0
 72
     0
 77
     0
171
     0
175
     0
179
     0
273
     0
  0
XRECORD
  5
14
102
{ACAD_REACTORS
330
12
102
}
330
12
100
AcDbXrecord
280
     1
270
     1
271
     1
  0
XRECORD
  5
13
102
{ACAD_REACTORS
330
12
102
}
330
12
100
AcDbXrecord
280
     1
270
     1
271
     1
  0
XRECORD
  5
17
102
{ACAD_REACTORS
330
12
102
}
330
12
100
AcDbXrecord
280
     1
270
     1
271
     1
  0
XRECORD
  5
16
102
{ACAD_REACTORS
330
12
102
}
330
12
100
AcDbXrecord
280
     1
270
     1
271
     1
  0
XRECORD
  5
18
102
{ACAD_REACTORS
330
12
102
}
330
12
100
AcDbXrecord
280
     1
270
     1
271
     1
  0
XRECORD
  5
15
102
{ACAD_REACTORS
330
12
102
}
330
12
100
AcDbXrecord
280
     1
270
     1
271
     1
  0
XRECORD
  5
247
102
{ACAD_REACTORS
330
22
102
}
330
22
100
AcDbXrecord
280
     1
102
MATERIAL
148
0.0
149
0.0
149
0.0
 93
        0
 94
      127
282
     0
 72
     0
 77
     0
171
     0
175
     0
179
     0
273
     0
  0
XRECORD
  5
24
102
{ACAD_REACTORS
330
22
102
}
330
22
100
AcDbXrecord
280
     1
270
     1
271
     1
  0
XRECORD
  5
23
102
{ACAD_REACTORS
330
22
102
}
330
22
100
AcDbXrecord
280
     1
270
     1
271
     1
  0
XRECORD
  5
27
102
{ACAD_REACTORS
330
22
102
}
330
22
100
AcDbXrecord
280
     1
270
     1
271
     1
  0
XRECORD
  5
26
102
{ACAD_REACTORS
330
22
102
}
330
22
100
AcDbXrecord
280
     1
270
     1
271
     1
  0
XRECORD
  5
28
102
{ACAD_REACTORS
330
22
102
}
330
22
100
AcDbXrecord
280
     1
270
     1
271
     1
  0
XRECORD
  5
25
102
{ACAD_REACTORS
330
22
102
}
330
22
100
AcDbXrecord
280
     1
270
     1
271
     1
  0
CELLSTYLEMAP
  5
12EE
102
{ACAD_REACTORS
330
161
102
}
330
161
100
AcDbCellStyleMap
 90
        3
300
CELLSTYLE
  1
TABLEFORMAT_BEGIN
 90
        5
170
     1
 91
        0
 92
    32768
 62
   257
 93
        1
300
CONTENTFORMAT
  1
CONTENTFORMAT_BEGIN
 90
        0
 91
        0
 92
      512
 93
        0
300

 40
0.0
140
1.0
 94
        5
 62
     0
340
5D
144
6.0
309
CONTENTFORMAT_END
171
     1
301
MARGIN
  1
CELLMARGIN_BEGIN
 40
1.5
 40
1.5
 40
1.5
 40
1.5
 40
0.18
 40
0.18
309
CELLMARGIN_END
 94
        6
 95
        1
302
GRIDFORMAT
  1
GRIDFORMAT_BEGIN
 90
        0
 91
        1
 62
     0
 92
       -2
340
0
 93
        0
 40
1.125
309
GRIDFORMAT_END
 95
        2
302
GRIDFORMAT
  1
GRIDFORMAT_BEGIN
 90
        0
 91
        1
 62
     0
 92
       -2
340
0
 93
        0
 40
1.125
309
GRIDFORMAT_END
 95
        4
302
GRIDFORMAT
  1
GRIDFORMAT_BEGIN
 90
        0
 91
        1
 62
     0
 92
       -2
340
0
 93
        0
 40
1.125
309
GRIDFORMAT_END
 95
        8
302
GRIDFORMAT
  1
GRIDFORMAT_BEGIN
 90
        0
 91
        1
 62
     0
 92
       -2
340
0
 93
        0
 40
1.125
309
GRIDFORMAT_END
 95
       16
302
GRIDFORMAT
  1
GRIDFORMAT_BEGIN
 90
        0
 91
        1
 62
     0
 92
       -2
340
0
 93
        0
 40
1.125
309
GRIDFORMAT_END
 95
       32
302
GRIDFORMAT
  1
GRIDFORMAT_BEGIN
 90
        0
 91
        1
 62
     0
 92
       -2
340
0
 93
        0
 40
1.125
309
GRIDFORMAT_END
309
TABLEFORMAT_END
  1
CELLSTYLE_BEGIN
 90
        1
 91
        1
300
_TITLE
309
CELLSTYLE_END
300
CELLSTYLE
  1
TABLEFORMAT_BEGIN
 90
        5
170
     1
 91
        0
 92
        0
 62
   257
 93
        1
300
CONTENTFORMAT
  1
CONTENTFORMAT_BEGIN
 90
        0
 91
        0
 92
      512
 93
        0
300

 40
0.0
140
1.0
 94
        5
 62
     0
340
5D
144
4.5
309
CONTENTFORMAT_END
171
     1
301
MARGIN
  1
CELLMARGIN_BEGIN
 40
1.5
 40
1.5
 40
1.5
 40
1.5
 40
0.18
 40
0.18
309
CELLMARGIN_END
 94
        6
 95
        1
302
GRIDFORMAT
  1
GRIDFORMAT_BEGIN
 90
        0
 91
        1
 62
     0
 92
       -2
340
0
 93
        0
 40
1.125
309
GRIDFORMAT_END
 95
        2
302
GRIDFORMAT
  1
GRIDFORMAT_BEGIN
 90
        0
 91
        1
 62
     0
 92
       -2
340
0
 93
        0
 40
1.125
309
GRIDFORMAT_END
 95
        4
302
GRIDFORMAT
  1
GRIDFORMAT_BEGIN
 90
        0
 91
        1
 62
     0
 92
       -2
340
0
 93
        0
 40
1.125
309
GRIDFORMAT_END
 95
        8
302
GRIDFORMAT
  1
GRIDFORMAT_BEGIN
 90
        0
 91
        1
 62
     0
 92
       -2
340
0
 93
        0
 40
1.125
309
GRIDFORMAT_END
 95
       16
302
GRIDFORMAT
  1
GRIDFORMAT_BEGIN
 90
        0
 91
        1
 62
     0
 92
       -2
340
0
 93
        0
 40
1.125
309
GRIDFORMAT_END
 95
       32
302
GRIDFORMAT
  1
GRIDFORMAT_BEGIN
 90
        0
 91
        1
 62
     0
 92
       -2
340
0
 93
        0
 40
1.125
309
GRIDFORMAT_END
309
TABLEFORMAT_END
  1
CELLSTYLE_BEGIN
 90
        2
 91
        1
300
_HEADER
309
CELLSTYLE_END
300
CELLSTYLE
  1
TABLEFORMAT_BEGIN
 90
        5
170
     1
 91
        0
 92
        0
 62
   257
 93
        1
300
CONTENTFORMAT
  1
CONTENTFORMAT_BEGIN
 90
        0
 91
        0
 92
      512
 93
        0
300

 40
0.0
140
1.0
 94
        2
 62
     0
340
5D
144
4.5
309
CONTENTFORMAT_END
171
     1
301
MARGIN
  1
CELLMARGIN_BEGIN
 40
1.5
 40
1.5
 40
1.5
 40
1.5
 40
0.18
 40
0.18
309
CELLMARGIN_END
 94
        6
 95
        1
302
GRIDFORMAT
  1
GRIDFORMAT_BEGIN
 90
        0
 91
        1
 62
     0
 92
       -2
340
0
 93
        0
 40
1.125
309
GRIDFORMAT_END
 95
        2
302
GRIDFORMAT
  1
GRIDFORMAT_BEGIN
 90
        0
 91
        1
 62
     0
 92
       -2
340
0
 93
        0
 40
1.125
309
GRIDFORMAT_END
 95
        4
302
GRIDFORMAT
  1
GRIDFORMAT_BEGIN
 90
        0
 91
        1
 62
     0
 92
       -2
340
0
 93
        0
 40
1.125
309
GRIDFORMAT_END
 95
        8
302
GRIDFORMAT
  1
GRIDFORMAT_BEGIN
 90
        0
 91
        1
 62
     0
 92
       -2
340
0
 93
        0
 40
1.125
309
GRIDFORMAT_END
 95
       16
302
GRIDFORMAT
  1
GRIDFORMAT_BEGIN
 90
        0
 91
        1
 62
     0
 92
       -2
340
0
 93
        0
 40
1.125
309
GRIDFORMAT_END
 95
       32
302
GRIDFORMAT
  1
GRIDFORMAT_BEGIN
 90
        0
 91
        1
 62
     0
 92
       -2
340
0
 93
        0
 40
1.125
309
GRIDFORMAT_END
309
TABLEFORMAT_END
  1
CELLSTYLE_BEGIN
 90
        3
 91
        2
300
_DATA
309
CELLSTYLE_END
  0
XRECORD
  5
12F3
102
{ACAD_REACTORS
330
161
102
}
330
161
100
AcDbXrecord
280
     1
102
ACAD_ROUNDTRIP_PRE2007_TABLESTYLE
 90
      512
 91
        0
  1

 92
      512
 93
        0
  2

 94
      512
 95
        0
  3

  0
ENDSEC
  0
EOF
