  0
SECTION
  2
HEADER
  9
$ACADVER
  1
AC1015
  9
$ACADMAINTVER
 70
    20
  9
$DWGCODEPAGE
  3
ANSI_932
  9
$INSBASE
 10
0.0
 20
0.0
 30
0.0
  9
$EXTMIN
 10
0.0000005962378964
 20
0.0000004583823738
 30
0.0
  9
$EXTMAX
 10
210.0000005962379
 20
297.0000004583824
 30
0.0
  9
$LIMMIN
 10
0.0
 20
0.0
  9
$LIMMAX
 10
210.0
 20
297.0
  9
$ORTHOMODE
 70
     1
  9
$REGENMODE
 70
     1
  9
$FILLMODE
 70
     1
  9
$QTEXTMODE
 70
     0
  9
$MIRRTEXT
 70
     0
  9
$LTSCALE
 40
1.0
  9
$ATTMODE
 70
     1
  9
$TEXTSIZE
 40
2.5
  9
$TRACEWID
 40
1.0
  9
$TEXTSTYLE
  7
STANDARD
  9
$CLAYER
  8
0
  9
$CELTYPE
  6
ByLayer
  9
$CECOLOR
 62
   256
  9
$CELTSCALE
 40
1.0
  9
$DISPSILH
 70
     0
  9
$DIMSCALE
 40
1.0
  9
$DIMASZ
 40
2.5
  9
$DIMEXO
 40
0.625
  9
$DIMDLI
 40
3.75
  9
$DIMRND
 40
0.0
  9
$DIMDLE
 40
0.0
  9
$DIMEXE
 40
1.25
  9
$DIMTP
 40
0.0
  9
$DIMTM
 40
0.0
  9
$DIMTXT
 40
2.5
  9
$DIMCEN
 40
2.5
  9
$DIMTSZ
 40
0.0
  9
$DIMTOL
 70
     0
  9
$DIMLIM
 70
     0
  9
$DIMTIH
 70
     0
  9
$DIMTOH
 70
     0
  9
$DIMSE1
 70
     0
  9
$DIMSE2
 70
     0
  9
$DIMTAD
 70
     1
  9
$DIMZIN
 70
     8
  9
$DIMBLK
  1

  9
$DIMASO
 70
     1
  9
$DIMSHO
 70
     1
  9
$DIMPOST
  1

  9
$DIMAPOST
  1

  9
$DIMALT
 70
     0
  9
$DIMALTD
 70
     3
  9
$DIMALTF
 40
0.03937007874016
  9
$DIMLFAC
 40
1.0
  9
$DIMTOFL
 70
     1
  9
$DIMTVP
 40
0.0
  9
$DIMTIX
 70
     0
  9
$DIMSOXD
 70
     0
  9
$DIMSAH
 70
     0
  9
$DIMBLK1
  1

  9
$DIMBLK2
  1

  9
$DIMSTYLE
  2
ISO-25
  9
$DIMCLRD
 70
     0
  9
$DIMCLRE
 70
     0
  9
$DIMCLRT
 70
     0
  9
$DIMTFAC
 40
1.0
  9
$DIMGAP
 40
0.625
  9
$DIMJUST
 70
     0
  9
$DIMSD1
 70
     0
  9
$DIMSD2
 70
     0
  9
$DIMTOLJ
 70
     0
  9
$DIMTZIN
 70
     8
  9
$DIMALTZ
 70
     0
  9
$DIMALTTZ
 70
     0
  9
$DIMUPT
 70
     0
  9
$DIMDEC
 70
     2
  9
$DIMTDEC
 70
     2
  9
$DIMALTU
 70
     2
  9
$DIMALTTD
 70
     3
  9
$DIMTXSTY
  7
STANDARD
  9
$DIMAUNIT
 70
     0
  9
$DIMADEC
 70
     0
  9
$DIMALTRND
 40
0.0
  9
$DIMAZIN
 70
     0
  9
$DIMDSEP
 70
    46
  9
$DIMATFIT
 70
     3
  9
$DIMFRAC
 70
     0
  9
$DIMLDRBLK
  1

  9
$DIMLUNIT
 70
     2
  9
$DIMLWD
 70
    -2
  9
$DIMLWE
 70
    -2
  9
$DIMTMOVE
 70
     0
  9
$LUNITS
 70
     2
  9
$LUPREC
 70
     2
  9
$SKETCHINC
 40
1.0
  9
$FILLETRAD
 40
2.5
  9
$AUNITS
 70
     0
  9
$AUPREC
 70
     0
  9
$MENU
  1
.
  9
$ELEVATION
 40
0.0
  9
$PELEVATION
 40
0.0
  9
$THICKNESS
 40
0.0
  9
$LIMCHECK
 70
     0
  9
$CHAMFERA
 40
2.5
  9
$CHAMFERB
 40
2.5
  9
$CHAMFERC
 40
0.0
  9
$CHAMFERD
 40
0.0
  9
$SKPOLY
 70
     0
  9
$TDCREATE
 40
2454313.581725069
  9
$TDUCREATE
 40
2454313.206725069
  9
$TDUPDATE
 40
2454550.763280706
  9
$TDUUPDATE
 40
2454550.388280706
  9
$TDINDWG
 40
0.0141823843
  9
$TDUSRTIMER
 40
0.0141821991
  9
$USRTIMER
 70
     1
  9
$ANGBASE
 50
0.0
  9
$ANGDIR
 70
     0
  9
$PDMODE
 70
     0
  9
$PDSIZE
 40
0.0
  9
$PLINEWID
 40
0.0
  9
$SPLFRAME
 70
     0
  9
$SPLINETYPE
 70
     6
  9
$SPLINESEGS
 70
     8
  9
$HANDSEED
  5
918
  9
$SURFTAB1
 70
     6
  9
$SURFTAB2
 70
     6
  9
$SURFTYPE
 70
     6
  9
$SURFU
 70
     6
  9
$SURFV
 70
     6
  9
$UCSBASE
  2

  9
$UCSNAME
  2

  9
$UCSORG
 10
0.0
 20
0.0
 30
0.0
  9
$UCSXDIR
 10
1.0
 20
0.0
 30
0.0
  9
$UCSYDIR
 10
0.0
 20
1.0
 30
0.0
  9
$UCSORTHOREF
  2

  9
$UCSORTHOVIEW
 70
     0
  9
$UCSORGTOP
 10
0.0
 20
0.0
 30
0.0
  9
$UCSORGBOTTOM
 10
0.0
 20
0.0
 30
0.0
  9
$UCSORGLEFT
 10
0.0
 20
0.0
 30
0.0
  9
$UCSORGRIGHT
 10
0.0
 20
0.0
 30
0.0
  9
$UCSORGFRONT
 10
0.0
 20
0.0
 30
0.0
  9
$UCSORGBACK
 10
0.0
 20
0.0
 30
0.0
  9
$PUCSBASE
  2

  9
$PUCSNAME
  2

  9
$PUCSORG
 10
0.0
 20
0.0
 30
0.0
  9
$PUCSXDIR
 10
1.0
 20
0.0
 30
0.0
  9
$PUCSYDIR
 10
0.0
 20
1.0
 30
0.0
  9
$PUCSORTHOREF
  2

  9
$PUCSORTHOVIEW
 70
     0
  9
$PUCSORGTOP
 10
0.0
 20
0.0
 30
0.0
  9
$PUCSORGBOTTOM
 10
0.0
 20
0.0
 30
0.0
  9
$PUCSORGLEFT
 10
0.0
 20
0.0
 30
0.0
  9
$PUCSORGRIGHT
 10
0.0
 20
0.0
 30
0.0
  9
$PUCSORGFRONT
 10
0.0
 20
0.0
 30
0.0
  9
$PUCSORGBACK
 10
0.0
 20
0.0
 30
0.0
  9
$USERI1
 70
     0
  9
$USERI2
 70
     0
  9
$USERI3
 70
     0
  9
$USERI4
 70
     0
  9
$USERI5
 70
     0
  9
$USERR1
 40
0.0
  9
$USERR2
 40
0.0
  9
$USERR3
 40
0.0
  9
$USERR4
 40
0.0
  9
$USERR5
 40
0.0
  9
$WORLDVIEW
 70
     1
  9
$SHADEDGE
 70
     3
  9
$SHADEDIF
 70
    70
  9
$TILEMODE
 70
     1
  9
$MAXACTVP
 70
    64
  9
$PINSBASE
 10
0.0
 20
0.0
 30
0.0
  9
$PLIMCHECK
 70
     0
  9
$PEXTMIN
 10
1.000000000000000E+20
 20
1.000000000000000E+20
 30
1.000000000000000E+20
  9
$PEXTMAX
 10
-1.000000000000000E+20
 20
-1.000000000000000E+20
 30
-1.000000000000000E+20
  9
$PLIMMIN
 10
0.0
 20
0.0
  9
$PLIMMAX
 10
420.0
 20
297.0
  9
$UNITMODE
 70
     0
  9
$VISRETAIN
 70
     1
  9
$PLINEGEN
 70
     0
  9
$PSLTSCALE
 70
     1
  9
$TREEDEPTH
 70
  3020
  9
$CMLSTYLE
  2
Standard
  9
$CMLJUST
 70
     0
  9
$CMLSCALE
 40
20.0
  9
$PROXYGRAPHICS
 70
     1
  9
$MEASUREMENT
 70
     1
  9
$CELWEIGHT
370
    -1
  9
$ENDCAPS
280
     0
  9
$JOINSTYLE
280
     0
  9
$LWDISPLAY
290
     0
  9
$INSUNITS
 70
     4
  9
$HYPERLINKBASE
  1

  9
$STYLESHEET
  1
MONOCHROME.CTB
  9
$XEDIT
290
     1
  9
$CEPSNTYPE
380
     0
  9
$PSTYLEMODE
290
     1
  9
$FINGERPRINTGUID
  2
{AD501973-C1A7-47D2-B6FF-3A238122188F}
  9
$VERSIONGUID
  2
{18C2345F-108D-487C-BA59-1B18BFA030E0}
  9
$EXTNAMES
290
     1
  9
$PSVPSCALE
 40
0.0
  9
$OLESTARTUP
290
     0
  0
ENDSEC
  0
SECTION
  2
CLASSES
  0
CLASS
  1
ACDBDICTIONARYWDFLT
  2
AcDbDictionaryWithDefault
  3
ObjectDBX Classes
 90
        0
280
     0
281
     0
  0
CLASS
  1
MATERIAL
  2
AcDbMaterial
  3
ObjectDBX Classes
 90
     1153
280
     0
281
     0
  0
CLASS
  1
VISUALSTYLE
  2
AcDbVisualStyle
  3
ObjectDBX Classes
 90
     4095
280
     0
281
     0
  0
CLASS
  1
SCALE
  2
AcDbScale
  3
ObjectDBX Classes
 90
     1153
280
     0
281
     0
  0
CLASS
  1
TABLESTYLE
  2
AcDbTableStyle
  3
ObjectDBX Classes
 90
     4095
280
     0
281
     0
  0
CLASS
  1
MLEADERSTYLE
  2
AcDbMLeaderStyle
  3
ACDB_MLEADERSTYLE_CLASS
 90
     4095
280
     0
281
     0
  0
CLASS
  1
AMGSETTINGSOBJ
  2
AmgSettingsObj
  3
"AcadM|Product Description: AutoCAD Mechanical|Company: Autodesk, Inc."
 90
     1024
280
     0
281
     0
  0
CLASS
  1
ACME_DOCUMENT
  2
AcMeDbDoc
  3
AcMeServices
 90
     1024
280
     0
281
     0
  0
CLASS
  1
ACMESCOPE
  2
AcMeScope
  3
AcMeServices
 90
     1024
280
     0
281
     0
  0
CLASS
  1
ACMECOMMANDHISTORY
  2
AcMeCommandHistory
  3
AcMeServices
 90
     1024
280
     0
281
     0
  0
CLASS
  1
ACIMSYSVARMAN
  2
AcImSysVarManager
  3
AcMeServices
 90
     1024
280
     0
281
     0
  0
CLASS
  1
ACIMINTSYSVAR
  2
AcImIntSysVar
  3
AcMeServices
 90
     1024
280
     0
281
     0
  0
CLASS
  1
ACMEDRAWINGMAN
  2
AcMeDrawingMan
  3
AcMeServices
 90
     1024
280
     0
281
     0
  0
CLASS
  1
ACMEVIEW
  2
AcMeView
  3
AcMeServices
 90
     1024
280
     0
281
     0
  0
CLASS
  1
ACDBENTITYCACHE
  2
AcMeEntityCache
  3
AcMeServices
 90
     1024
280
     0
281
     0
  0
CLASS
  1
GSMANAGER
  2
AcMeGSManager
  3
AcMeServices
 90
     1024
280
     0
281
     0
  0
CLASS
  1
AMDTINTERNALREACTOR
  2
AmdtInternalReactor
  3
AcMeServices
 90
     1024
280
     0
281
     0
  0
CLASS
  1
ACMESTATEMGR
  2
AcMeStateMgr
  3
AcMeServices
 90
     1024
280
     0
281
     0
  0
CLASS
  1
ACGREFMASTER
  2
AcGrefMaster
  3
AcAttribServices
 90
     1024
280
     0
281
     0
  0
CLASS
  1
AM_DRAWING_MGR
  2
AcDmDwgMgr
  3
AcMechDwgViewMgmt
 90
     1024
280
     0
281
     0
  0
CLASS
  1
AM_DWG_DOCUMENT
  2
AcDmDwgDocument
  3
AcMechDwgViewMgmt
 90
     1024
280
     0
281
     0
  0
CLASS
  1
AM_DWG_SHEET
  2
AcDmSheet
  3
AcMechDwgViewMgmt
 90
     1024
280
     0
281
     0
  0
CLASS
  1
AM_VIEWDIMPARMAP
  2
AcDmViewDimParMap
  3
AcMechDwgViewMgmt
 90
     1024
280
     0
281
     0
  0
CLASS
  1
ACIMREALSYSVAR
  2
AcImRealSysVar
  3
AcMeServices
 90
     1024
280
     0
281
     0
  0
CLASS
  1
AM_DWGMGR_NAME
  2
AcDmDwgMgrName
  3
AcMechDwgViewMgmt
 90
     1024
280
     0
281
     0
  0
CLASS
  1
ACME_DATABASE
  2
AcMeDbDatabase
  3
AcMeServices
 90
     1024
280
     0
281
     0
  0
CLASS
  1
ACRFINSADJUSTERMGR
  2
AcRfInsAdjusterMgr
  3
AcMeServices
 90
     1024
280
     0
281
     0
  0
CLASS
  1
ACGREFACADMASTER
  2
AcGrefacadMaster
  3
AcGrefServices
 90
     1024
280
     0
281
     0
  0
CLASS
  1
AMDTMENUSTATEMGR
  2
AmdtMenuStateMgr
  3
McadcomServices
 90
     1024
280
     0
281
     0
  0
CLASS
  1
AMDTMCOMMENUSTATE
  2
AmdtMcomMenuState
  3
McadcomServices
 90
     1024
280
     0
281
     0
  0
CLASS
  1
AMIMASTER
  2
AmiMaster
  3
AmiServices
 90
     1024
280
     0
281
     0
  0
CLASS
  1
MAPIAMMOUDLE
  2
MApiAmModule
  3
MApiAmServices
 90
     1024
280
     0
281
     0
  0
CLASS
  1
ACIMSTRSYSVAR
  2
AcImStrSysVar
  3
AcMeServices
 90
     1024
280
     0
281
     0
  0
CLASS
  1
AMDTADMENUSTATE
  2
AmdtAdMenuState
  3
DesignerServices
 90
     1024
280
     0
281
     0
  0
CLASS
  1
ADAPPL
  2
AcAdAppl
  3
DesignerServices
 90
     1024
280
     0
281
     0
  0
CLASS
  1
DEPMGR
  2
AcAdDepMgr
  3
DesignerServices
 90
     1024
280
     0
281
     0
  0
CLASS
  1
PARAMMGR
  2
AcAdParamMgr
  3
DesignerServices
 90
     1024
280
     0
281
     0
  0
CLASS
  1
PARAMSCOPE
  2
AcAdParamScope
  3
DesignerServices
 90
     1024
280
     0
281
     0
  0
CLASS
  1
NAMEDAPPL
  2
AcAdNamedAppl
  3
DesignerServices
 90
     1024
280
     0
281
     0
  0
CLASS
  1
AMDTDMMENUSTATE
  2
AmdtDmMenuState
  3
AcMechDwgViewMgmt
 90
     1024
280
     0
281
     0
  0
CLASS
  1
AMDTAMMENUSTATE
  2
AmdtAmMenuState
  3
DesignerAssemblies
 90
     1024
280
     0
281
     0
  0
CLASS
  1
ACAMPROJECT
  2
AcAmProject
  3
DesignerAssemblies
 90
     1024
280
     0
281
     0
  0
CLASS
  1
ACAMGRCOMPDEF
  2
AcAmGrCompDef
  3
DesignerAssemblies
 90
     1024
280
     0
281
     0
  0
CLASS
  1
ACCMCONTEXT
  2
AcCmContext
  3
DesignerAssemblies
 90
     1024
280
     0
281
     0
  0
CLASS
  1
ACAMCOMPDEF
  2
AcAmCompDef
  3
DesignerAssemblies
 90
     1024
280
     0
281
     0
  0
CLASS
  1
ACAMCOMPDEFMGR
  2
AcAmCompDefMgr
  3
DesignerAssemblies
 90
     1024
280
     0
281
     0
  0
CLASS
  1
AMCONTEXTMGR
  2
AcAmContextMgr
  3
DesignerAssemblies
 90
     1024
280
     0
281
     0
  0
CLASS
  1
ACAMCONTEXTMODELER
  2
AcAmContextModeler
  3
DesignerAssemblies
 90
     1024
280
     0
281
     0
  0
CLASS
  1
ACMDATADICTIONARY
  2
AcmDataDictionary
  3
"AcmSymBB|Product Description: AutoCAD Mechanical|Company: Autodesk, Inc."
 90
     1024
280
     0
281
     0
  0
CLASS
  1
ACMSTANDARDISO
  2
AcmStandardISO
  3
"Amdt_StdImp|Product Description: AutoCAD Mechanical|Company: Autodesk, Inc."
 90
     1024
280
     0
281
     0
  0
CLASS
  1
AMGOBJPROPCFG
  2
AmgObjPropCfg
  3
"AmgLay|Product Description: AutoCAD Mechanical|Company: Autodesk, Inc."
 90
     1025
280
     0
281
     0
  0
CLASS
  1
AMDTEDGESTANDARDISO13715
  2
AmdtEdgeStdISO13715
  3
"Amdt_StdImp|Product Description: AutoCAD Mechanical|Company: Autodesk, Inc."
 90
     1024
280
     0
281
     0
  0
CLASS
  1
ACMSURFSTANDARDISO2002
  2
AcmSurfTextStdISO2002
  3
"Amdt_StdImp|Product Description: AutoCAD Mechanical|Company: Autodesk, Inc."
 90
     1024
280
     0
281
     0
  0
CLASS
  1
ACMFCFSTANDARDISO
  2
AcmFCFStdISO
  3
"Amdt_StdImp|Product Description: AutoCAD Mechanical|Company: Autodesk, Inc."
 90
     1024
280
     0
281
     0
  0
CLASS
  1
ACMWELDSTANDARDISO
  2
AcmWeldingStdISO
  3
"Amdt_StdImp|Product Description: AutoCAD Mechanical|Company: Autodesk, Inc."
 90
     1024
280
     0
281
     0
  0
CLASS
  1
ACMIDSTANDARDISO
  2
AcmIdStdISO
  3
"Amdt_StdImp|Product Description: AutoCAD Mechanical|Company: Autodesk, Inc."
 90
     1024
280
     0
281
     0
  0
CLASS
  1
ACMDATUMSTANDARDISO
  2
AcmDatumStdISO
  3
"Amdt_StdImp|Product Description: AutoCAD Mechanical|Company: Autodesk, Inc."
 90
     1024
280
     0
281
     0
  0
CLASS
  1
ACMBOMSTANDARDISO
  2
AcmBOMStdISO
  3
"Amdt_StdImp|Product Description: AutoCAD Mechanical|Company: Autodesk, Inc."
 90
     1024
280
     0
281
     0
  0
CLASS
  1
ACMDETAILSTANDARDISO
  2
AmdtDetailSymStdISO
  3
"Amdt_StdImp|Product Description: AutoCAD Mechanical|Company: Autodesk, Inc."
 90
     1024
280
     0
281
     0
  0
CLASS
  1
ACMSECTIONSTANDARDISO2001
  2
AmdtSectionSymStdISO2001
  3
"Amdt_StdImp|Product Description: AutoCAD Mechanical|Company: Autodesk, Inc."
 90
     1024
280
     0
281
     0
  0
CLASS
  1
ACMCENTERLINESTANDARDISO
  2
AmdtCenterLineStdISO
  3
"Amdt_StdImp|Product Description: AutoCAD Mechanical|Company: Autodesk, Inc."
 90
     1024
280
     0
281
     0
  0
CLASS
  1
ACMTHREADLINESTANDARDISO
  2
AmdtThreadLineStdISO
  3
"Amdt_StdImp|Product Description: AutoCAD Mechanical|Company: Autodesk, Inc."
 90
     1024
280
     0
281
     0
  0
CLASS
  1
ACMNOTESTANDARDISO
  2
AmdtNoteStdISO
  3
"Amdt_StdImp|Product Description: AutoCAD Mechanical|Company: Autodesk, Inc."
 90
     1024
280
     0
281
     0
  0
CLASS
  1
ACMTAPERSTANDARDISO
  2
AcmTaperStdISO
  3
"Amdt_StdImp|Product Description: AutoCAD Mechanical|Company: Autodesk, Inc."
 90
     1024
280
     0
281
     0
  0
CLASS
  1
ACMANOOTATIONVIEWSTANDARDISO
  2
AmdtAnViewStdISO
  3
"Amdt_StdImp|Product Description: AutoCAD Mechanical|Company: Autodesk, Inc."
 90
     1024
280
     0
281
     0
  0
CLASS
  1
AMDTNOTETEMPLATEDB
  2
AmdtNoteTemplateDB
  3
AcmSymBB|Product Description: AutoCAD Mechanical|Company: Autodesk, Inc.
 90
     1024
280
     0
281
     0
  0
CLASS
  1
ACAMGLAYSTD
  2
AcAmgLayStd
  3
"AmgLay|Product Description: AutoCAD Mechanical|Company: Autodesk, Inc."
 90
     1024
280
     0
281
     0
  0
CLASS
  1
ACAMGDIMSTD
  2
AcAmgDimStd
  3
"AmgDim|Product Description: AutoCAD Mechanical|Company: Autodesk, Inc."
 90
     1024
280
     0
281
     0
  0
CLASS
  1
ACAMGHOLECHARTSTDISO
  2
AcAmgHoleChartStdISO
  3
AmgDim|Product Description: AutoCAD Mechanical|Company: Autodesk, Inc.
 90
     1024
280
     0
281
     0
  0
CLASS
  1
ACAMGTITLESTD
  2
AcAmgTitleStd
  3
"AmgTitle|Product Description: AutoCAD Mechanical|Company: Autodesk, Inc."
 90
     4095
280
     0
281
     0
  0
CLASS
  1
CATALOGSTATE
  2
AcAmCatalogState
  3
DesignerAssemblies
 90
     1024
280
     0
281
     0
  0
CLASS
  1
ACAMGRCOMPDEFSET
  2
AcAmGrCompDefSet
  3
DesignerAssemblies
 90
     1024
280
     0
281
     0
  0
CLASS
  1
AMDTBROWSERDBTAB
  2
AmdtBrowserDbTab
  3
McadcomServices
 90
     1024
280
     0
281
     0
  0
CLASS
  1
CBROWSERAPPOBJECT
  2
CBrowserAppObject
  3
McadcomServices
 90
     1024
280
     0
281
     0
  0
CLASS
  1
DM_PLACEHOLDER
  2
AcDmSelsetPlaceholder
  3
AcMechDwgViewMgmt
 90
     1024
280
     0
281
     0
  0
CLASS
  1
SORTENTSTABLE
  2
AcDbSortentsTable
  3
ObjectDBX Classes
 90
    32768
280
     0
281
     0
  0
CLASS
  1
ACMDATAENTRYBLOCK
  2
AcmDataEntryBlock
  3
AcmSymBB|Product Description: AutoCAD Mechanical|Company: Autodesk, Inc.
 90
    33792
280
     0
281
     0
  0
CLASS
  1
ACAMGFILTERDAT
  2
AcAmgFilterDat
  3
"AcadM|Product Description: AutoCAD Mechanical|Company: Autodesk, Inc."
 90
    33792
280
     0
281
     0
  0
CLASS
  1
CAMSSTRUCTBTNSTATE
  2
StructBtnState
  3
DesignerAssemblies
 90
    33792
280
     0
281
     0
  0
CLASS
  1
CELLSTYLEMAP
  2
AcDbCellStyleMap
  3
ObjectDBX Classes
 90
     1152
280
     0
281
     0
  0
CLASS
  1
DICTIONARYVAR
  2
AcDbDictionaryVar
  3
ObjectDBX Classes
 90
        0
280
     0
281
     0
  0
CLASS
  1
ACMSTANDARDANSI
  2
AcmStandardANSI
  3
"Amdt_StdImp|Product Description: AutoCAD Mechanical|Company: Autodesk, Inc."
 90
    33792
280
     0
281
     0
  0
CLASS
  1
ACMSURFSTANDARDANSI
  2
AcmSurfTextStdANSI
  3
"Amdt_StdImp|Product Description: AutoCAD Mechanical|Company: Autodesk, Inc."
 90
    33792
280
     0
281
     0
  0
CLASS
  1
ACMFCFSTANDARDANSI
  2
AcmFCFStdANSI
  3
"Amdt_StdImp|Product Description: AutoCAD Mechanical|Company: Autodesk, Inc."
 90
    33792
280
     0
281
     0
  0
CLASS
  1
ACMWELDSTANDARDANSI
  2
AcmWeldingStdANSI
  3
"Amdt_StdImp|Product Description: AutoCAD Mechanical|Company: Autodesk, Inc."
 90
    33792
280
     0
281
     0
  0
CLASS
  1
ACMIDSTANDARDANSI
  2
AcmIdStdANSI
  3
"Amdt_StdImp|Product Description: AutoCAD Mechanical|Company: Autodesk, Inc."
 90
    33792
280
     0
281
     0
  0
CLASS
  1
ACMDATUMSTANDARDANSI
  2
AcmDatumStdANSI
  3
"Amdt_StdImp|Product Description: AutoCAD Mechanical|Company: Autodesk, Inc."
 90
    33792
280
     0
281
     0
  0
CLASS
  1
ACMBOMSTANDARDANSI
  2
AcmBOMStdANSI
  3
"Amdt_StdImp|Product Description: AutoCAD Mechanical|Company: Autodesk, Inc."
 90
    33792
280
     0
281
     0
  0
CLASS
  1
ACMDETAILSTANDARDANSI
  2
AmdtDetailSymStdANSI
  3
"Amdt_StdImp|Product Description: AutoCAD Mechanical|Company: Autodesk, Inc."
 90
    33792
280
     0
281
     0
  0
CLASS
  1
ACMSECTIONSTANDARDANSI
  2
AmdtSectionSymStdANSI
  3
"Amdt_StdImp|Product Description: AutoCAD Mechanical|Company: Autodesk, Inc."
 90
    33792
280
     0
281
     0
  0
CLASS
  1
ACMCENTERLINESTANDARDANSI
  2
AmdtCenterLineStdANSI
  3
"Amdt_StdImp|Product Description: AutoCAD Mechanical|Company: Autodesk, Inc."
 90
    33792
280
     0
281
     0
  0
CLASS
  1
ACMTHREADLINESTANDARDANSI
  2
AmdtThreadLineStdANSI
  3
"Amdt_StdImp|Product Description: AutoCAD Mechanical|Company: Autodesk, Inc."
 90
    33792
280
     0
281
     0
  0
CLASS
  1
ACMNOTESTANDARDANSI
  2
AmdtNoteStdANSI
  3
"Amdt_StdImp|Product Description: AutoCAD Mechanical|Company: Autodesk, Inc."
 90
    33792
280
     0
281
     0
  0
CLASS
  1
ACMTAPERSTANDARDANSI
  2
AcmTaperStdANSI
  3
"Amdt_StdImp|Product Description: AutoCAD Mechanical|Company: Autodesk, Inc."
 90
    33792
280
     0
281
     0
  0
CLASS
  1
ACMANOOTATIONVIEWSTANDARDANSI
  2
AmdtAnViewStdANSI
  3
"Amdt_StdImp|Product Description: AutoCAD Mechanical|Company: Autodesk, Inc."
 90
    33792
280
     0
281
     0
  0
CLASS
  1
ACAMGHOLECHARTSTDANSI
  2
AcAmgHoleChartStdANSI
  3
AmgDim|Product Description: AutoCAD Mechanical|Company: Autodesk, Inc.
 90
    33792
280
     0
281
     0
  0
CLASS
  1
ACDBPLACEHOLDER
  2
AcDbPlaceHolder
  3
ObjectDBX Classes
 90
        0
280
     0
281
     0
  0
CLASS
  1
LAYOUT
  2
AcDbLayout
  3
ObjectDBX Classes
 90
        0
280
     0
281
     0
  0
ENDSEC
  0
SECTION
  2
TABLES
  0
TABLE
  2
VPORT
  5
8
330
0
100
AcDbSymbolTable
 70
     1
  0
VPORT
  5
5F
330
8
100
AcDbSymbolTableRecord
100
AcDbViewportTableRecord
  2
*Active
 70
     0
 10
0.0
 20
0.0
 11
1.0
 21
1.0
 12
128.0321721690792
 22
149.0565332514193
 13
0.0
 23
0.0
 14
2.5
 24
2.5
 15
10.0
 25
10.0
 16
0.0
 26
0.0
 36
1.0
 17
0.0
 27
0.0
 37
0.0
 40
313.2884871957496
 41
1.351174934725848
 42
50.0
 43
0.0
 44
0.0
 50
0.0
 51
0.0
 71
     0
 72
  1000
 73
     1
 74
     3
 75
     0
 76
     0
 77
     0
 78
     0
281
     0
 65
     0
110
0.0
120
0.0
130
0.0
111
1.0
121
0.0
131
0.0
112
0.0
122
1.0
132
0.0
 79
     0
146
0.0
  0
ENDTAB
  0
TABLE
  2
LTYPE
  5
5
330
0
100
AcDbSymbolTable
 70
    13
  0
LTYPE
  5
63
330
5
100
AcDbSymbolTableRecord
100
AcDbLinetypeTableRecord
  2
ByBlock
 70
     0
  3

 72
    65
 73
     0
 40
0.0
  0
LTYPE
  5
64
330
5
100
AcDbSymbolTableRecord
100
AcDbLinetypeTableRecord
  2
ByLayer
 70
     0
  3

 72
    65
 73
     0
 40
0.0
  0
LTYPE
  5
65
330
5
100
AcDbSymbolTableRecord
100
AcDbLinetypeTableRecord
  2
Continuous
 70
     0
  3
Solid line
 72
    65
 73
     0
 40
0.0
  0
LTYPE
  5
B3
330
5
100
AcDbSymbolTableRecord
100
AcDbLinetypeTableRecord
  2
HIDDEN
 70
     0
  3
Hidden __ __ __ __ __ __ __ __ __ __ __ __ __ _
 72
    65
 73
     2
 40
9.524999999999996
 49
6.349999999999997
 74
     0
 49
-3.174999999999998
 74
     0
  0
LTYPE
  5
B4
330
5
100
AcDbSymbolTableRecord
100
AcDbLinetypeTableRecord
  2
PHANTOM2
 70
     0
  3
Phantom (.5x) ___ _ _ ___ _ _ ___ _ _ ___ _ _
 72
    65
 73
     6
 40
31.75
 49
15.875
 74
     0
 49
-3.174999999999998
 74
     0
 49
3.174999999999998
 74
     0
 49
-3.174999999999998
 74
     0
 49
3.174999999999998
 74
     0
 49
-3.174999999999998
 74
     0
  0
LTYPE
  5
B5
330
5
100
AcDbSymbolTableRecord
100
AcDbLinetypeTableRecord
  2
CENTER
 70
     0
  3
Center ____ _ ____ _ ____ _ ____ _ ____ _ ____
 72
    65
 73
     4
 40
50.8
 49
31.75
 74
     0
 49
-6.349999999999997
 74
     0
 49
6.349999999999997
 74
     0
 49
-6.349999999999997
 74
     0
  0
LTYPE
  5
F1
330
5
100
AcDbSymbolTableRecord
100
AcDbLinetypeTableRecord
  2
ACISOWELD
 70
     0
  3
_ _ _ _ _
 72
    65
 73
     2
 40
2.0
 49
2.0
 74
     0
 49
-1.0
 74
     0
  0
LTYPE
  5
F2
330
5
100
AcDbSymbolTableRecord
100
AcDbLinetypeTableRecord
  2
ACISOTGB
 70
     0
  3
__ . . __ . .
 72
    65
 73
     6
 40
9.0
 49
4.0
 74
     0
 49
-1.0
 74
     0
 49
1.0
 74
     0
 49
-1.0
 74
     0
 49
1.0
 74
     0
 49
-1.0
 74
     0
  0
LTYPE
  5
F3
330
5
100
AcDbSymbolTableRecord
100
AcDbLinetypeTableRecord
  2
ACISOTGL
 70
     0
  3
_ _ _ _ _
 72
    65
 73
     2
 40
3.0
 49
2.0
 74
     0
 49
-1.0
 74
     0
  0
LTYPE
  5
185
330
5
100
AcDbSymbolTableRecord
100
AcDbLinetypeTableRecord
  2
CENTER2
 70
     0
  3
Center (.5x) ___ _ ___ _ ___ _ ___ _ ___ _ ___
 72
    65
 73
     4
 40
1.125
 49
0.75
 74
     0
 49
-0.125
 74
     0
 49
0.125
 74
     0
 49
-0.125
 74
     0
  0
LTYPE
  5
186
330
5
100
AcDbSymbolTableRecord
100
AcDbLinetypeTableRecord
  2
HIDDEN2
 70
     0
  3
Hidden (.5x) _ _ _ _ _ _ _ _ _ _ _ _ _ _ _ _ _
 72
    65
 73
     2
 40
0.1875
 49
0.125
 74
     0
 49
-0.0625
 74
     0
  0
LTYPE
  5
187
330
5
100
AcDbSymbolTableRecord
100
AcDbLinetypeTableRecord
  2
ACANSTGBM
 70
     0
  3
__ . . __ . .
 72
    65
 73
     6
 40
9.0
 49
4.0
 74
     0
 49
-1.0
 74
     0
 49
1.0
 74
     0
 49
-1.0
 74
     0
 49
1.0
 74
     0
 49
-1.0
 74
     0
  0
LTYPE
  5
188
330
5
100
AcDbSymbolTableRecord
100
AcDbLinetypeTableRecord
  2
ACANSTGLM
 70
     0
  3
_ _ _ _ _
 72
    65
 73
     2
 40
3.0
 49
2.0
 74
     0
 49
-1.0
 74
     0
  0
LTYPE
  5
5DE
330
5
100
AcDbSymbolTableRecord
100
AcDbLinetypeTableRecord
  2
ACANSTGB
 70
     0
  3
__ . . __ . .
 72
    65
 73
     6
 40
0.35433070866
 49
0.15748031496
 74
     0
 49
-0.03937007874
 74
     0
 49
0.03937007874
 74
     0
 49
-0.03937007874
 74
     0
 49
0.03937007874
 74
     0
 49
-0.03937007874
 74
     0
  0
LTYPE
  5
5DF
330
5
100
AcDbSymbolTableRecord
100
AcDbLinetypeTableRecord
  2
ACANSTGL
 70
     0
  3
_ _ _ _ _
 72
    65
 73
     2
 40
0.11811023622
 49
0.07874015748
 74
     0
 49
-0.03937007874
 74
     0
  0
ENDTAB
  0
TABLE
  2
LAYER
  5
2
102
{ACAD_XDICTIONARY
360
12A
102
}
330
0
100
AcDbSymbolTable
 70
     8
  0
LAYER
  5
5C
102
{ACAD_XDICTIONARY
360
158
102
}
330
2
100
AcDbSymbolTableRecord
100
AcDbLayerTableRecord
  2
0
 70
     0
 62
     7
  6
Continuous
370
    -3
390
F
  0
LAYER
  5
119
102
{ACAD_XDICTIONARY
360
11A
102
}
330
2
100
AcDbSymbolTableRecord
100
AcDbLayerTableRecord
  2
外形線
 70
     0
 62
     7
  6
Continuous
370
    40
390
F
  0
LAYER
  5
11B
102
{ACAD_XDICTIONARY
360
11C
102
}
330
2
100
AcDbSymbolTableRecord
100
AcDbLayerTableRecord
  2
枠
 70
     0
 62
   130
  6
CENTER
370
    50
390
F
1001
AcAecLayerStandard
1000

1000

  0
LAYER
  5
11D
102
{ACAD_XDICTIONARY
360
15C
102
}
330
2
100
AcDbSymbolTableRecord
100
AcDbLayerTableRecord
  2
レイヤー_1_0
 70
     0
 62
   160
  6
Continuous
370
    -3
390
F
  0
LAYER
  5
189
330
2
100
AcDbSymbolTableRecord
100
AcDbLayerTableRecord
  2
AM_0
 70
     0
 62
     7
  6
Continuous
370
    50
390
F
1001
AcAecLayerStandard
1000

1000

  0
LAYER
  5
1B8
330
2
100
AcDbSymbolTableRecord
100
AcDbLayerTableRecord
  2
AM_5
 70
     0
 62
     3
  6
Continuous
370
    25
390
F
1001
AcAecLayerStandard
1000

1000

  0
LAYER
  5
5E0
330
2
100
AcDbSymbolTableRecord
100
AcDbLayerTableRecord
  2
レイヤー_1
 70
     0
 62
   160
  6
Continuous
370
    -3
390
F
  0
LAYER
  5
73A
330
2
100
AcDbSymbolTableRecord
100
AcDbLayerTableRecord
  2
Defpoints
 70
     0
 62
     7
  6
Continuous
290
     0
370
    -3
390
F
  0
ENDTAB
  0
TABLE
  2
STYLE
  5
3
330
0
100
AcDbSymbolTable
 70
    10
  0
STYLE
  5
5D
330
3
100
AcDbSymbolTableRecord
100
AcDbTextStyleTableRecord
  2
STANDARD
 70
     0
 40
0.0
 41
0.8
 50
0.0
 71
     0
 42
2.5
  3
romans.shx
  4
bigfont.shx
  0
STYLE
  5
62
330
3
100
AcDbSymbolTableRecord
100
AcDbTextStyleTableRecord
  2
Annotative
 70
     0
 40
0.0
 41
1.0
 50
0.0
 71
     0
 42
0.2
  3

  4

1001
AcadAnnotative
1000
AnnotativeData
1002
{
1070
     1
1070
     1
1002
}
  0
STYLE
  5
E1
330
3
100
AcDbSymbolTableRecord
100
AcDbTextStyleTableRecord
  2
ACISOTS
 70
     0
 40
1.0
 41
1.0
 50
0.0
 71
     0
 42
2.5
  3
isocp.shx
  4
extfont.shx
  0
STYLE
  5
F0
330
3
100
AcDbSymbolTableRecord
100
AcDbTextStyleTableRecord
  2
ACISOGDT
 70
     0
 40
0.0
 41
1.0
 50
0.0
 71
     0
 42
2.5
  3
amgdt.shx
  4

  0
STYLE
  5
115
330
3
100
AcDbSymbolTableRecord
100
AcDbTextStyleTableRecord
  2
USER1
 70
     0
 40
0.0
 41
1.0
 50
0.0
 71
     0
 42
2.5
  3
TXT.SHX
  4

  0
STYLE
  5
116
330
3
100
AcDbSymbolTableRecord
100
AcDbTextStyleTableRecord
  2
USER2
 70
     0
 40
0.0
 41
1.0
 50
0.0
 71
     0
 42
2.5
  3
SIMPLEX.SHX
  4

  0
STYLE
  5
117
330
3
100
AcDbSymbolTableRecord
100
AcDbTextStyleTableRecord
  2
USER3
 70
     0
 40
0.0
 41
1.0
 50
0.0
 71
     0
 42
2.5
  3
ITALIC.SHX
  4

  0
STYLE
  5
11E
330
3
100
AcDbSymbolTableRecord
100
AcDbTextStyleTableRecord
  2
KANJISTD
 70
     0
 40
0.0
 41
1.0
 50
0.0
 71
     0
 42
0.0
  3
txt
  4
extfont
  0
STYLE
  5
18A
330
3
100
AcDbSymbolTableRecord
100
AcDbTextStyleTableRecord
  2
ACANSTS
 70
     0
 40
1.0
 41
1.0
 50
0.0
 71
     0
 42
0.2
  3
romans.shx
  4
extfont.shx
  0
STYLE
  5
18B
330
3
100
AcDbSymbolTableRecord
100
AcDbTextStyleTableRecord
  2
ACANSGDT
 70
     0
 40
0.0
 41
1.0
 50
0.0
 71
     0
 42
0.2
  3
amgdt.shx
  4

  0
ENDTAB
  0
TABLE
  2
VIEW
  5
6
330
0
100
AcDbSymbolTable
 70
     0
  0
ENDTAB
  0
TABLE
  2
UCS
  5
7
330
0
100
AcDbSymbolTable
 70
     0
  0
ENDTAB
  0
TABLE
  2
APPID
  5
9
330
0
100
AcDbSymbolTable
 70
    24
  0
APPID
  5
5E
330
9
100
AcDbSymbolTableRecord
100
AcDbRegAppTableRecord
  2
ACAD
 70
     0
  0
APPID
  5
66
330
9
100
AcDbSymbolTableRecord
100
AcDbRegAppTableRecord
  2
AcadAnnotative
 70
     0
  0
APPID
  5
70
330
9
100
AcDbSymbolTableRecord
100
AcDbRegAppTableRecord
  2
ACAD_MLEADERVER
 70
     0
  0
APPID
  5
84
330
9
100
AcDbSymbolTableRecord
100
AcDbRegAppTableRecord
  2
MCAD_NO_VIS
 70
     0
  0
APPID
  5
85
330
9
100
AcDbSymbolTableRecord
100
AcDbRegAppTableRecord
  2
ACAD_TEMP_GRAPHIC
 70
     0
  0
APPID
  5
B7
330
9
100
AcDbSymbolTableRecord
100
AcDbRegAppTableRecord
  2
AD_DRAW
 70
     0
  0
APPID
  5
BA
330
9
100
AcDbSymbolTableRecord
100
AcDbRegAppTableRecord
  2
ACATTRIBSERVICES
 70
     0
  0
APPID
  5
DB
330
9
100
AcDbSymbolTableRecord
100
AcDbRegAppTableRecord
  2
DESIGNERASSEMBLIES
 70
     0
  0
APPID
  5
10F
330
9
100
AcDbSymbolTableRecord
100
AcDbRegAppTableRecord
  2
ACADM_DIM_EDIT
 70
     0
  0
APPID
  5
110
330
9
100
AcDbSymbolTableRecord
100
AcDbRegAppTableRecord
  2
AMDT_DM_ADJ
 70
     0
  0
APPID
  5
121
330
9
100
AcDbSymbolTableRecord
100
AcDbRegAppTableRecord
  2
ACAD_PSEXT
 70
     0
  0
APPID
  5
122
330
9
100
AcDbSymbolTableRecord
100
AcDbRegAppTableRecord
  2
AcAecLayerStandard
 70
     0
  0
APPID
  5
123
330
9
100
AcDbSymbolTableRecord
100
AcDbRegAppTableRecord
  2
GENIUS_GENODEF_13
 70
     0
  0
APPID
  5
124
330
9
100
AcDbSymbolTableRecord
100
AcDbRegAppTableRecord
  2
GENIUS_GENREC_14
 70
     0
  0
APPID
  5
125
330
9
100
AcDbSymbolTableRecord
100
AcDbRegAppTableRecord
  2
GENIUS_GENOBJ-N-REC_13
 70
     0
  0
APPID
  5
126
330
9
100
AcDbSymbolTableRecord
100
AcDbRegAppTableRecord
  2
ACAD_DSTYLE_DIMJAG
 70
     0
  0
APPID
  5
127
330
9
100
AcDbSymbolTableRecord
100
AcDbRegAppTableRecord
  2
ACAD_DSTYLE_DIMTALN
 70
     0
  0
APPID
  5
128
330
9
100
AcDbSymbolTableRecord
100
AcDbRegAppTableRecord
  2
ACAD_DSTYLE_DIMBREAK
 70
     0
  0
APPID
  5
129
330
9
100
AcDbSymbolTableRecord
100
AcDbRegAppTableRecord
  2
DCO15
 70
     0
  0
APPID
  5
248
330
9
100
AcDbSymbolTableRecord
100
AcDbRegAppTableRecord
  2
ACAD_DSTYLE_DIMJOGGED_JOGANGLE_SYMBOL
 70
     0
  0
APPID
  5
250
330
9
100
AcDbSymbolTableRecord
100
AcDbRegAppTableRecord
  2
ACAD_DSTYLE_DIMARC_LENGTH_SYMBOL
 70
     0
  0
APPID
  5
2DC
330
9
100
AcDbSymbolTableRecord
100
AcDbRegAppTableRecord
  2
AcadAnnoPO
 70
     0
  0
APPID
  5
750
330
9
100
AcDbSymbolTableRecord
100
AcDbRegAppTableRecord
  2
ACAD_DSTYLE_DIMINSPECT
 70
     0
  0
APPID
  5
763
330
9
100
AcDbSymbolTableRecord
100
AcDbRegAppTableRecord
  2
GENIUS_GENDTOL_13
 70
     0
  0
ENDTAB
  0
TABLE
  2
DIMSTYLE
  5
A
330
0
100
AcDbSymbolTable
 70
    20
100
AcDbDimStyleTable
 71
     2
340
60
340
FF
  0
DIMSTYLE
105
60
330
A
100
AcDbSymbolTableRecord
100
AcDbDimStyleTableRecord
  2
ISO-25
 70
     0
 41
2.5
 42
0.625
 43
3.75
 44
1.25
 73
     0
 74
     0
 77
     1
 78
     8
140
2.5
141
2.5
143
0.03937007874016
147
0.625
171
     3
172
     1
271
     2
272
     2
274
     3
283
     0
284
     8
340
5D
1001
ACAD_DSTYLE_DIMJOGGED_JOGANGLE_SYMBOL
1070
   384
1040
1.570796326794896
  0
DIMSTYLE
105
61
330
A
100
AcDbSymbolTableRecord
100
AcDbDimStyleTableRecord
  2
Annotative
 70
     0
340
5D
1001
AcadAnnotative
1000
AnnotativeData
1002
{
1070
     1
1070
     1
1002
}
  0
DIMSTYLE
105
FF
330
A
100
AcDbSymbolTableRecord
100
AcDbDimStyleTableRecord
  2
AM_ISO
 70
     0
  4
"
 41
2.5
 42
1.0
 43
10.0
 44
1.0
 47
0.1
 48
0.1
 73
     0
 74
     0
 77
     1
 78
     8
 79
     2
140
3.0
141
0.0
143
0.0393701
146
0.71
147
1.0
172
     1
176
   256
177
   256
178
     2
271
     2
272
     2
283
     0
284
     8
340
5D
371
    -1
372
    -1
1001
ACAD_DSTYLE_DIMARC_LENGTH_SYMBOL
1070
   379
1070
     1
  0
DIMSTYLE
105
100
330
A
100
AcDbSymbolTableRecord
100
AcDbDimStyleTableRecord
  2
AM_ISO$3
 70
     0
  4
"
 41
2.5
 42
1.0
 43
10.0
 44
1.0
 47
0.1
 48
0.1
 73
     0
 77
     1
 78
     8
 79
     2
140
3.5
141
0.0
143
0.0393701
146
0.71
147
1.5
176
   256
177
   256
178
     2
271
     2
272
     3
274
     4
283
     0
284
     8
288
     1
289
     0
340
5D
371
    -1
372
    -1
1001
ACAD_DSTYLE_DIMARC_LENGTH_SYMBOL
1070
   379
1070
     1
  0
DIMSTYLE
105
101
330
A
100
AcDbSymbolTableRecord
100
AcDbDimStyleTableRecord
  2
AM_ISO$4
 70
     0
  4
"
 41
2.5
 42
1.0
 43
10.0
 44
1.0
 47
0.1
 48
0.1
 73
     0
 77
     1
 78
     8
 79
     2
140
3.5
141
0.0
143
0.0393701
146
0.71
147
1.5
176
   256
177
   256
178
     2
271
     2
272
     3
274
     4
283
     0
284
     8
288
     1
289
     0
340
5D
371
    -1
372
    -1
1001
ACAD_DSTYLE_DIMARC_LENGTH_SYMBOL
1070
   379
1070
     1
  0
DIMSTYLE
105
102
330
A
100
AcDbSymbolTableRecord
100
AcDbDimStyleTableRecord
  2
AM_ISO$6
 70
     0
  4
"
 41
2.5
 42
1.0
 43
10.0
 44
1.0
 47
0.1
 48
0.1
 73
     0
 74
     0
 78
     8
 79
     2
140
3.5
141
0.0
143
0.0393701
146
0.71
147
1.5
172
     1
176
   256
177
   256
178
     2
271
     2
272
     3
274
     4
283
     0
284
     8
340
5D
371
    -1
372
    -1
1001
ACAD_DSTYLE_DIMARC_LENGTH_SYMBOL
1070
   379
1070
     1
  0
DIMSTYLE
105
103
330
A
100
AcDbSymbolTableRecord
100
AcDbDimStyleTableRecord
  2
AM_ISO$7
 70
     0
  4
"
 41
2.5
 42
1.0
 43
10.0
 44
1.0
 47
0.1
 48
0.1
 73
     0
 74
     0
 77
     1
 78
     8
 79
     2
140
5.0
141
0.0
143
0.0393701
146
0.71
147
1.5
172
     1
176
   256
177
   256
178
     2
271
     2
272
     3
274
     4
283
     0
284
     8
340
5D
371
    -1
372
    -1
1001
ACAD_DSTYLE_DIMARC_LENGTH_SYMBOL
1070
   379
1070
     1
  0
DIMSTYLE
105
104
330
A
100
AcDbSymbolTableRecord
100
AcDbDimStyleTableRecord
  2
AM_ISO$SF
 70
     0
  4
"
 41
2.5
 42
1.0
 43
10.0
 44
1.0
 47
0.1
 48
0.1
 73
     0
 74
     0
 75
     1
 76
     1
 77
     1
 78
     8
 79
     2
140
3.5
141
0.0
143
0.0393701
146
0.71
147
1.5
172
     1
176
   256
177
   256
178
     2
271
     2
272
     3
274
     4
283
     0
284
     8
340
5D
371
    -1
372
    -1
1001
ACAD_DSTYLE_DIMARC_LENGTH_SYMBOL
1070
   379
1070
     1
  0
DIMSTYLE
105
109
330
A
100
AcDbSymbolTableRecord
100
AcDbDimStyleTableRecord
  2
AM_ISO$SH
 70
     0
  4
"
 41
2.5
 42
1.0
 43
10.0
 44
1.0
 47
0.1
 48
0.1
 73
     0
 74
     0
 75
     1
 76
     1
 77
     1
 78
     8
 79
     2
140
3.5
141
0.0
143
0.0393701
144
2.0
146
0.71
147
1.5
172
     1
173
     1
176
   256
177
   256
178
     2
271
     2
272
     3
274
     4
283
     0
284
     8
340
5D
343
105
371
    -1
372
    -1
1001
ACAD_DSTYLE_DIMARC_LENGTH_SYMBOL
1070
   379
1070
     1
  0
DIMSTYLE
105
11F
330
A
100
AcDbSymbolTableRecord
100
AcDbDimStyleTableRecord
  2
AM_ISO$0
 70
     0
  4
"
 41
2.5
 42
1.0
 43
10.0
 44
1.0
 47
0.1
 48
0.1
 73
     0
 74
     0
 77
     1
 78
     8
 79
     2
140
3.0
141
0.0
143
0.0393701
146
0.71
147
1.0
172
     1
176
   256
177
   256
178
     2
271
     2
272
     2
283
     0
284
     8
340
5D
371
    -1
372
    -1
1001
ACAD_DSTYLE_DIMJAG
1070
   388
1040
1.5
1001
ACAD_DSTYLE_DIMTALN
1070
   392
1070
     0
1001
ACAD_DSTYLE_DIMARC_LENGTH_SYMBOL
1070
   379
1070
     1
  0
DIMSTYLE
105
120
330
A
100
AcDbSymbolTableRecord
100
AcDbDimStyleTableRecord
  2
AM_ISO$2
 70
     0
  4
"
 41
2.5
 42
1.0
 43
10.0
 44
1.0
 47
0.1
 48
0.1
 73
     0
 74
     0
 77
     1
 78
     8
 79
     2
140
3.0
141
0.0
143
0.0393701
146
0.71
147
1.0
172
     1
176
   256
177
   256
178
     2
271
     2
272
     2
283
     0
284
     8
340
5D
371
    -1
372
    -1
1001
ACAD_DSTYLE_DIMJAG
1070
   388
1040
1.5
1001
ACAD_DSTYLE_DIMTALN
1070
   392
1070
     0
1001
ACAD_DSTYLE_DIMARC_LENGTH_SYMBOL
1070
   379
1070
     1
  0
DIMSTYLE
105
18C
330
A
100
AcDbSymbolTableRecord
100
AcDbDimStyleTableRecord
  2
Standard
 70
     0
289
     0
340
5D
  0
DIMSTYLE
105
18D
330
A
100
AcDbSymbolTableRecord
100
AcDbDimStyleTableRecord
  2
AM_ANSI
 70
     0
  4
"
 41
2.5
 42
1.0
 43
10.0
 44
1.0
 47
0.1
 48
0.1
 73
     0
 74
     0
 77
     1
 78
     8
 79
     2
140
3.0
141
0.0
143
0.0393701
146
0.71
147
1.0
176
   256
177
   256
178
     2
271
     2
272
     2
284
     8
340
5D
371
    -1
372
    -1
1001
ACAD_DSTYLE_DIMJAG
1070
   388
1040
1.5
1001
ACAD_DSTYLE_DIMTALN
1070
   392
1070
     0
1001
ACAD_DSTYLE_DIMARC_LENGTH_SYMBOL
1070
   379
1070
     1
  0
DIMSTYLE
105
18E
330
A
100
AcDbSymbolTableRecord
100
AcDbDimStyleTableRecord
  2
AM_ANSI$3
 70
     0
  4
"
 41
2.5
 42
1.0
 43
10.0
 44
1.0
 47
0.1
 48
0.1
 78
     8
 79
     2
140
3.5
141
0.0
143
0.0393701
146
0.71
147
1.5
176
   256
177
   256
178
     2
271
     2
272
     2
274
     4
284
     8
288
     1
289
     0
340
5D
371
    -1
372
    -1
1001
ACAD_DSTYLE_DIMARC_LENGTH_SYMBOL
1070
   379
1070
     1
  0
DIMSTYLE
105
18F
330
A
100
AcDbSymbolTableRecord
100
AcDbDimStyleTableRecord
  2
AM_ANSI$4
 70
     0
  4
"
 41
2.5
 42
1.0
 43
10.0
 44
1.0
 47
0.1
 48
0.1
 78
     8
 79
     2
140
3.5
141
0.0
143
0.0393701
146
0.71
147
1.5
176
   256
177
   256
178
     2
271
     2
272
     2
274
     4
284
     8
288
     1
289
     0
340
5D
371
    -1
372
    -1
1001
ACAD_DSTYLE_DIMARC_LENGTH_SYMBOL
1070
   379
1070
     1
  0
DIMSTYLE
105
190
330
A
100
AcDbSymbolTableRecord
100
AcDbDimStyleTableRecord
  2
AM_ANSI$7
 70
     0
  4
"
 41
2.5
 42
1.0
 43
10.0
 44
1.0
 47
0.1
 48
0.1
 78
     8
 79
     2
140
5.0
141
0.0
143
0.0393701
146
0.71
147
1.5
176
   256
177
   256
178
     2
271
     2
272
     2
274
     4
284
     8
340
5D
371
    -1
372
    -1
1001
ACAD_DSTYLE_DIMARC_LENGTH_SYMBOL
1070
   379
1070
     1
  0
DIMSTYLE
105
191
330
A
100
AcDbSymbolTableRecord
100
AcDbDimStyleTableRecord
  2
AM_ANSI$SF
 70
     0
  4
"
 41
2.5
 42
1.0
 43
10.0
 44
1.0
 47
0.1
 48
0.1
 75
     1
 76
     1
 78
     8
 79
     2
140
3.5
141
0.0
143
0.0393701
146
0.71
147
1.5
176
   256
177
   256
178
     2
271
     2
272
     3
274
     4
284
     8
340
5D
371
    -1
372
    -1
1001
ACAD_DSTYLE_DIMARC_LENGTH_SYMBOL
1070
   379
1070
     1
  0
DIMSTYLE
105
192
330
A
100
AcDbSymbolTableRecord
100
AcDbDimStyleTableRecord
  2
AM_ANSI$SH
 70
     0
  4
"
 41
2.5
 42
1.0
 43
10.0
 44
1.0
 47
0.1
 48
0.1
 75
     1
 76
     1
 78
     8
 79
     2
140
3.5
141
0.0
143
0.0393701
146
0.71
147
1.5
173
     1
176
   256
177
   256
178
     2
271
     2
272
     3
274
     4
284
     8
340
5D
343
105
371
    -1
372
    -1
1001
ACAD_DSTYLE_DIMARC_LENGTH_SYMBOL
1070
   379
1070
     1
  0
DIMSTYLE
105
193
330
A
100
AcDbSymbolTableRecord
100
AcDbDimStyleTableRecord
  2
AM_ANSI$0
 70
     0
  4
"
 41
2.5
 42
1.0
 43
10.0
 44
1.0
 47
0.1
 48
0.1
 73
     0
 74
     0
 77
     1
 78
     8
 79
     2
140
3.0
141
0.0
143
0.0393701
146
0.71
147
1.0
176
   256
177
   256
178
     2
271
     2
272
     2
284
     8
340
5D
371
    -1
372
    -1
1001
ACAD_DSTYLE_DIMJAG
1070
   388
1040
1.5
1001
ACAD_DSTYLE_DIMTALN
1070
   392
1070
     0
1001
ACAD_DSTYLE_DIMARC_LENGTH_SYMBOL
1070
   379
1070
     1
  0
DIMSTYLE
105
737
102
{ACAD_REACTORS
330
739
330
76D
330
79E
330
7E4
102
}
330
A
100
AcDbSymbolTableRecord
100
AcDbDimStyleTableRecord
  2
ISO-25$0
 70
     0
 41
2.5
 42
0.625
 43
3.75
 44
1.25
 73
     0
 74
     0
 77
     1
 78
     8
140
2.5
141
2.5
143
0.03937007874016
147
0.625
171
     3
172
     1
271
     2
272
     2
274
     3
283
     0
284
     8
340
5D
1001
ACAD_DSTYLE_DIMJOGGED_JOGANGLE_SYMBOL
1070
   384
1040
1.570796326794896
  0
ENDTAB
  0
TABLE
  2
BLOCK_RECORD
  5
1
330
0
100
AcDbSymbolTable
 70
    27
  0
BLOCK_RECORD
  5
75
330
1
100
AcDbSymbolTableRecord
100
AcDbBlockTableRecord
  2
*Model_Space
340
78
  0
BLOCK_RECORD
  5
71
330
1
100
AcDbSymbolTableRecord
100
AcDbBlockTableRecord
  2
*Paper_Space
340
74
  0
BLOCK_RECORD
  5
79
330
1
100
AcDbSymbolTableRecord
100
AcDbBlockTableRecord
  2
*Paper_Space0
340
7C
  0
BLOCK_RECORD
  5
105
330
1
100
AcDbSymbolTableRecord
100
AcDbBlockTableRecord
  2
GENAXEH
340
0
  0
BLOCK_RECORD
  5
1B9
330
1
100
AcDbSymbolTableRecord
100
AcDbBlockTableRecord
  2
GENDOT
340
0
  0
BLOCK_RECORD
  5
430
330
1
100
AcDbSymbolTableRecord
100
AcDbBlockTableRecord
  2
AI9-BLK2
340
0
102
{BLKREFS
331
69A
102
}
  0
BLOCK_RECORD
  5
4D4
330
1
100
AcDbSymbolTableRecord
100
AcDbBlockTableRecord
  2
AI9-BLK3
340
0
102
{BLKREFS
331
69C
102
}
  0
BLOCK_RECORD
  5
4E6
330
1
100
AcDbSymbolTableRecord
100
AcDbBlockTableRecord
  2
AI9-BLK4
340
0
102
{BLKREFS
331
69D
102
}
  0
BLOCK_RECORD
  5
4F8
330
1
100
AcDbSymbolTableRecord
100
AcDbBlockTableRecord
  2
AI9-BLK5
340
0
102
{BLKREFS
331
69E
102
}
  0
BLOCK_RECORD
  5
50A
330
1
100
AcDbSymbolTableRecord
100
AcDbBlockTableRecord
  2
AI9-BLK6
340
0
102
{BLKREFS
331
69F
102
}
  0
BLOCK_RECORD
  5
51C
330
1
100
AcDbSymbolTableRecord
100
AcDbBlockTableRecord
  2
AI9-BLK7
340
0
102
{BLKREFS
331
6A6
102
}
  0
BLOCK_RECORD
  5
531
330
1
100
AcDbSymbolTableRecord
100
AcDbBlockTableRecord
  2
AI9-BLK8
340
0
102
{BLKREFS
331
6A7
102
}
  0
BLOCK_RECORD
  5
536
330
1
100
AcDbSymbolTableRecord
100
AcDbBlockTableRecord
  2
AI9-BLK9
340
0
102
{BLKREFS
331
6A8
102
}
  0
BLOCK_RECORD
  5
53B
330
1
100
AcDbSymbolTableRecord
100
AcDbBlockTableRecord
  2
AI9-BLK10
340
0
102
{BLKREFS
331
6B0
102
}
  0
BLOCK_RECORD
  5
54E
330
1
100
AcDbSymbolTableRecord
100
AcDbBlockTableRecord
  2
AI9-BLK11
340
0
102
{BLKREFS
331
6B1
102
}
  0
BLOCK_RECORD
  5
561
330
1
100
AcDbSymbolTableRecord
100
AcDbBlockTableRecord
  2
AI9-BLK12
340
0
102
{BLKREFS
331
6B2
102
}
  0
BLOCK_RECORD
  5
574
330
1
100
AcDbSymbolTableRecord
100
AcDbBlockTableRecord
  2
AI9-BLK13
340
0
102
{BLKREFS
331
6B3
102
}
  0
BLOCK_RECORD
  5
587
330
1
100
AcDbSymbolTableRecord
100
AcDbBlockTableRecord
  2
AI9-BLK14
340
0
102
{BLKREFS
331
6DC
102
}
  0
BLOCK_RECORD
  5
59C
330
1
100
AcDbSymbolTableRecord
100
AcDbBlockTableRecord
  2
AI9-BLK15
340
0
102
{BLKREFS
331
6DD
102
}
  0
BLOCK_RECORD
  5
5AB
330
1
100
AcDbSymbolTableRecord
100
AcDbBlockTableRecord
  2
AI9-BLK16
340
0
102
{BLKREFS
331
6FE
102
}
  0
BLOCK_RECORD
  5
5BD
330
1
100
AcDbSymbolTableRecord
100
AcDbBlockTableRecord
  2
AI9-BLK17
340
0
102
{BLKREFS
331
6FF
102
}
  0
BLOCK_RECORD
  5
5CF
330
1
100
AcDbSymbolTableRecord
100
AcDbBlockTableRecord
  2
AI9-BLK18
340
0
102
{BLKREFS
331
700
102
}
  0
BLOCK_RECORD
  5
5D4
330
1
100
AcDbSymbolTableRecord
100
AcDbBlockTableRecord
  2
AI9-BLK19
340
0
102
{BLKREFS
331
701
102
}
  0
BLOCK_RECORD
  5
5D9
330
1
100
AcDbSymbolTableRecord
100
AcDbBlockTableRecord
  2
AI9-BLK20
340
0
102
{BLKREFS
331
72C
102
}
  0
BLOCK_RECORD
  5
73B
330
1
100
AcDbSymbolTableRecord
100
AcDbBlockTableRecord
  2
*D22
340
0
  0
BLOCK_RECORD
  5
76E
330
1
100
AcDbSymbolTableRecord
100
AcDbBlockTableRecord
  2
*D23
340
0
  0
BLOCK_RECORD
  5
79F
330
1
100
AcDbSymbolTableRecord
100
AcDbBlockTableRecord
  2
*D24
340
0
  0
BLOCK_RECORD
  5
7E5
330
1
100
AcDbSymbolTableRecord
100
AcDbBlockTableRecord
  2
*D25
340
0
  0
ENDTAB
  0
ENDSEC
  0
SECTION
  2
BLOCKS
  0
BLOCK
  5
76
330
75
100
AcDbEntity
  8
0
100
AcDbBlockBegin
  2
*Model_Space
 70
     0
 10
0.0
 20
0.0
 30
0.0
  3
*Model_Space
  1

  0
ENDBLK
  5
77
330
75
100
AcDbEntity
  8
0
100
AcDbBlockEnd
  0
BLOCK
  5
72
330
71
100
AcDbEntity
 67
     1
  8
0
100
AcDbBlockBegin
  2
*Paper_Space
 70
     0
 10
0.0
 20
0.0
 30
0.0
  3
*Paper_Space
  1

  0
ENDBLK
  5
73
330
71
100
AcDbEntity
 67
     1
  8
0
100
AcDbBlockEnd
  0
BLOCK
  5
7A
330
79
100
AcDbEntity
 67
     1
  8
0
100
AcDbBlockBegin
  2
*Paper_Space0
 70
     0
 10
0.0
 20
0.0
 30
0.0
  3
*Paper_Space0
  1

  0
ENDBLK
  5
7B
330
79
100
AcDbEntity
 67
     1
  8
0
100
AcDbBlockEnd
  0
BLOCK
  5
107
330
105
100
AcDbEntity
  8
0
100
AcDbBlockBegin
  2
GENAXEH
 70
     0
 10
0.0
 20
0.0
 30
0.0
  3
GENAXEH
  1

  0
LINE
  5
106
330
105
100
AcDbEntity
  8
0
100
AcDbLine
 10
-1.0
 20
0.0
 30
0.0
 11
1.0
 21
0.0
 31
0.0
  0
ENDBLK
  5
108
330
105
100
AcDbEntity
  8
0
100
AcDbBlockEnd
  0
BLOCK
  5
1BC
330
1B9
100
AcDbEntity
  8
0
100
AcDbBlockBegin
  2
GENDOT
 70
     0
 10
0.0
 20
0.0
 30
0.0
  3
GENDOT
  1

  0
LINE
  5
1BA
330
1B9
100
AcDbEntity
  8
0
100
AcDbLine
 10
0.0
 20
0.0
 30
0.0
 11
-1.0
 21
0.0
 31
0.0
  0
LWPOLYLINE
  5
1BB
330
1B9
100
AcDbEntity
  8
0
100
AcDbPolyline
 90
        2
 70
     1
 43
0.25
 10
-0.125
 20
0.0
 42
1.0
 10
0.125
 20
0.0
 42
1.0
  0
ENDBLK
  5
1BD
330
1B9
100
AcDbEntity
  8
0
100
AcDbBlockEnd
  0
BLOCK
  5
431
330
430
100
AcDbEntity
  8
レイヤー_1
 62
     7
100
AcDbBlockBegin
  2
AI9-BLK2
 70
     0
 10
0.0
 20
0.0
 30
0.0
  3
AI9-BLK2
  1

  0
SPLINE
  5
432
330
430
100
AcDbEntity
  8
レイヤー_1
 62
     7
100
AcDbSpline
210
0.0
220
0.0
230
1.0
 70
    11
 71
     3
 72
    29
 73
    25
 74
     0
 42
0.0000000001
 43
0.0000000001
 40
0.0
 40
0.0
 40
0.0
 40
0.0
 40
1.0
 40
1.0
 40
1.0
 40
2.0
 40
2.0
 40
2.0
 40
3.0
 40
3.0
 40
3.0
 40
4.0
 40
4.0
 40
4.0
 40
5.0
 40
5.0
 40
5.0
 40
6.0
 40
6.0
 40
6.0
 40
7.0
 40
7.0
 40
7.0
 40
8.0
 40
8.0
 40
8.0
 40
8.0
 10
-39.05704752604167
 20
7.829668511284721
 30
0.0
 10
-39.05704752604167
 20
9.304858398437499
 30
0.0
 10
-37.8926052517361
 20
10.50065104166666
 30
0.0
 10
-36.45600043402777
 20
10.50065104166666
 30
0.0
 10
-36.45600043402777
 20
10.50065104166666
 30
0.0
 10
36.4909681532118
 20
10.50065104166666
 30
0.0
 10
36.4909681532118
 20
10.50065104166666
 30
0.0
 10
37.92757297092013
 20
10.50065104166666
 30
0.0
 10
39.09201524522569
 20
9.304858398437499
 30
0.0
 10
39.09201524522569
 20
7.829668511284721
 30
0.0
 10
39.09201524522569
 20
7.829668511284721
 30
0.0
 10
39.09201524522569
 20
-9.755476888020831
 30
0.0
 10
39.09201524522569
 20
-9.755476888020831
 30
0.0
 10
39.09201524522569
 20
-11.23066677517361
 30
0.0
 10
37.92757297092013
 20
-12.42611490885416
 30
0.0
 10
36.4909681532118
 20
-12.42611490885416
 30
0.0
 10
36.4909681532118
 20
-12.42611490885416
 30
0.0
 10
-36.45600043402777
 20
-12.42611490885416
 30
0.0
 10
-36.45600043402777
 20
-12.42611490885416
 30
0.0
 10
-37.8926052517361
 20
-12.42611490885416
 30
0.0
 10
-39.05704752604167
 20
-11.23066677517361
 30
0.0
 10
-39.05704752604167
 20
-9.755476888020831
 30
0.0
 10
-39.05704752604167
 20
-9.755476888020831
 30
0.0
 10
-39.05704752604167
 20
7.829668511284721
 30
0.0
 10
-39.05704752604167
 20
7.829668511284721
 30
0.0
  0
SPLINE
  5
433
330
430
100
AcDbEntity
  8
レイヤー_1
 62
     7
100
AcDbSpline
210
0.0
220
0.0
230
1.0
 70
    11
 71
     3
 72
    29
 73
    25
 74
     0
 42
0.0000000001
 43
0.0000000001
 40
0.0
 40
0.0
 40
0.0
 40
0.0
 40
1.0
 40
1.0
 40
1.0
 40
2.0
 40
2.0
 40
2.0
 40
3.0
 40
3.0
 40
3.0
 40
4.0
 40
4.0
 40
4.0
 40
5.0
 40
5.0
 40
5.0
 40
6.0
 40
6.0
 40
6.0
 40
7.0
 40
7.0
 40
7.0
 40
8.0
 40
8.0
 40
8.0
 40
8.0
 10
-38.55061848958333
 20
7.390074327256941
 30
0.0
 10
-38.55061848958333
 20
8.791539171006942
 30
0.0
 10
-37.40340169270833
 20
9.927042643229166
 30
0.0
 10
-35.9883287217882
 20
9.927042643229166
 30
0.0
 10
-35.9883287217882
 20
9.927042643229166
 30
0.0
 10
35.8708509657118
 20
9.927042643229166
 30
0.0
 10
35.8708509657118
 20
9.927042643229166
 30
0.0
 10
37.28609619140624
 20
9.927042643229166
 30
0.0
 10
38.43262396918401
 20
8.791539171006942
 30
0.0
 10
38.43262396918401
 20
7.390074327256941
 30
0.0
 10
38.43262396918401
 20
7.390074327256941
 30
0.0
 10
38.43262396918401
 20
-9.315882703993054
 30
0.0
 10
38.43262396918401
 20
-9.315882703993054
 30
0.0
 10
38.43262396918401
 20
-10.71734754774305
 30
0.0
 10
37.28609619140624
 20
-11.85319552951388
 30
0.0
 10
35.8708509657118
 20
-11.85319552951388
 30
0.0
 10
35.8708509657118
 20
-11.85319552951388
 30
0.0
 10
-35.9883287217882
 20
-11.85319552951388
 30
0.0
 10
-35.9883287217882
 20
-11.85319552951388
 30
0.0
 10
-37.40340169270833
 20
-11.85319552951388
 30
0.0
 10
-38.55061848958333
 20
-10.71734754774305
 30
0.0
 10
-38.55061848958333
 20
-9.315882703993054
 30
0.0
 10
-38.55061848958333
 20
-9.315882703993054
 30
0.0
 10
-38.55061848958333
 20
7.390074327256941
 30
0.0
 10
-38.55061848958333
 20
7.390074327256941
 30
0.0
  0
LINE
  5
434
330
430
100
AcDbEntity
  8
レイヤー_1
 62
     7
100
AcDbLine
 10
-38.54924
 20
-1.052132
 30
0.0
 11
-39.082369
 21
-1.052132
 31
0.0
  0
LINE
  5
435
330
430
100
AcDbEntity
  8
レイヤー_1
 62
     7
100
AcDbLine
 10
39.09546
 20
-1.026637999999999
 30
0.0
 11
38.4216
 21
-1.026637999999999
 31
0.0
  0
SPLINE
  5
436
330
430
100
AcDbEntity
  8
レイヤー_1
 62
     7
100
AcDbSpline
210
0.0
220
0.0
230
1.0
 70
     8
 71
     3
 72
    11
 73
     7
 74
     0
 42
0.0000000001
 43
0.0000000001
 40
0.0
 40
0.0
 40
0.0
 40
0.0
 40
1.0
 40
1.0
 40
1.0
 40
2.0
 40
2.0
 40
2.0
 40
2.0
 10
-1.775257703993054
 20
10.51305338541666
 30
0.0
 10
-1.775257703993054
 20
10.81105414496527
 30
0.0
 10
-1.152384440104166
 20
11.05255533854166
 30
0.0
 10
-0.3837836371527778
 20
11.05255533854166
 30
0.0
 10
0.3851616753472222
 20
11.05255533854166
 30
0.0
 10
1.00803493923611
 20
10.81105414496527
 30
0.0
 10
1.00803493923611
 20
10.51305338541666
 30
0.0
  0
SPLINE
  5
437
330
430
100
AcDbEntity
  8
レイヤー_1
 62
     7
100
AcDbSpline
210
0.0
220
0.0
230
1.0
 70
     8
 71
     3
 72
    11
 73
     7
 74
     0
 42
0.0000000001
 43
0.0000000001
 40
0.0
 40
0.0
 40
0.0
 40
0.0
 40
1.0
 40
1.0
 40
1.0
 40
2.0
 40
2.0
 40
2.0
 40
2.0
 10
1.00803493923611
 20
-12.47744683159722
 30
0.0
 10
1.00803493923611
 20
-12.77544759114583
 30
0.0
 10
0.3851616753472222
 20
-13.01694878472222
 30
0.0
 10
-0.3837836371527778
 20
-13.01694878472222
 30
0.0
 10
-1.152384440104166
 20
-13.01694878472222
 30
0.0
 10
-1.775257703993054
 20
-12.77544759114583
 30
0.0
 10
-1.775257703993054
 20
-12.47744683159722
 30
0.0
  0
SPLINE
  5
438
330
430
100
AcDbEntity
  8
レイヤー_1
 62
     7
100
AcDbSpline
210
0.0
220
0.0
230
1.0
 70
     8
 71
     3
 72
    11
 73
     7
 74
     0
 42
0.0000000001
 43
0.0000000001
 40
0.0
 40
0.0
 40
0.0
 40
0.0
 40
1.0
 40
1.0
 40
1.0
 40
2.0
 40
2.0
 40
2.0
 40
2.0
 10
39.1016615125868
 20
3.288343641493055
 30
0.0
 10
39.3993177625868
 20
3.288343641493055
 30
0.0
 10
39.6411634657118
 20
2.665125868055555
 30
0.0
 10
39.6411634657118
 20
1.896525065104166
 30
0.0
 10
39.6411634657118
 20
1.127579752604165
 30
0.0
 10
39.3993177625868
 20
0.5047064887152777
 30
0.0
 10
39.1016615125868
 20
0.5047064887152777
 30
0.0
  0
SPLINE
  5
439
330
430
100
AcDbEntity
  8
レイヤー_1
 62
     7
100
AcDbSpline
210
0.0
220
0.0
230
1.0
 70
     8
 71
     3
 72
    11
 73
     7
 74
     0
 42
0.0000000001
 43
0.0000000001
 40
0.0
 40
0.0
 40
0.0
 40
0.0
 40
1.0
 40
1.0
 40
1.0
 40
2.0
 40
2.0
 40
2.0
 40
2.0
 10
39.1016615125868
 20
-2.17041015625
 30
0.0
 10
39.3993177625868
 20
-2.17041015625
 30
0.0
 10
39.6411634657118
 20
-2.793283420138888
 30
0.0
 10
39.6411634657118
 20
-3.562228732638888
 30
0.0
 10
39.6411634657118
 20
-4.330829535590276
 30
0.0
 10
39.3993177625868
 20
-4.954047309027777
 30
0.0
 10
39.1016615125868
 20
-4.954047309027777
 30
0.0
  0
SPLINE
  5
43A
330
430
100
AcDbEntity
  8
レイヤー_1
 62
     7
100
AcDbSpline
210
0.0
220
0.0
230
1.0
 70
     8
 71
     3
 72
    11
 73
     7
 74
     0
 42
0.0000000001
 43
0.0000000001
 40
0.0
 40
0.0
 40
0.0
 40
0.0
 40
1.0
 40
1.0
 40
1.0
 40
2.0
 40
2.0
 40
2.0
 40
2.0
 10
-39.10148925781249
 20
3.288343641493055
 30
0.0
 10
-39.39949001736111
 20
3.288343641493055
 30
0.0
 10
-39.6411634657118
 20
2.665125868055555
 30
0.0
 10
-39.6411634657118
 20
1.896525065104166
 30
0.0
 10
-39.6411634657118
 20
1.127579752604165
 30
0.0
 10
-39.39949001736111
 20
0.5047064887152777
 30
0.0
 10
-39.10148925781249
 20
0.5047064887152777
 30
0.0
  0
SPLINE
  5
43B
330
430
100
AcDbEntity
  8
レイヤー_1
 62
     7
100
AcDbSpline
210
0.0
220
0.0
230
1.0
 70
     8
 71
     3
 72
    11
 73
     7
 74
     0
 42
0.0000000001
 43
0.0000000001
 40
0.0
 40
0.0
 40
0.0
 40
0.0
 40
1.0
 40
1.0
 40
1.0
 40
2.0
 40
2.0
 40
2.0
 40
2.0
 10
-39.10148925781249
 20
-2.17041015625
 30
0.0
 10
-39.39949001736111
 20
-2.17041015625
 30
0.0
 10
-39.6411634657118
 20
-2.793283420138888
 30
0.0
 10
-39.6411634657118
 20
-3.562228732638888
 30
0.0
 10
-39.6411634657118
 20
-4.330829535590276
 30
0.0
 10
-39.39949001736111
 20
-4.954047309027777
 30
0.0
 10
-39.10148925781249
 20
-4.954047309027777
 30
0.0
  0
POLYLINE
  5
43C
330
430
100
AcDbEntity
  8
レイヤー_1
 62
     7
100
AcDb2dPolyline
 66
     1
 10
0.0
 20
0.0
 30
0.0
 70
     1
  0
VERTEX
  5
43D
330
43C
100
AcDbEntity
  8
レイヤー_1
 62
     7
100
AcDbVertex
100
AcDb2dVertex
 10
-33.065165
 20
13.016949
 30
0.0
  0
VERTEX
  5
43E
330
43C
100
AcDbEntity
  8
レイヤー_1
 62
     7
100
AcDbVertex
100
AcDb2dVertex
 10
-27.961773
 20
13.016949
 30
0.0
  0
VERTEX
  5
43F
330
43C
100
AcDbEntity
  8
レイヤー_1
 62
     7
100
AcDbVertex
100
AcDb2dVertex
 10
-27.657054
 20
10.522355
 30
0.0
  0
VERTEX
  5
440
330
43C
100
AcDbEntity
  8
レイヤー_1
 62
     7
100
AcDbVertex
100
AcDb2dVertex
 10
-33.369712
 20
10.522355
 30
0.0
  0
SEQEND
  5
441
330
43C
100
AcDbEntity
  8
レイヤー_1
 62
     7
  0
POLYLINE
  5
442
330
430
100
AcDbEntity
  8
レイヤー_1
 62
     7
100
AcDb2dPolyline
 66
     1
 10
0.0
 20
0.0
 30
0.0
 70
     1
  0
VERTEX
  5
443
330
442
100
AcDbEntity
  8
レイヤー_1
 62
     7
100
AcDbVertex
100
AcDb2dVertex
 10
27.260179
 20
13.016949
 30
0.0
  0
VERTEX
  5
444
330
442
100
AcDbEntity
  8
レイヤー_1
 62
     7
100
AcDbVertex
100
AcDb2dVertex
 10
32.363744
 20
13.016949
 30
0.0
  0
VERTEX
  5
445
330
442
100
AcDbEntity
  8
レイヤー_1
 62
     7
100
AcDbVertex
100
AcDb2dVertex
 10
32.66829
 20
10.522355
 30
0.0
  0
VERTEX
  5
446
330
442
100
AcDbEntity
  8
レイヤー_1
 62
     7
100
AcDbVertex
100
AcDb2dVertex
 10
26.955633
 20
10.522355
 30
0.0
  0
SEQEND
  5
447
330
442
100
AcDbEntity
  8
レイヤー_1
 62
     7
  0
CIRCLE
  5
448
330
430
100
AcDbEntity
  8
レイヤー_1
 62
     7
100
AcDbCircle
 10
31.233752
 20
-6.26594
 30
0.0
 40
4.417301
  0
CIRCLE
  5
449
330
430
100
AcDbEntity
  8
レイヤー_1
 62
     7
100
AcDbCircle
 10
31.234097
 20
-6.26594
 30
0.0
 40
3.962893
  0
CIRCLE
  5
44A
330
430
100
AcDbEntity
  8
レイヤー_1
 62
     7
100
AcDbCircle
 10
31.234097
 20
-6.26594
 30
0.0
 40
3.021004
  0
SPLINE
  5
44B
330
430
100
AcDbEntity
  8
レイヤー_1
 62
     7
100
AcDbSpline
210
0.0
220
0.0
230
1.0
 70
     8
 71
     3
 72
    17
 73
    13
 74
     0
 42
0.0000000001
 43
0.0000000001
 40
0.0
 40
0.0
 40
0.0
 40
0.0
 40
1.0
 40
1.0
 40
1.0
 40
2.0
 40
2.0
 40
2.0
 40
3.0
 40
3.0
 40
3.0
 40
4.0
 40
4.0
 40
4.0
 40
4.0
 10
33.97742648654513
 20
5.60000271267361
 30
0.0
 10
33.97742648654513
 20
5.60000271267361
 30
0.0
 10
33.97742648654513
 20
4.251936848958331
 30
0.0
 10
33.97742648654513
 20
4.251936848958331
 30
0.0
 10
33.60811225043402
 20
3.019970703124998
 30
0.0
 10
32.46502956814236
 20
2.121834309895831
 30
0.0
 10
31.11317409939236
 20
2.121834309895831
 30
0.0
 10
29.76200764973958
 20
2.121834309895831
 30
0.0
 10
28.61961398654514
 20
3.018248155381943
 30
0.0
 10
28.2496107313368
 20
4.249180772569443
 30
0.0
 10
28.2496107313368
 20
4.249180772569443
 30
0.0
 10
28.2496107313368
 20
5.60000271267361
 30
0.0
 10
28.2496107313368
 20
5.60000271267361
 30
0.0
  0
SPLINE
  5
44C
330
430
100
AcDbEntity
  8
レイヤー_1
 62
     7
100
AcDbSpline
210
0.0
220
0.0
230
1.0
 70
     8
 71
     3
 72
    17
 73
    13
 74
     0
 42
0.0000000001
 43
0.0000000001
 40
0.0
 40
0.0
 40
0.0
 40
0.0
 40
1.0
 40
1.0
 40
1.0
 40
2.0
 40
2.0
 40
2.0
 40
3.0
 40
3.0
 40
3.0
 40
4.0
 40
4.0
 40
4.0
 40
4.0
 10
28.2496107313368
 20
5.32094997829861
 30
0.0
 10
28.2496107313368
 20
5.32094997829861
 30
0.0
 10
28.2496107313368
 20
6.669015842013886
 30
0.0
 10
28.2496107313368
 20
6.669015842013886
 30
0.0
 10
28.61892496744792
 20
7.901326497395832
 30
0.0
 10
29.76200764973958
 20
8.799118381076386
 30
0.0
 10
31.11386311848958
 20
8.799118381076386
 30
0.0
 10
32.46502956814236
 20
8.799118381076386
 30
0.0
 10
33.6074232313368
 20
7.902704535590277
 30
0.0
 10
33.97742648654513
 20
6.672116427951387
 30
0.0
 10
33.97742648654513
 20
6.672116427951387
 30
0.0
 10
33.97742648654513
 20
5.32094997829861
 30
0.0
 10
33.97742648654513
 20
5.32094997829861
 30
0.0
  0
SPLINE
  5
44D
330
430
100
AcDbEntity
  8
レイヤー_1
 62
     7
100
AcDbSpline
210
0.0
220
0.0
230
1.0
 70
    11
 71
     3
 72
    29
 73
    25
 74
     0
 42
0.0000000001
 43
0.0000000001
 40
0.0
 40
0.0
 40
0.0
 40
0.0
 40
1.0
 40
1.0
 40
1.0
 40
2.0
 40
2.0
 40
2.0
 40
3.0
 40
3.0
 40
3.0
 40
4.0
 40
4.0
 40
4.0
 40
5.0
 40
5.0
 40
5.0
 40
6.0
 40
6.0
 40
6.0
 40
7.0
 40
7.0
 40
7.0
 40
8.0
 40
8.0
 40
8.0
 40
8.0
 10
13.24070773654513
 20
5.518009440104167
 30
0.0
 10
13.24070773654513
 20
5.664081488715277
 30
0.0
 10
13.35163981119791
 20
5.782592773437499
 30
0.0
 10
13.48806559244791
 20
5.782592773437499
 30
0.0
 10
13.48806559244791
 20
5.782592773437499
 30
0.0
 10
25.33781602647569
 20
5.782592773437499
 30
0.0
 10
25.33781602647569
 20
5.782592773437499
 30
0.0
 10
25.47355278862847
 20
5.782592773437499
 30
0.0
 10
25.58448486328125
 20
5.664081488715277
 30
0.0
 10
25.58448486328125
 20
5.518009440104167
 30
0.0
 10
25.58448486328125
 20
5.518009440104167
 30
0.0
 10
25.58448486328125
 20
-7.160286458333332
 30
0.0
 10
25.58448486328125
 20
-7.160286458333332
 30
0.0
 10
25.58448486328125
 20
-7.30601399739583
 30
0.0
 10
25.47355278862847
 20
-7.424525282118053
 30
0.0
 10
25.33781602647569
 20
-7.424525282118053
 30
0.0
 10
25.33781602647569
 20
-7.424525282118053
 30
0.0
 10
13.48806559244791
 20
-7.424525282118053
 30
0.0
 10
13.48806559244791
 20
-7.424525282118053
 30
0.0
 10
13.35163981119791
 20
-7.424525282118053
 30
0.0
 10
13.24070773654513
 20
-7.30601399739583
 30
0.0
 10
13.24070773654513
 20
-7.160286458333332
 30
0.0
 10
13.24070773654513
 20
-7.160286458333332
 30
0.0
 10
13.24070773654513
 20
5.518009440104167
 30
0.0
 10
13.24070773654513
 20
5.518009440104167
 30
0.0
  0
POLYLINE
  5
44E
330
430
100
AcDbEntity
  8
レイヤー_1
 62
     7
100
AcDb2dPolyline
 66
     1
 10
0.0
 20
0.0
 30
0.0
 70
     1
  0
VERTEX
  5
44F
330
44E
100
AcDbEntity
  8
レイヤー_1
 62
     7
100
AcDbVertex
100
AcDb2dVertex
 10
20.024101
 20
-2.955892
 30
0.0
  0
VERTEX
  5
450
330
44E
100
AcDbEntity
  8
レイヤー_1
 62
     7
100
AcDbVertex
100
AcDb2dVertex
 10
24.112051
 20
-2.955892
 30
0.0
  0
VERTEX
  5
451
330
44E
100
AcDbEntity
  8
レイヤー_1
 62
     7
100
AcDbVertex
100
AcDb2dVertex
 10
24.112051
 20
-4.758366
 30
0.0
  0
VERTEX
  5
452
330
44E
100
AcDbEntity
  8
レイヤー_1
 62
     7
100
AcDbVertex
100
AcDb2dVertex
 10
20.024101
 20
-4.758366
 30
0.0
  0
SEQEND
  5
453
330
44E
100
AcDbEntity
  8
レイヤー_1
 62
     7
  0
POLYLINE
  5
454
330
430
100
AcDbEntity
  8
レイヤー_1
 62
     7
100
AcDb2dPolyline
 66
     1
 10
0.0
 20
0.0
 30
0.0
 70
     1
  0
VERTEX
  5
455
330
454
100
AcDbEntity
  8
レイヤー_1
 62
     7
100
AcDbVertex
100
AcDb2dVertex
 10
19.567281
 20
3.416846
 30
0.0
  0
VERTEX
  5
456
330
454
100
AcDbEntity
  8
レイヤー_1
 62
     7
100
AcDbVertex
100
AcDb2dVertex
 10
24.112051
 20
3.416846
 30
0.0
  0
VERTEX
  5
457
330
454
100
AcDbEntity
  8
レイヤー_1
 62
     7
100
AcDbVertex
100
AcDb2dVertex
 10
24.112051
 20
1.614027
 30
0.0
  0
VERTEX
  5
458
330
454
100
AcDbEntity
  8
レイヤー_1
 62
     7
100
AcDbVertex
100
AcDb2dVertex
 10
19.567281
 20
1.614027
 30
0.0
  0
SEQEND
  5
459
330
454
100
AcDbEntity
  8
レイヤー_1
 62
     7
  0
SPLINE
  5
45A
330
430
100
AcDbEntity
  8
レイヤー_1
 62
     7
100
AcDbSpline
210
0.0
220
0.0
230
1.0
 70
    11
 71
     3
 72
    20
 73
    16
 74
     0
 42
0.0000000001
 43
0.0000000001
 40
0.0
 40
0.0
 40
0.0
 40
0.0
 40
1.0
 40
1.0
 40
1.0
 40
2.0
 40
2.0
 40
2.0
 40
3.0
 40
3.0
 40
3.0
 40
4.0
 40
4.0
 40
4.0
 40
5.0
 40
5.0
 40
5.0
 40
5.0
 10
16.22071533203125
 20
0.8419813368055553
 30
0.0
 10
17.11575113932291
 20
0.8419813368055553
 30
0.0
 10
17.84059922960069
 20
0.1164442274305556
 30
0.0
 10
17.84059922960069
 20
-0.7779025607638889
 30
0.0
 10
17.84059922960069
 20
-1.672249348958333
 30
0.0
 10
17.11575113932291
 20
-2.397441948784721
 30
0.0
 10
16.22071533203125
 20
-2.397441948784721
 30
0.0
 10
16.22071533203125
 20
-2.397441948784721
 30
0.0
 10
14.97152370876736
 20
-2.397441948784721
 30
0.0
 10
14.97152370876736
 20
-2.397441948784721
 30
0.0
 10
14.97152370876736
 20
-2.397441948784721
 30
0.0
 10
14.97152370876736
 20
0.8302680121527775
 30
0.0
 10
14.97152370876736
 20
0.8302680121527775
 30
0.0
 10
14.97152370876736
 20
0.8302680121527775
 30
0.0
 10
16.22071533203125
 20
0.8419813368055553
 30
0.0
 10
16.22071533203125
 20
0.8419813368055553
 30
0.0
  0
SPLINE
  5
45B
330
430
100
AcDbEntity
  8
レイヤー_1
 62
     7
100
AcDbSpline
210
0.0
220
0.0
230
1.0
 70
    11
 71
     3
 72
    29
 73
    25
 74
     0
 42
0.0000000001
 43
0.0000000001
 40
0.0
 40
0.0
 40
0.0
 40
0.0
 40
1.0
 40
1.0
 40
1.0
 40
2.0
 40
2.0
 40
2.0
 40
3.0
 40
3.0
 40
3.0
 40
4.0
 40
4.0
 40
4.0
 40
5.0
 40
5.0
 40
5.0
 40
6.0
 40
6.0
 40
6.0
 40
7.0
 40
7.0
 40
7.0
 40
8.0
 40
8.0
 40
8.0
 40
8.0
 10
-1.027671983506944
 20
5.518009440104167
 30
0.0
 10
-1.027671983506944
 20
5.664081488715277
 30
0.0
 10
-0.9170844184027775
 20
5.782592773437499
 30
0.0
 10
-0.7806586371527777
 20
5.782592773437499
 30
0.0
 10
-0.7806586371527777
 20
5.782592773437499
 30
0.0
 10
11.06891954210069
 20
5.782592773437499
 30
0.0
 10
11.06891954210069
 20
5.782592773437499
 30
0.0
 10
11.20465630425347
 20
5.782592773437499
 30
0.0
 10
11.31558837890624
 20
5.664081488715277
 30
0.0
 10
11.31558837890624
 20
5.518009440104167
 30
0.0
 10
11.31558837890624
 20
5.518009440104167
 30
0.0
 10
11.31558837890624
 20
-7.160286458333332
 30
0.0
 10
11.31558837890624
 20
-7.160286458333332
 30
0.0
 10
11.31558837890624
 20
-7.30601399739583
 30
0.0
 10
11.20465630425347
 20
-7.424525282118053
 30
0.0
 10
11.06891954210069
 20
-7.424525282118053
 30
0.0
 10
11.06891954210069
 20
-7.424525282118053
 30
0.0
 10
-0.7806586371527777
 20
-7.424525282118053
 30
0.0
 10
-0.7806586371527777
 20
-7.424525282118053
 30
0.0
 10
-0.9170844184027775
 20
-7.424525282118053
 30
0.0
 10
-1.027671983506944
 20
-7.30601399739583
 30
0.0
 10
-1.027671983506944
 20
-7.160286458333332
 30
0.0
 10
-1.027671983506944
 20
-7.160286458333332
 30
0.0
 10
-1.027671983506944
 20
5.518009440104167
 30
0.0
 10
-1.027671983506944
 20
5.518009440104167
 30
0.0
  0
POLYLINE
  5
45C
330
430
100
AcDbEntity
  8
レイヤー_1
 62
     7
100
AcDb2dPolyline
 66
     1
 10
0.0
 20
0.0
 30
0.0
 70
     1
  0
VERTEX
  5
45D
330
45C
100
AcDbEntity
  8
レイヤー_1
 62
     7
100
AcDbVertex
100
AcDb2dVertex
 10
5.755031999999999
 20
-2.955892
 30
0.0
  0
VERTEX
  5
45E
330
45C
100
AcDbEntity
  8
レイヤー_1
 62
     7
100
AcDbVertex
100
AcDb2dVertex
 10
9.843154999999999
 20
-2.955892
 30
0.0
  0
VERTEX
  5
45F
330
45C
100
AcDbEntity
  8
レイヤー_1
 62
     7
100
AcDbVertex
100
AcDb2dVertex
 10
9.843154999999999
 20
-4.758366
 30
0.0
  0
VERTEX
  5
460
330
45C
100
AcDbEntity
  8
レイヤー_1
 62
     7
100
AcDbVertex
100
AcDb2dVertex
 10
5.755031999999999
 20
-4.758366
 30
0.0
  0
SEQEND
  5
461
330
45C
100
AcDbEntity
  8
レイヤー_1
 62
     7
  0
POLYLINE
  5
462
330
430
100
AcDbEntity
  8
レイヤー_1
 62
     7
100
AcDb2dPolyline
 66
     1
 10
0.0
 20
0.0
 30
0.0
 70
     1
  0
VERTEX
  5
463
330
462
100
AcDbEntity
  8
レイヤー_1
 62
     7
100
AcDbVertex
100
AcDb2dVertex
 10
5.297868
 20
3.416846
 30
0.0
  0
VERTEX
  5
464
330
462
100
AcDbEntity
  8
レイヤー_1
 62
     7
100
AcDbVertex
100
AcDb2dVertex
 10
9.843154999999999
 20
3.416846
 30
0.0
  0
VERTEX
  5
465
330
462
100
AcDbEntity
  8
レイヤー_1
 62
     7
100
AcDbVertex
100
AcDb2dVertex
 10
9.843154999999999
 20
1.614027
 30
0.0
  0
VERTEX
  5
466
330
462
100
AcDbEntity
  8
レイヤー_1
 62
     7
100
AcDbVertex
100
AcDb2dVertex
 10
5.297868
 20
1.614027
 30
0.0
  0
SEQEND
  5
467
330
462
100
AcDbEntity
  8
レイヤー_1
 62
     7
  0
SPLINE
  5
468
330
430
100
AcDbEntity
  8
レイヤー_1
 62
     7
100
AcDbSpline
210
0.0
220
0.0
230
1.0
 70
    11
 71
     3
 72
    20
 73
    16
 74
     0
 42
0.0000000001
 43
0.0000000001
 40
0.0
 40
0.0
 40
0.0
 40
0.0
 40
1.0
 40
1.0
 40
1.0
 40
2.0
 40
2.0
 40
2.0
 40
3.0
 40
3.0
 40
3.0
 40
4.0
 40
4.0
 40
4.0
 40
5.0
 40
5.0
 40
5.0
 40
5.0
 10
1.952335611979165
 20
0.8419813368055553
 30
0.0
 10
2.846682400173611
 20
0.8419813368055553
 30
0.0
 10
3.571874999999999
 20
0.1164442274305556
 30
0.0
 10
3.571874999999999
 20
-0.7779025607638889
 30
0.0
 10
3.571874999999999
 20
-1.672249348958333
 30
0.0
 10
2.846682400173611
 20
-2.397441948784721
 30
0.0
 10
1.952335611979165
 20
-2.397441948784721
 30
0.0
 10
1.952335611979165
 20
-2.397441948784721
 30
0.0
 10
0.7027994791666666
 20
-2.397441948784721
 30
0.0
 10
0.7027994791666666
 20
-2.397441948784721
 30
0.0
 10
0.7027994791666666
 20
-2.397441948784721
 30
0.0
 10
0.7027994791666666
 20
0.8302680121527775
 30
0.0
 10
0.7027994791666666
 20
0.8302680121527775
 30
0.0
 10
0.7027994791666666
 20
0.8302680121527775
 30
0.0
 10
1.952335611979165
 20
0.8419813368055553
 30
0.0
 10
1.952335611979165
 20
0.8419813368055553
 30
0.0
  0
POLYLINE
  5
469
330
430
100
AcDbEntity
  8
レイヤー_1
 62
     7
100
AcDb2dPolyline
 66
     1
 10
0.0
 20
0.0
 30
0.0
 70
     1
  0
VERTEX
  5
46A
330
469
100
AcDbEntity
  8
レイヤー_1
 62
     7
100
AcDbVertex
100
AcDb2dVertex
 10
-9.554627999999999
 20
-3.311426
 30
0.0
  0
VERTEX
  5
46B
330
469
100
AcDbEntity
  8
レイヤー_1
 62
     7
100
AcDbVertex
100
AcDb2dVertex
 10
-4.730461
 20
-3.311426
 30
0.0
  0
VERTEX
  5
46C
330
469
100
AcDbEntity
  8
レイヤー_1
 62
     7
100
AcDbVertex
100
AcDb2dVertex
 10
-4.730461
 20
-10.572998
 30
0.0
  0
VERTEX
  5
46D
330
469
100
AcDbEntity
  8
レイヤー_1
 62
     7
100
AcDbVertex
100
AcDb2dVertex
 10
-9.554627999999999
 20
-10.572998
 30
0.0
  0
SEQEND
  5
46E
330
469
100
AcDbEntity
  8
レイヤー_1
 62
     7
  0
CIRCLE
  5
46F
330
430
100
AcDbEntity
  8
レイヤー_1
 62
     7
100
AcDbCircle
 10
-6.009451999999998
 20
-4.971273
 30
0.0
 40
0.8759159999999999
  0
CIRCLE
  5
470
330
430
100
AcDbEntity
  8
レイヤー_1
 62
     7
100
AcDbCircle
 10
-8.294584
 20
-4.971273
 30
0.0
 40
0.8759159999999999
  0
LINE
  5
471
330
430
100
AcDbEntity
  8
レイヤー_1
 62
     7
100
AcDbLine
 10
-4.762154999999999
 20
-7.494461
 30
0.0
 11
-9.580121999999999
 21
-7.494461
 31
0.0
  0
LINE
  5
472
330
430
100
AcDbEntity
  8
レイヤー_1
 62
     7
100
AcDbLine
 10
-4.723914999999998
 20
-7.037296999999998
 30
0.0
 11
-9.541881
 21
-7.037296999999998
 31
0.0
  0
LINE
  5
473
330
430
100
AcDbEntity
  8
レイヤー_1
 62
     7
100
AcDbLine
 10
-4.723914999999998
 20
-6.770646000000001
 30
0.0
 11
-9.541881
 21
-6.770646000000001
 31
0.0
  0
LINE
  5
474
330
430
100
AcDbEntity
  8
レイヤー_1
 62
     7
100
AcDbLine
 10
-4.762154999999999
 20
-6.275585999999998
 30
0.0
 11
-9.580121999999999
 21
-6.275585999999998
 31
0.0
  0
LINE
  5
475
330
430
100
AcDbEntity
  8
レイヤー_1
 62
     7
100
AcDbLine
 10
-7.180613
 20
-7.526155999999998
 30
0.0
 11
-7.180613
 21
-6.294533999999998
 31
0.0
  0
CIRCLE
  5
476
330
430
100
AcDbEntity
  8
レイヤー_1
 62
     7
100
AcDbCircle
 10
-16.114606
 20
-4.971273
 30
0.0
 40
0.8759159999999999
  0
CIRCLE
  5
477
330
430
100
AcDbEntity
  8
レイヤー_1
 62
     7
100
AcDbCircle
 10
-18.399738
 20
-4.971273
 30
0.0
 40
0.8759159999999999
  0
CIRCLE
  5
478
330
430
100
AcDbEntity
  8
レイヤー_1
 62
     7
100
AcDbCircle
 10
-20.970468
 20
-4.971273
 30
0.0
 40
0.8759159999999999
  0
CIRCLE
  5
479
330
430
100
AcDbEntity
  8
レイヤー_1
 62
     7
100
AcDbCircle
 10
-23.255428
 20
-4.971273
 30
0.0
 40
0.8760879999999996
  0
CIRCLE
  5
47A
330
430
100
AcDbEntity
  8
レイヤー_1
 62
     7
100
AcDbCircle
 10
-25.788004
 20
-4.971273
 30
0.0
 40
0.876002
  0
CIRCLE
  5
47B
330
430
100
AcDbEntity
  8
レイヤー_1
 62
     7
100
AcDbCircle
 10
-28.07305
 20
-4.971273
 30
0.0
 40
0.8759159999999999
  0
CIRCLE
  5
47C
330
430
100
AcDbEntity
  8
レイヤー_1
 62
     7
100
AcDbCircle
 10
-30.54525
 20
-4.971273
 30
0.0
 40
0.8759159999999999
  0
CIRCLE
  5
47D
330
430
100
AcDbEntity
  8
レイヤー_1
 62
     7
100
AcDbCircle
 10
-32.830382
 20
-4.971273
 30
0.0
 40
0.8759159999999999
  0
POLYLINE
  5
47E
330
430
100
AcDbEntity
  8
レイヤー_1
 62
     7
100
AcDb2dPolyline
 66
     1
 10
0.0
 20
0.0
 30
0.0
 70
     1
  0
VERTEX
  5
47F
330
47E
100
AcDbEntity
  8
レイヤー_1
 62
     7
100
AcDbVertex
100
AcDb2dVertex
 10
-34.10679
 20
-3.311426
 30
0.0
  0
VERTEX
  5
480
330
47E
100
AcDbEntity
  8
レイヤー_1
 62
     7
100
AcDbVertex
100
AcDb2dVertex
 10
-14.778082
 20
-3.311426
 30
0.0
  0
VERTEX
  5
481
330
47E
100
AcDbEntity
  8
レイヤー_1
 62
     7
100
AcDbVertex
100
AcDb2dVertex
 10
-14.778082
 20
-10.572998
 30
0.0
  0
VERTEX
  5
482
330
47E
100
AcDbEntity
  8
レイヤー_1
 62
     7
100
AcDbVertex
100
AcDb2dVertex
 10
-34.10679
 20
-10.572998
 30
0.0
  0
SEQEND
  5
483
330
47E
100
AcDbEntity
  8
レイヤー_1
 62
     7
  0
LINE
  5
484
330
430
100
AcDbEntity
  8
レイヤー_1
 62
     7
100
AcDbLine
 10
-14.83527
 20
-7.494461
 30
0.0
 11
-34.207903
 21
-7.494461
 31
0.0
  0
LINE
  5
485
330
430
100
AcDbEntity
  8
レイヤー_1
 62
     7
100
AcDbLine
 10
-14.753277
 20
-7.037296999999998
 30
0.0
 11
-34.055286
 21
-7.037296999999998
 31
0.0
  0
LINE
  5
486
330
430
100
AcDbEntity
  8
レイヤー_1
 62
     7
100
AcDbLine
 10
-14.753277
 20
-6.770646000000001
 30
0.0
 11
-34.055286
 21
-6.770646000000001
 31
0.0
  0
LINE
  5
487
330
430
100
AcDbEntity
  8
レイヤー_1
 62
     7
100
AcDbLine
 10
-14.854563
 20
-6.275585999999998
 30
0.0
 11
-34.207903
 21
-6.275585999999998
 31
0.0
  0
LINE
  5
488
330
430
100
AcDbEntity
  8
レイヤー_1
 62
     7
100
AcDbLine
 10
-17.264062
 20
-7.526155999999998
 30
0.0
 11
-17.264062
 21
-6.294533999999998
 31
0.0
  0
LINE
  5
489
330
430
100
AcDbEntity
  8
レイヤー_1
 62
     7
100
AcDbLine
 10
-19.663227
 20
-7.526155999999998
 30
0.0
 11
-19.663227
 21
-6.294533999999998
 31
0.0
  0
LINE
  5
48A
330
430
100
AcDbEntity
  8
レイヤー_1
 62
     7
100
AcDbLine
 10
-22.062391
 20
-7.526155999999998
 30
0.0
 11
-22.062391
 21
-6.294533999999998
 31
0.0
  0
LINE
  5
48B
330
430
100
AcDbEntity
  8
レイヤー_1
 62
     7
100
AcDbLine
 10
-24.4619
 20
-7.526155999999998
 30
0.0
 11
-24.4619
 21
-6.294533999999998
 31
0.0
  0
LINE
  5
48C
330
430
100
AcDbEntity
  8
レイヤー_1
 62
     7
100
AcDbLine
 10
-26.861237
 20
-7.526155999999998
 30
0.0
 11
-26.861237
 21
-6.294533999999998
 31
0.0
  0
LINE
  5
48D
330
430
100
AcDbEntity
  8
レイヤー_1
 62
     7
100
AcDbLine
 10
-29.260574
 20
-7.526155999999998
 30
0.0
 11
-29.260574
 21
-6.294533999999998
 31
0.0
  0
LINE
  5
48E
330
430
100
AcDbEntity
  8
レイヤー_1
 62
     7
100
AcDbLine
 10
-31.659911
 20
-7.526155999999998
 30
0.0
 11
-31.659911
 21
-6.294533999999998
 31
0.0
  0
CIRCLE
  5
48F
330
430
100
AcDbEntity
  8
レイヤー_1
 62
     7
100
AcDbCircle
 10
-32.84640200000001
 20
3.169143
 30
0.0
 40
0.8759159999999999
  0
CIRCLE
  5
490
330
430
100
AcDbEntity
  8
レイヤー_1
 62
     7
100
AcDbCircle
 10
-30.561356
 20
3.169143
 30
0.0
 40
0.876002
  0
CIRCLE
  5
491
330
430
100
AcDbEntity
  8
レイヤー_1
 62
     7
100
AcDbCircle
 10
-27.990712
 20
3.169143
 30
0.0
 40
0.8759159999999999
  0
CIRCLE
  5
492
330
430
100
AcDbEntity
  8
レイヤー_1
 62
     7
100
AcDbCircle
 10
-25.705494
 20
3.169143
 30
0.0
 40
0.876002
  0
CIRCLE
  5
493
330
430
100
AcDbEntity
  8
レイヤー_1
 62
     7
100
AcDbCircle
 10
-23.172918
 20
3.169143
 30
0.0
 40
0.8759159999999999
  0
CIRCLE
  5
494
330
430
100
AcDbEntity
  8
レイヤー_1
 62
     7
100
AcDbCircle
 10
-20.887958
 20
3.169143
 30
0.0
 40
0.8760879999999996
  0
CIRCLE
  5
495
330
430
100
AcDbEntity
  8
レイヤー_1
 62
     7
100
AcDbCircle
 10
-18.415758
 20
3.169143
 30
0.0
 40
0.8760879999999996
  0
CIRCLE
  5
496
330
430
100
AcDbEntity
  8
レイヤー_1
 62
     7
100
AcDbCircle
 10
-16.130798
 20
3.169143
 30
0.0
 40
0.8759159999999999
  0
POLYLINE
  5
497
330
430
100
AcDbEntity
  8
レイヤー_1
 62
     7
100
AcDb2dPolyline
 66
     1
 10
0.0
 20
0.0
 30
0.0
 70
     1
  0
VERTEX
  5
498
330
497
100
AcDbEntity
  8
レイヤー_1
 62
     7
100
AcDbVertex
100
AcDb2dVertex
 10
-14.854218
 20
1.509295999999999
 30
0.0
  0
VERTEX
  5
499
330
497
100
AcDbEntity
  8
レイヤー_1
 62
     7
100
AcDbVertex
100
AcDb2dVertex
 10
-34.182926
 20
1.509295999999999
 30
0.0
  0
VERTEX
  5
49A
330
497
100
AcDbEntity
  8
レイヤー_1
 62
     7
100
AcDbVertex
100
AcDb2dVertex
 10
-34.182926
 20
8.770868999999999
 30
0.0
  0
VERTEX
  5
49B
330
497
100
AcDbEntity
  8
レイヤー_1
 62
     7
100
AcDbVertex
100
AcDb2dVertex
 10
-14.854218
 20
8.770868999999999
 30
0.0
  0
SEQEND
  5
49C
330
497
100
AcDbEntity
  8
レイヤー_1
 62
     7
  0
LINE
  5
49D
330
430
100
AcDbEntity
  8
レイヤー_1
 62
     7
100
AcDbLine
 10
-34.125566
 20
5.692330999999998
 30
0.0
 11
-14.753277
 21
5.692330999999998
 31
0.0
  0
LINE
  5
49E
330
430
100
AcDbEntity
  8
レイヤー_1
 62
     7
100
AcDbLine
 10
-34.207903
 20
5.235166999999998
 30
0.0
 11
-14.90555
 21
5.235166999999998
 31
0.0
  0
LINE
  5
49F
330
430
100
AcDbEntity
  8
レイヤー_1
 62
     7
100
AcDbLine
 10
-34.207903
 20
4.968861
 30
0.0
 11
-14.90555
 21
4.968861
 31
0.0
  0
LINE
  5
4A0
330
430
100
AcDbEntity
  8
レイヤー_1
 62
     7
100
AcDbLine
 10
-34.106445
 20
4.473800999999999
 30
0.0
 11
-14.753277
 21
4.473800999999999
 31
0.0
  0
LINE
  5
4A1
330
430
100
AcDbEntity
  8
レイヤー_1
 62
     7
100
AcDbLine
 10
-31.696946
 20
5.724026
 30
0.0
 11
-31.696946
 21
4.492748999999998
 31
0.0
  0
LINE
  5
4A2
330
430
100
AcDbEntity
  8
レイヤー_1
 62
     7
100
AcDbLine
 10
-29.297781
 20
5.724026
 30
0.0
 11
-29.297781
 21
4.492748999999998
 31
0.0
  0
LINE
  5
4A3
330
430
100
AcDbEntity
  8
レイヤー_1
 62
     7
100
AcDbLine
 10
-26.898444
 20
5.724026
 30
0.0
 11
-26.898444
 21
4.492748999999998
 31
0.0
  0
LINE
  5
4A4
330
430
100
AcDbEntity
  8
レイヤー_1
 62
     7
100
AcDbLine
 10
-24.499108
 20
5.724026
 30
0.0
 11
-24.499108
 21
4.492748999999998
 31
0.0
  0
LINE
  5
4A5
330
430
100
AcDbEntity
  8
レイヤー_1
 62
     7
100
AcDbLine
 10
-22.099599
 20
5.724026
 30
0.0
 11
-22.099599
 21
4.492748999999998
 31
0.0
  0
LINE
  5
4A6
330
430
100
AcDbEntity
  8
レイヤー_1
 62
     7
100
AcDbLine
 10
-19.700434
 20
5.724026
 30
0.0
 11
-19.700434
 21
4.492748999999998
 31
0.0
  0
LINE
  5
4A7
330
430
100
AcDbEntity
  8
レイヤー_1
 62
     7
100
AcDbLine
 10
-17.30127
 20
5.724026
 30
0.0
 11
-17.30127
 21
4.492748999999998
 31
0.0
  0
POLYLINE
  5
4A8
330
430
100
AcDbEntity
  8
レイヤー_1
 62
     7
100
AcDb2dPolyline
 66
     1
 10
0.0
 20
0.0
 30
0.0
 70
     1
  0
VERTEX
  5
4A9
330
4A8
100
AcDbEntity
  8
レイヤー_1
 62
     7
100
AcDbVertex
100
AcDb2dVertex
 10
-4.749408999999999
 20
1.410767
 30
0.0
  0
VERTEX
  5
4AA
330
4A8
100
AcDbEntity
  8
レイヤー_1
 62
     7
100
AcDbVertex
100
AcDb2dVertex
 10
-9.573575999999999
 20
1.410767
 30
0.0
  0
VERTEX
  5
4AB
330
4A8
100
AcDbEntity
  8
レイヤー_1
 62
     7
100
AcDbVertex
100
AcDb2dVertex
 10
-9.573575999999999
 20
8.672338999999999
 30
0.0
  0
VERTEX
  5
4AC
330
4A8
100
AcDbEntity
  8
レイヤー_1
 62
     7
100
AcDbVertex
100
AcDb2dVertex
 10
-4.749408999999999
 20
8.672338999999999
 30
0.0
  0
SEQEND
  5
4AD
330
4A8
100
AcDbEntity
  8
レイヤー_1
 62
     7
  0
CIRCLE
  5
4AE
330
430
100
AcDbEntity
  8
レイヤー_1
 62
     7
100
AcDbCircle
 10
-8.294584
 20
3.070613999999998
 30
0.0
 40
0.8759159999999999
  0
CIRCLE
  5
4AF
330
430
100
AcDbEntity
  8
レイヤー_1
 62
     7
100
AcDbCircle
 10
-6.009451999999998
 20
3.070613999999998
 30
0.0
 40
0.8759159999999999
  0
LINE
  5
4B0
330
430
100
AcDbEntity
  8
レイヤー_1
 62
     7
100
AcDbLine
 10
-9.541881
 20
5.593801999999998
 30
0.0
 11
-4.723914999999998
 21
5.593801999999998
 31
0.0
  0
LINE
  5
4B1
330
430
100
AcDbEntity
  8
レイヤー_1
 62
     7
100
AcDbLine
 10
-9.580121999999999
 20
5.136981999999998
 30
0.0
 11
-4.762154999999999
 21
5.136981999999998
 31
0.0
  0
LINE
  5
4B2
330
430
100
AcDbEntity
  8
レイヤー_1
 62
     7
100
AcDbLine
 10
-9.580121999999999
 20
4.870331
 30
0.0
 11
-4.762154999999999
 21
4.870331
 31
0.0
  0
LINE
  5
4B3
330
430
100
AcDbEntity
  8
レイヤー_1
 62
     7
100
AcDbLine
 10
-9.541881
 20
4.375270999999998
 30
0.0
 11
-4.723914999999998
 21
4.375270999999998
 31
0.0
  0
LINE
  5
4B4
330
430
100
AcDbEntity
  8
レイヤー_1
 62
     7
100
AcDbLine
 10
-7.123424
 20
5.625841
 30
0.0
 11
-7.123424
 21
4.394219
 31
0.0
  0
CIRCLE
  5
4B5
330
430
100
AcDbEntity
  8
レイヤー_1
 62
     7
100
AcDbCircle
 10
-10.592463
 20
-1.077280999999999
 30
0.0
 40
1.485353
  0
POLYLINE
  5
4B6
330
430
100
AcDbEntity
  8
レイヤー_1
 62
     7
100
AcDb2dPolyline
 66
     1
 10
0.0
 20
0.0
 30
0.0
 70
     1
  0
VERTEX
  5
4B7
330
4B6
100
AcDbEntity
  8
レイヤー_1
 62
     7
100
AcDbVertex
100
AcDb2dVertex
 10
-11.363647
 20
-1.258148999999998
 30
0.0
  0
VERTEX
  5
4B8
330
4B6
100
AcDbEntity
  8
レイヤー_1
 62
     7
100
AcDbVertex
100
AcDb2dVertex
 10
-10.773503
 20
-1.258148999999998
 30
0.0
  0
VERTEX
  5
4B9
330
4B6
100
AcDbEntity
  8
レイヤー_1
 62
     7
100
AcDbVertex
100
AcDb2dVertex
 10
-10.773503
 20
-1.848293999999999
 30
0.0
  0
VERTEX
  5
4BA
330
4B6
100
AcDbEntity
  8
レイヤー_1
 62
     7
100
AcDbVertex
100
AcDb2dVertex
 10
-10.411423
 20
-1.848293999999999
 30
0.0
  0
VERTEX
  5
4BB
330
4B6
100
AcDbEntity
  8
レイヤー_1
 62
     7
100
AcDbVertex
100
AcDb2dVertex
 10
-10.411423
 20
-1.258148999999998
 30
0.0
  0
VERTEX
  5
4BC
330
4B6
100
AcDbEntity
  8
レイヤー_1
 62
     7
100
AcDbVertex
100
AcDb2dVertex
 10
-9.821277999999999
 20
-1.258148999999998
 30
0.0
  0
VERTEX
  5
4BD
330
4B6
100
AcDbEntity
  8
レイヤー_1
 62
     7
100
AcDbVertex
100
AcDb2dVertex
 10
-9.821277999999999
 20
-0.8960689999999999
 30
0.0
  0
VERTEX
  5
4BE
330
4B6
100
AcDbEntity
  8
レイヤー_1
 62
     7
100
AcDbVertex
100
AcDb2dVertex
 10
-10.411423
 20
-0.8960689999999999
 30
0.0
  0
VERTEX
  5
4BF
330
4B6
100
AcDbEntity
  8
レイヤー_1
 62
     7
100
AcDbVertex
100
AcDb2dVertex
 10
-10.411423
 20
-0.305924
 30
0.0
  0
VERTEX
  5
4C0
330
4B6
100
AcDbEntity
  8
レイヤー_1
 62
     7
100
AcDbVertex
100
AcDb2dVertex
 10
-10.773503
 20
-0.305924
 30
0.0
  0
VERTEX
  5
4C1
330
4B6
100
AcDbEntity
  8
レイヤー_1
 62
     7
100
AcDbVertex
100
AcDb2dVertex
 10
-10.773503
 20
-0.8960689999999999
 30
0.0
  0
VERTEX
  5
4C2
330
4B6
100
AcDbEntity
  8
レイヤー_1
 62
     7
100
AcDbVertex
100
AcDb2dVertex
 10
-11.363647
 20
-0.8960689999999999
 30
0.0
  0
SEQEND
  5
4C3
330
4B6
100
AcDbEntity
  8
レイヤー_1
 62
     7
  0
CIRCLE
  5
4C4
330
430
100
AcDbEntity
  8
レイヤー_1
 62
     7
100
AcDbCircle
 10
-35.27097400000001
 20
-1.029395
 30
0.0
 40
1.485267
  0
POLYLINE
  5
4C5
330
430
100
AcDbEntity
  8
レイヤー_1
 62
     7
100
AcDb2dPolyline
 66
     1
 10
0.0
 20
0.0
 30
0.0
 70
     1
  0
VERTEX
  5
4C6
330
4C5
100
AcDbEntity
  8
レイヤー_1
 62
     7
100
AcDbVertex
100
AcDb2dVertex
 10
-36.042244
 20
-1.210262
 30
0.0
  0
VERTEX
  5
4C7
330
4C5
100
AcDbEntity
  8
レイヤー_1
 62
     7
100
AcDbVertex
100
AcDb2dVertex
 10
-35.45192700000001
 20
-1.210262
 30
0.0
  0
VERTEX
  5
4C8
330
4C5
100
AcDbEntity
  8
レイヤー_1
 62
     7
100
AcDbVertex
100
AcDb2dVertex
 10
-35.45192700000001
 20
-1.800750999999999
 30
0.0
  0
VERTEX
  5
4C9
330
4C5
100
AcDbEntity
  8
レイヤー_1
 62
     7
100
AcDbVertex
100
AcDb2dVertex
 10
-35.09002000000001
 20
-1.800750999999999
 30
0.0
  0
VERTEX
  5
4CA
330
4C5
100
AcDbEntity
  8
レイヤー_1
 62
     7
100
AcDbVertex
100
AcDb2dVertex
 10
-35.09002000000001
 20
-1.210262
 30
0.0
  0
VERTEX
  5
4CB
330
4C5
100
AcDbEntity
  8
レイヤー_1
 62
     7
100
AcDbVertex
100
AcDb2dVertex
 10
-34.49987500000001
 20
-1.210262
 30
0.0
  0
VERTEX
  5
4CC
330
4C5
100
AcDbEntity
  8
レイヤー_1
 62
     7
100
AcDbVertex
100
AcDb2dVertex
 10
-34.49987500000001
 20
-0.8485269999999999
 30
0.0
  0
VERTEX
  5
4CD
330
4C5
100
AcDbEntity
  8
レイヤー_1
 62
     7
100
AcDbVertex
100
AcDb2dVertex
 10
-35.09002000000001
 20
-0.8485269999999999
 30
0.0
  0
VERTEX
  5
4CE
330
4C5
100
AcDbEntity
  8
レイヤー_1
 62
     7
100
AcDbVertex
100
AcDb2dVertex
 10
-35.09002000000001
 20
-0.258382
 30
0.0
  0
VERTEX
  5
4CF
330
4C5
100
AcDbEntity
  8
レイヤー_1
 62
     7
100
AcDbVertex
100
AcDb2dVertex
 10
-35.45192700000001
 20
-0.258382
 30
0.0
  0
VERTEX
  5
4D0
330
4C5
100
AcDbEntity
  8
レイヤー_1
 62
     7
100
AcDbVertex
100
AcDb2dVertex
 10
-35.45192700000001
 20
-0.8485269999999999
 30
0.0
  0
VERTEX
  5
4D1
330
4C5
100
AcDbEntity
  8
レイヤー_1
 62
     7
100
AcDbVertex
100
AcDb2dVertex
 10
-36.042244
 20
-0.8485269999999999
 30
0.0
  0
SEQEND
  5
4D2
330
4C5
100
AcDbEntity
  8
レイヤー_1
 62
     7
  0
ENDBLK
  5
4D3
330
430
100
AcDbEntity
  8
レイヤー_1
100
AcDbBlockEnd
  0
BLOCK
  5
4D5
330
4D4
100
AcDbEntity
  8
レイヤー_1
 62
     7
100
AcDbBlockBegin
  2
AI9-BLK3
 70
     0
 10
0.0
 20
0.0
 30
0.0
  3
AI9-BLK3
  1

  0
CIRCLE
  5
4D6
330
4D4
100
AcDbEntity
  8
レイヤー_1
 62
     7
100
AcDbCircle
 10
0.0
 20
-0.000172
 30
0.0
 40
1.485524999999999
  0
POLYLINE
  5
4D7
330
4D4
100
AcDbEntity
  8
レイヤー_1
 62
     7
100
AcDb2dPolyline
 66
     1
 10
0.0
 20
0.0
 30
0.0
 70
     1
  0
VERTEX
  5
4D8
330
4D7
100
AcDbEntity
  8
レイヤー_1
 62
     7
100
AcDbVertex
100
AcDb2dVertex
 10
0.771012
 20
0.180695
 30
0.0
  0
VERTEX
  5
4D9
330
4D7
100
AcDbEntity
  8
レイヤー_1
 62
     7
100
AcDbVertex
100
AcDb2dVertex
 10
0.181212
 20
0.180695
 30
0.0
  0
VERTEX
  5
4DA
330
4D7
100
AcDbEntity
  8
レイヤー_1
 62
     7
100
AcDbVertex
100
AcDb2dVertex
 10
0.181212
 20
0.771185
 30
0.0
  0
VERTEX
  5
4DB
330
4D7
100
AcDbEntity
  8
レイヤー_1
 62
     7
100
AcDbVertex
100
AcDb2dVertex
 10
-0.181212
 20
0.771185
 30
0.0
  0
VERTEX
  5
4DC
330
4D7
100
AcDbEntity
  8
レイヤー_1
 62
     7
100
AcDbVertex
100
AcDb2dVertex
 10
-0.181212
 20
0.180695
 30
0.0
  0
VERTEX
  5
4DD
330
4D7
100
AcDbEntity
  8
レイヤー_1
 62
     7
100
AcDbVertex
100
AcDb2dVertex
 10
-0.771012
 20
0.180695
 30
0.0
  0
VERTEX
  5
4DE
330
4D7
100
AcDbEntity
  8
レイヤー_1
 62
     7
100
AcDbVertex
100
AcDb2dVertex
 10
-0.771012
 20
-0.18104
 30
0.0
  0
VERTEX
  5
4DF
330
4D7
100
AcDbEntity
  8
レイヤー_1
 62
     7
100
AcDbVertex
100
AcDb2dVertex
 10
-0.181212
 20
-0.18104
 30
0.0
  0
VERTEX
  5
4E0
330
4D7
100
AcDbEntity
  8
レイヤー_1
 62
     7
100
AcDbVertex
100
AcDb2dVertex
 10
-0.181212
 20
-0.771185
 30
0.0
  0
VERTEX
  5
4E1
330
4D7
100
AcDbEntity
  8
レイヤー_1
 62
     7
100
AcDbVertex
100
AcDb2dVertex
 10
0.181212
 20
-0.771185
 30
0.0
  0
VERTEX
  5
4E2
330
4D7
100
AcDbEntity
  8
レイヤー_1
 62
     7
100
AcDbVertex
100
AcDb2dVertex
 10
0.181212
 20
-0.18104
 30
0.0
  0
VERTEX
  5
4E3
330
4D7
100
AcDbEntity
  8
レイヤー_1
 62
     7
100
AcDbVertex
100
AcDb2dVertex
 10
0.771012
 20
-0.18104
 30
0.0
  0
SEQEND
  5
4E4
330
4D7
100
AcDbEntity
  8
レイヤー_1
 62
     7
  0
ENDBLK
  5
4E5
330
4D4
100
AcDbEntity
  8
レイヤー_1
100
AcDbBlockEnd
  0
BLOCK
  5
4E7
330
4E6
100
AcDbEntity
  8
レイヤー_1
 62
     7
100
AcDbBlockBegin
  2
AI9-BLK4
 70
     0
 10
0.0
 20
0.0
 30
0.0
  3
AI9-BLK4
  1

  0
CIRCLE
  5
4E8
330
4E6
100
AcDbEntity
  8
レイヤー_1
 62
     7
100
AcDbCircle
 10
0.0
 20
-0.000172
 30
0.0
 40
1.485524999999999
  0
POLYLINE
  5
4E9
330
4E6
100
AcDbEntity
  8
レイヤー_1
 62
     7
100
AcDb2dPolyline
 66
     1
 10
0.0
 20
0.0
 30
0.0
 70
     1
  0
VERTEX
  5
4EA
330
4E9
100
AcDbEntity
  8
レイヤー_1
 62
     7
100
AcDbVertex
100
AcDb2dVertex
 10
0.771012
 20
0.180695
 30
0.0
  0
VERTEX
  5
4EB
330
4E9
100
AcDbEntity
  8
レイヤー_1
 62
     7
100
AcDbVertex
100
AcDb2dVertex
 10
0.181212
 20
0.180695
 30
0.0
  0
VERTEX
  5
4EC
330
4E9
100
AcDbEntity
  8
レイヤー_1
 62
     7
100
AcDbVertex
100
AcDb2dVertex
 10
0.181212
 20
0.771185
 30
0.0
  0
VERTEX
  5
4ED
330
4E9
100
AcDbEntity
  8
レイヤー_1
 62
     7
100
AcDbVertex
100
AcDb2dVertex
 10
-0.180523
 20
0.771185
 30
0.0
  0
VERTEX
  5
4EE
330
4E9
100
AcDbEntity
  8
レイヤー_1
 62
     7
100
AcDbVertex
100
AcDb2dVertex
 10
-0.180523
 20
0.180695
 30
0.0
  0
VERTEX
  5
4EF
330
4E9
100
AcDbEntity
  8
レイヤー_1
 62
     7
100
AcDbVertex
100
AcDb2dVertex
 10
-0.771012
 20
0.180695
 30
0.0
  0
VERTEX
  5
4F0
330
4E9
100
AcDbEntity
  8
レイヤー_1
 62
     7
100
AcDbVertex
100
AcDb2dVertex
 10
-0.771012
 20
-0.18104
 30
0.0
  0
VERTEX
  5
4F1
330
4E9
100
AcDbEntity
  8
レイヤー_1
 62
     7
100
AcDbVertex
100
AcDb2dVertex
 10
-0.180523
 20
-0.18104
 30
0.0
  0
VERTEX
  5
4F2
330
4E9
100
AcDbEntity
  8
レイヤー_1
 62
     7
100
AcDbVertex
100
AcDb2dVertex
 10
-0.180523
 20
-0.771185
 30
0.0
  0
VERTEX
  5
4F3
330
4E9
100
AcDbEntity
  8
レイヤー_1
 62
     7
100
AcDbVertex
100
AcDb2dVertex
 10
0.181212
 20
-0.771185
 30
0.0
  0
VERTEX
  5
4F4
330
4E9
100
AcDbEntity
  8
レイヤー_1
 62
     7
100
AcDbVertex
100
AcDb2dVertex
 10
0.181212
 20
-0.18104
 30
0.0
  0
VERTEX
  5
4F5
330
4E9
100
AcDbEntity
  8
レイヤー_1
 62
     7
100
AcDbVertex
100
AcDb2dVertex
 10
0.771012
 20
-0.18104
 30
0.0
  0
SEQEND
  5
4F6
330
4E9
100
AcDbEntity
  8
レイヤー_1
 62
     7
  0
ENDBLK
  5
4F7
330
4E6
100
AcDbEntity
  8
レイヤー_1
100
AcDbBlockEnd
  0
BLOCK
  5
4F9
330
4F8
100
AcDbEntity
  8
レイヤー_1
 62
     7
100
AcDbBlockBegin
  2
AI9-BLK5
 70
     0
 10
0.0
 20
0.0
 30
0.0
  3
AI9-BLK5
  1

  0
CIRCLE
  5
4FA
330
4F8
100
AcDbEntity
  8
レイヤー_1
 62
     7
100
AcDbCircle
 10
0.0
 20
0.000172
 30
0.0
 40
1.485524999999999
  0
POLYLINE
  5
4FB
330
4F8
100
AcDbEntity
  8
レイヤー_1
 62
     7
100
AcDb2dPolyline
 66
     1
 10
0.0
 20
0.0
 30
0.0
 70
     1
  0
VERTEX
  5
4FC
330
4FB
100
AcDbEntity
  8
レイヤー_1
 62
     7
100
AcDbVertex
100
AcDb2dVertex
 10
0.771012
 20
0.18104
 30
0.0
  0
VERTEX
  5
4FD
330
4FB
100
AcDbEntity
  8
レイヤー_1
 62
     7
100
AcDbVertex
100
AcDb2dVertex
 10
0.181212
 20
0.18104
 30
0.0
  0
VERTEX
  5
4FE
330
4FB
100
AcDbEntity
  8
レイヤー_1
 62
     7
100
AcDbVertex
100
AcDb2dVertex
 10
0.181212
 20
0.771185
 30
0.0
  0
VERTEX
  5
4FF
330
4FB
100
AcDbEntity
  8
レイヤー_1
 62
     7
100
AcDbVertex
100
AcDb2dVertex
 10
-0.181212
 20
0.771185
 30
0.0
  0
VERTEX
  5
500
330
4FB
100
AcDbEntity
  8
レイヤー_1
 62
     7
100
AcDbVertex
100
AcDb2dVertex
 10
-0.181212
 20
0.18104
 30
0.0
  0
VERTEX
  5
501
330
4FB
100
AcDbEntity
  8
レイヤー_1
 62
     7
100
AcDbVertex
100
AcDb2dVertex
 10
-0.771012
 20
0.18104
 30
0.0
  0
VERTEX
  5
502
330
4FB
100
AcDbEntity
  8
レイヤー_1
 62
     7
100
AcDbVertex
100
AcDb2dVertex
 10
-0.771012
 20
-0.18104
 30
0.0
  0
VERTEX
  5
503
330
4FB
100
AcDbEntity
  8
レイヤー_1
 62
     7
100
AcDbVertex
100
AcDb2dVertex
 10
-0.181212
 20
-0.18104
 30
0.0
  0
VERTEX
  5
504
330
4FB
100
AcDbEntity
  8
レイヤー_1
 62
     7
100
AcDbVertex
100
AcDb2dVertex
 10
-0.181212
 20
-0.771185
 30
0.0
  0
VERTEX
  5
505
330
4FB
100
AcDbEntity
  8
レイヤー_1
 62
     7
100
AcDbVertex
100
AcDb2dVertex
 10
0.181212
 20
-0.771185
 30
0.0
  0
VERTEX
  5
506
330
4FB
100
AcDbEntity
  8
レイヤー_1
 62
     7
100
AcDbVertex
100
AcDb2dVertex
 10
0.181212
 20
-0.18104
 30
0.0
  0
VERTEX
  5
507
330
4FB
100
AcDbEntity
  8
レイヤー_1
 62
     7
100
AcDbVertex
100
AcDb2dVertex
 10
0.771012
 20
-0.18104
 30
0.0
  0
SEQEND
  5
508
330
4FB
100
AcDbEntity
  8
レイヤー_1
 62
     7
  0
ENDBLK
  5
509
330
4F8
100
AcDbEntity
  8
レイヤー_1
100
AcDbBlockEnd
  0
BLOCK
  5
50B
330
50A
100
AcDbEntity
  8
レイヤー_1
 62
     7
100
AcDbBlockBegin
  2
AI9-BLK6
 70
     0
 10
0.0
 20
0.0
 30
0.0
  3
AI9-BLK6
  1

  0
CIRCLE
  5
50C
330
50A
100
AcDbEntity
  8
レイヤー_1
 62
     7
100
AcDbCircle
 10
0.0
 20
0.000172
 30
0.0
 40
1.485524999999999
  0
POLYLINE
  5
50D
330
50A
100
AcDbEntity
  8
レイヤー_1
 62
     7
100
AcDb2dPolyline
 66
     1
 10
0.0
 20
0.0
 30
0.0
 70
     1
  0
VERTEX
  5
50E
330
50D
100
AcDbEntity
  8
レイヤー_1
 62
     7
100
AcDbVertex
100
AcDb2dVertex
 10
0.771012
 20
0.18104
 30
0.0
  0
VERTEX
  5
50F
330
50D
100
AcDbEntity
  8
レイヤー_1
 62
     7
100
AcDbVertex
100
AcDb2dVertex
 10
0.181212
 20
0.18104
 30
0.0
  0
VERTEX
  5
510
330
50D
100
AcDbEntity
  8
レイヤー_1
 62
     7
100
AcDbVertex
100
AcDb2dVertex
 10
0.181212
 20
0.771185
 30
0.0
  0
VERTEX
  5
511
330
50D
100
AcDbEntity
  8
レイヤー_1
 62
     7
100
AcDbVertex
100
AcDb2dVertex
 10
-0.180523
 20
0.771185
 30
0.0
  0
VERTEX
  5
512
330
50D
100
AcDbEntity
  8
レイヤー_1
 62
     7
100
AcDbVertex
100
AcDb2dVertex
 10
-0.180523
 20
0.18104
 30
0.0
  0
VERTEX
  5
513
330
50D
100
AcDbEntity
  8
レイヤー_1
 62
     7
100
AcDbVertex
100
AcDb2dVertex
 10
-0.771012
 20
0.18104
 30
0.0
  0
VERTEX
  5
514
330
50D
100
AcDbEntity
  8
レイヤー_1
 62
     7
100
AcDbVertex
100
AcDb2dVertex
 10
-0.771012
 20
-0.18104
 30
0.0
  0
VERTEX
  5
515
330
50D
100
AcDbEntity
  8
レイヤー_1
 62
     7
100
AcDbVertex
100
AcDb2dVertex
 10
-0.180523
 20
-0.18104
 30
0.0
  0
VERTEX
  5
516
330
50D
100
AcDbEntity
  8
レイヤー_1
 62
     7
100
AcDbVertex
100
AcDb2dVertex
 10
-0.180523
 20
-0.771185
 30
0.0
  0
VERTEX
  5
517
330
50D
100
AcDbEntity
  8
レイヤー_1
 62
     7
100
AcDbVertex
100
AcDb2dVertex
 10
0.181212
 20
-0.771185
 30
0.0
  0
VERTEX
  5
518
330
50D
100
AcDbEntity
  8
レイヤー_1
 62
     7
100
AcDbVertex
100
AcDb2dVertex
 10
0.181212
 20
-0.18104
 30
0.0
  0
VERTEX
  5
519
330
50D
100
AcDbEntity
  8
レイヤー_1
 62
     7
100
AcDbVertex
100
AcDb2dVertex
 10
0.771012
 20
-0.18104
 30
0.0
  0
SEQEND
  5
51A
330
50D
100
AcDbEntity
  8
レイヤー_1
 62
     7
  0
ENDBLK
  5
51B
330
50A
100
AcDbEntity
  8
レイヤー_1
100
AcDbBlockEnd
  0
BLOCK
  5
51D
330
51C
100
AcDbEntity
  8
レイヤー_1
 62
     7
100
AcDbBlockBegin
  2
AI9-BLK7
 70
     0
 10
0.0
 20
0.0
 30
0.0
  3
AI9-BLK7
  1

  0
POLYLINE
  5
51E
330
51C
100
AcDbEntity
  8
レイヤー_1
 62
     7
100
AcDb2dPolyline
 66
     1
 10
0.0
 20
0.0
 30
0.0
 70
     1
  0
VERTEX
  5
51F
330
51E
100
AcDbEntity
  8
レイヤー_1
 62
     7
100
AcDbVertex
100
AcDb2dVertex
 10
4.132048
 20
-3.314698999999998
 30
0.0
  0
VERTEX
  5
520
330
51E
100
AcDbEntity
  8
レイヤー_1
 62
     7
100
AcDbVertex
100
AcDb2dVertex
 10
-4.132048
 20
-3.314698999999998
 30
0.0
  0
VERTEX
  5
521
330
51E
100
AcDbEntity
  8
レイヤー_1
 62
     7
100
AcDbVertex
100
AcDb2dVertex
 10
-4.132048
 20
-2.057927999999999
 30
0.0
  0
VERTEX
  5
522
330
51E
100
AcDbEntity
  8
レイヤー_1
 62
     7
100
AcDbVertex
100
AcDb2dVertex
 10
4.132048
 20
-2.057927999999999
 30
0.0
  0
SEQEND
  5
523
330
51E
100
AcDbEntity
  8
レイヤー_1
 62
     7
  0
POLYLINE
  5
524
330
51C
100
AcDbEntity
  8
レイヤー_1
 62
     7
100
AcDb2dPolyline
 66
     1
 10
0.0
 20
0.0
 30
0.0
 70
     1
  0
VERTEX
  5
525
330
524
100
AcDbEntity
  8
レイヤー_1
 62
     7
100
AcDbVertex
100
AcDb2dVertex
 10
3.751019999999998
 20
-2.048626
 30
0.0
  0
VERTEX
  5
526
330
524
100
AcDbEntity
  8
レイヤー_1
 62
     7
100
AcDbVertex
100
AcDb2dVertex
 10
-3.713123999999998
 20
-2.048626
 30
0.0
  0
VERTEX
  5
527
330
524
100
AcDbEntity
  8
レイヤー_1
 62
     7
100
AcDbVertex
100
AcDb2dVertex
 10
-3.713123999999998
 20
-1.305862999999998
 30
0.0
  0
VERTEX
  5
528
330
524
100
AcDbEntity
  8
レイヤー_1
 62
     7
100
AcDbVertex
100
AcDb2dVertex
 10
3.751019999999998
 20
-1.305862999999998
 30
0.0
  0
SEQEND
  5
529
330
524
100
AcDbEntity
  8
レイヤー_1
 62
     7
  0
POLYLINE
  5
52A
330
51C
100
AcDbEntity
  8
レイヤー_1
 62
     7
100
AcDb2dPolyline
 66
     1
 10
0.0
 20
0.0
 30
0.0
 70
     1
  0
VERTEX
  5
52B
330
52A
100
AcDbEntity
  8
レイヤー_1
 62
     7
100
AcDbVertex
100
AcDb2dVertex
 10
3.370680999999998
 20
-1.312408999999999
 30
0.0
  0
VERTEX
  5
52C
330
52A
100
AcDbEntity
  8
レイヤー_1
 62
     7
100
AcDbVertex
100
AcDb2dVertex
 10
-3.383083999999998
 20
-1.312408999999999
 30
0.0
  0
VERTEX
  5
52D
330
52A
100
AcDbEntity
  8
レイヤー_1
 62
     7
100
AcDbVertex
100
AcDb2dVertex
 10
-3.078536999999998
 20
3.314698999999998
 30
0.0
  0
VERTEX
  5
52E
330
52A
100
AcDbEntity
  8
レイヤー_1
 62
     7
100
AcDbVertex
100
AcDb2dVertex
 10
3.065446
 20
3.314698999999998
 30
0.0
  0
SEQEND
  5
52F
330
52A
100
AcDbEntity
  8
レイヤー_1
 62
     7
  0
ENDBLK
  5
530
330
51C
100
AcDbEntity
  8
レイヤー_1
100
AcDbBlockEnd
  0
BLOCK
  5
532
330
531
100
AcDbEntity
  8
レイヤー_1
 62
     7
100
AcDbBlockBegin
  2
AI9-BLK8
 70
     0
 10
0.0
 20
0.0
 30
0.0
  3
AI9-BLK8
  1

  0
SPLINE
  5
533
330
531
100
AcDbEntity
  8
レイヤー_1
 62
     7
100
AcDbSpline
210
0.0
220
0.0
230
1.0
 70
     8
 71
     3
 72
    11
 73
     7
 74
     0
 42
0.0000000001
 43
0.0000000001
 40
0.0
 40
0.0
 40
0.0
 40
0.0
 40
1.0
 40
1.0
 40
1.0
 40
2.0
 40
2.0
 40
2.0
 40
2.0
 10
-10.39557562934027
 20
-0.5506985134548611
 30
0.0
 10
-10.39557562934027
 20
-0.5506985134548611
 30
0.0
 10
-10.37972819010416
 20
0.4270195855034722
 30
0.0
 10
-9.417857530381942
 20
0.4270195855034722
 30
0.0
 10
-9.417857530381942
 20
0.4270195855034722
 30
0.0
 10
0.0113688151041667
 20
0.4270195855034722
 30
0.0
 10
0.0113688151041667
 20
0.4270195855034722
 30
0.0
  0
SPLINE
  5
534
330
531
100
AcDbEntity
  8
レイヤー_1
 62
     7
100
AcDbSpline
210
0.0
220
0.0
230
1.0
 70
     8
 71
     3
 72
    11
 73
     7
 74
     0
 42
0.0000000001
 43
0.0000000001
 40
0.0
 40
0.0
 40
0.0
 40
0.0
 40
1.0
 40
1.0
 40
1.0
 40
2.0
 40
2.0
 40
2.0
 40
2.0
 10
10.39557562934027
 20
-0.5506985134548611
 30
0.0
 10
10.39557562934027
 20
-0.5506985134548611
 30
0.0
 10
10.38041720920138
 20
0.4270195855034722
 30
0.0
 10
9.418546549479163
 20
0.4270195855034722
 30
0.0
 10
9.418546549479163
 20
0.4270195855034722
 30
0.0
 10
-0.0106797960069444
 20
0.4270195855034722
 30
0.0
 10
-0.0106797960069444
 20
0.4270195855034722
 30
0.0
  0
ENDBLK
  5
535
330
531
100
AcDbEntity
  8
レイヤー_1
100
AcDbBlockEnd
  0
BLOCK
  5
537
330
536
100
AcDbEntity
  8
レイヤー_1
 62
     7
100
AcDbBlockBegin
  2
AI9-BLK9
 70
     0
 10
0.0
 20
0.0
 30
0.0
  3
AI9-BLK9
  1

  0
SPLINE
  5
538
330
536
100
AcDbEntity
  8
レイヤー_1
 62
     7
100
AcDbSpline
210
0.0
220
0.0
230
1.0
 70
     8
 71
     3
 72
    11
 73
     7
 74
     0
 42
0.0000000001
 43
0.0000000001
 40
0.0
 40
0.0
 40
0.0
 40
0.0
 40
1.0
 40
1.0
 40
1.0
 40
2.0
 40
2.0
 40
2.0
 40
2.0
 10
10.39557562934027
 20
0.54725341796875
 30
0.0
 10
10.39557562934027
 20
0.54725341796875
 30
0.0
 10
10.38041720920138
 20
-0.4301201714409724
 30
0.0
 10
9.418546549479163
 20
-0.4301201714409724
 30
0.0
 10
9.418546549479163
 20
-0.4301201714409724
 30
0.0
 10
-0.0106797960069444
 20
-0.4301201714409724
 30
0.0
 10
-0.0106797960069444
 20
-0.4301201714409724
 30
0.0
  0
SPLINE
  5
539
330
536
100
AcDbEntity
  8
レイヤー_1
 62
     7
100
AcDbSpline
210
0.0
220
0.0
230
1.0
 70
     8
 71
     3
 72
    11
 73
     7
 74
     0
 42
0.0000000001
 43
0.0000000001
 40
0.0
 40
0.0
 40
0.0
 40
0.0
 40
1.0
 40
1.0
 40
1.0
 40
2.0
 40
2.0
 40
2.0
 40
2.0
 10
-10.39557562934027
 20
0.54725341796875
 30
0.0
 10
-10.39557562934027
 20
0.54725341796875
 30
0.0
 10
-10.37972819010416
 20
-0.4301201714409724
 30
0.0
 10
-9.417857530381942
 20
-0.4301201714409724
 30
0.0
 10
-9.417857530381942
 20
-0.4301201714409724
 30
0.0
 10
0.0113688151041667
 20
-0.4301201714409724
 30
0.0
 10
0.0113688151041667
 20
-0.4301201714409724
 30
0.0
  0
ENDBLK
  5
53A
330
536
100
AcDbEntity
  8
レイヤー_1
100
AcDbBlockEnd
  0
BLOCK
  5
53C
330
53B
100
AcDbEntity
  8
レイヤー_1
 62
     7
100
AcDbBlockBegin
  2
AI9-BLK10
 70
     0
 10
0.0
 20
0.0
 30
0.0
  3
AI9-BLK10
  1

  0
POLYLINE
  5
53D
330
53B
100
AcDbEntity
  8
レイヤー_1
 62
     7
100
AcDb2dPolyline
 66
     1
 10
0.0
 20
0.0
 30
0.0
 70
     1
  0
VERTEX
  5
53E
330
53D
100
AcDbEntity
  8
レイヤー_1
 62
     7
100
AcDbVertex
100
AcDb2dVertex
 10
-0.114205
 20
0.092845
 30
0.0
  0
VERTEX
  5
53F
330
53D
100
AcDbEntity
  8
レイヤー_1
 62
     7
100
AcDbVertex
100
AcDb2dVertex
 10
-1.992988
 20
0.092845
 30
0.0
  0
VERTEX
  5
540
330
53D
100
AcDbEntity
  8
レイヤー_1
 62
     7
100
AcDbVertex
100
AcDb2dVertex
 10
-1.992988
 20
0.283359
 30
0.0
  0
VERTEX
  5
541
330
53D
100
AcDbEntity
  8
レイヤー_1
 62
     7
100
AcDbVertex
100
AcDb2dVertex
 10
-0.114205
 20
0.283359
 30
0.0
  0
SEQEND
  5
542
330
53D
100
AcDbEntity
  8
レイヤー_1
 62
     7
  0
POLYLINE
  5
543
330
53B
100
AcDbEntity
  8
レイヤー_1
 62
     7
100
AcDb2dPolyline
 66
     1
 10
0.0
 20
0.0
 30
0.0
 70
     1
  0
VERTEX
  5
544
330
543
100
AcDbEntity
  8
レイヤー_1
 62
     7
100
AcDbVertex
100
AcDb2dVertex
 10
1.992988
 20
0.092845
 30
0.0
  0
VERTEX
  5
545
330
543
100
AcDbEntity
  8
レイヤー_1
 62
     7
100
AcDbVertex
100
AcDb2dVertex
 10
0.114205
 20
0.092845
 30
0.0
  0
VERTEX
  5
546
330
543
100
AcDbEntity
  8
レイヤー_1
 62
     7
100
AcDbVertex
100
AcDb2dVertex
 10
0.114205
 20
0.283359
 30
0.0
  0
VERTEX
  5
547
330
543
100
AcDbEntity
  8
レイヤー_1
 62
     7
100
AcDbVertex
100
AcDb2dVertex
 10
1.992988
 20
0.283359
 30
0.0
  0
SEQEND
  5
548
330
543
100
AcDbEntity
  8
レイヤー_1
 62
     7
  0
LINE
  5
549
330
53B
100
AcDbEntity
  8
レイヤー_1
 62
     7
100
AcDbLine
 10
-1.790072
 20
0.054605
 30
0.0
 11
-1.790072
 21
-0.26889
 31
0.0
  0
LINE
  5
54A
330
53B
100
AcDbEntity
  8
レイヤー_1
 62
     7
100
AcDbLine
 10
-0.279397
 20
0.054605
 30
0.0
 11
-0.279397
 21
-0.283359
 31
0.0
  0
LINE
  5
54B
330
53B
100
AcDbEntity
  8
レイヤー_1
 62
     7
100
AcDbLine
 10
0.272852
 20
0.054605
 30
0.0
 11
0.272852
 21
-0.273713
 31
0.0
  0
LINE
  5
54C
330
53B
100
AcDbEntity
  8
レイヤー_1
 62
     7
100
AcDbLine
 10
1.827968
 20
0.054605
 30
0.0
 11
1.827968
 21
-0.264411
 31
0.0
  0
ENDBLK
  5
54D
330
53B
100
AcDbEntity
  8
レイヤー_1
100
AcDbBlockEnd
  0
BLOCK
  5
54F
330
54E
100
AcDbEntity
  8
レイヤー_1
 62
     7
100
AcDbBlockBegin
  2
AI9-BLK11
 70
     0
 10
0.0
 20
0.0
 30
0.0
  3
AI9-BLK11
  1

  0
POLYLINE
  5
550
330
54E
100
AcDbEntity
  8
レイヤー_1
 62
     7
100
AcDb2dPolyline
 66
     1
 10
0.0
 20
0.0
 30
0.0
 70
     1
  0
VERTEX
  5
551
330
550
100
AcDbEntity
  8
レイヤー_1
 62
     7
100
AcDbVertex
100
AcDb2dVertex
 10
-0.114205
 20
0.092845
 30
0.0
  0
VERTEX
  5
552
330
550
100
AcDbEntity
  8
レイヤー_1
 62
     7
100
AcDbVertex
100
AcDb2dVertex
 10
-1.992988
 20
0.092845
 30
0.0
  0
VERTEX
  5
553
330
550
100
AcDbEntity
  8
レイヤー_1
 62
     7
100
AcDbVertex
100
AcDb2dVertex
 10
-1.992988
 20
0.283359
 30
0.0
  0
VERTEX
  5
554
330
550
100
AcDbEntity
  8
レイヤー_1
 62
     7
100
AcDbVertex
100
AcDb2dVertex
 10
-0.114205
 20
0.283359
 30
0.0
  0
SEQEND
  5
555
330
550
100
AcDbEntity
  8
レイヤー_1
 62
     7
  0
POLYLINE
  5
556
330
54E
100
AcDbEntity
  8
レイヤー_1
 62
     7
100
AcDb2dPolyline
 66
     1
 10
0.0
 20
0.0
 30
0.0
 70
     1
  0
VERTEX
  5
557
330
556
100
AcDbEntity
  8
レイヤー_1
 62
     7
100
AcDbVertex
100
AcDb2dVertex
 10
1.992988
 20
0.092845
 30
0.0
  0
VERTEX
  5
558
330
556
100
AcDbEntity
  8
レイヤー_1
 62
     7
100
AcDbVertex
100
AcDb2dVertex
 10
0.114205
 20
0.092845
 30
0.0
  0
VERTEX
  5
559
330
556
100
AcDbEntity
  8
レイヤー_1
 62
     7
100
AcDbVertex
100
AcDb2dVertex
 10
0.114205
 20
0.283359
 30
0.0
  0
VERTEX
  5
55A
330
556
100
AcDbEntity
  8
レイヤー_1
 62
     7
100
AcDbVertex
100
AcDb2dVertex
 10
1.992988
 20
0.283359
 30
0.0
  0
SEQEND
  5
55B
330
556
100
AcDbEntity
  8
レイヤー_1
 62
     7
  0
LINE
  5
55C
330
54E
100
AcDbEntity
  8
レイヤー_1
 62
     7
100
AcDbLine
 10
-1.789899
 20
0.054605
 30
0.0
 11
-1.789899
 21
-0.26889
 31
0.0
  0
LINE
  5
55D
330
54E
100
AcDbEntity
  8
レイヤー_1
 62
     7
100
AcDbLine
 10
-0.279397
 20
0.054605
 30
0.0
 11
-0.279397
 21
-0.283359
 31
0.0
  0
LINE
  5
55E
330
54E
100
AcDbEntity
  8
レイヤー_1
 62
     7
100
AcDbLine
 10
0.272852
 20
0.054605
 30
0.0
 11
0.272852
 21
-0.273713
 31
0.0
  0
LINE
  5
55F
330
54E
100
AcDbEntity
  8
レイヤー_1
 62
     7
100
AcDbLine
 10
1.827968
 20
0.054605
 30
0.0
 11
1.827968
 21
-0.264411
 31
0.0
  0
ENDBLK
  5
560
330
54E
100
AcDbEntity
  8
レイヤー_1
100
AcDbBlockEnd
  0
BLOCK
  5
562
330
561
100
AcDbEntity
  8
レイヤー_1
 62
     7
100
AcDbBlockBegin
  2
AI9-BLK12
 70
     0
 10
0.0
 20
0.0
 30
0.0
  3
AI9-BLK12
  1

  0
POLYLINE
  5
563
330
561
100
AcDbEntity
  8
レイヤー_1
 62
     7
100
AcDb2dPolyline
 66
     1
 10
0.0
 20
0.0
 30
0.0
 70
     1
  0
VERTEX
  5
564
330
563
100
AcDbEntity
  8
レイヤー_1
 62
     7
100
AcDbVertex
100
AcDb2dVertex
 10
-0.114377
 20
0.092845
 30
0.0
  0
VERTEX
  5
565
330
563
100
AcDbEntity
  8
レイヤー_1
 62
     7
100
AcDbVertex
100
AcDb2dVertex
 10
-1.992988
 20
0.092845
 30
0.0
  0
VERTEX
  5
566
330
563
100
AcDbEntity
  8
レイヤー_1
 62
     7
100
AcDbVertex
100
AcDb2dVertex
 10
-1.992988
 20
0.283359
 30
0.0
  0
VERTEX
  5
567
330
563
100
AcDbEntity
  8
レイヤー_1
 62
     7
100
AcDbVertex
100
AcDb2dVertex
 10
-0.114377
 20
0.283359
 30
0.0
  0
SEQEND
  5
568
330
563
100
AcDbEntity
  8
レイヤー_1
 62
     7
  0
POLYLINE
  5
569
330
561
100
AcDbEntity
  8
レイヤー_1
 62
     7
100
AcDb2dPolyline
 66
     1
 10
0.0
 20
0.0
 30
0.0
 70
     1
  0
VERTEX
  5
56A
330
569
100
AcDbEntity
  8
レイヤー_1
 62
     7
100
AcDbVertex
100
AcDb2dVertex
 10
1.992988
 20
0.092845
 30
0.0
  0
VERTEX
  5
56B
330
569
100
AcDbEntity
  8
レイヤー_1
 62
     7
100
AcDbVertex
100
AcDb2dVertex
 10
0.114377
 20
0.092845
 30
0.0
  0
VERTEX
  5
56C
330
569
100
AcDbEntity
  8
レイヤー_1
 62
     7
100
AcDbVertex
100
AcDb2dVertex
 10
0.114377
 20
0.283359
 30
0.0
  0
VERTEX
  5
56D
330
569
100
AcDbEntity
  8
レイヤー_1
 62
     7
100
AcDbVertex
100
AcDb2dVertex
 10
1.992988
 20
0.283359
 30
0.0
  0
SEQEND
  5
56E
330
569
100
AcDbEntity
  8
レイヤー_1
 62
     7
  0
LINE
  5
56F
330
561
100
AcDbEntity
  8
レイヤー_1
 62
     7
100
AcDbLine
 10
-1.790072
 20
0.054605
 30
0.0
 11
-1.790072
 21
-0.26889
 31
0.0
  0
LINE
  5
570
330
561
100
AcDbEntity
  8
レイヤー_1
 62
     7
100
AcDbLine
 10
-0.279397
 20
0.054605
 30
0.0
 11
-0.279397
 21
-0.283359
 31
0.0
  0
LINE
  5
571
330
561
100
AcDbEntity
  8
レイヤー_1
 62
     7
100
AcDbLine
 10
0.272852
 20
0.054605
 30
0.0
 11
0.272852
 21
-0.273713
 31
0.0
  0
LINE
  5
572
330
561
100
AcDbEntity
  8
レイヤー_1
 62
     7
100
AcDbLine
 10
1.827968
 20
0.054605
 30
0.0
 11
1.827968
 21
-0.264411
 31
0.0
  0
ENDBLK
  5
573
330
561
100
AcDbEntity
  8
レイヤー_1
100
AcDbBlockEnd
  0
BLOCK
  5
575
330
574
100
AcDbEntity
  8
レイヤー_1
 62
     7
100
AcDbBlockBegin
  2
AI9-BLK13
 70
     0
 10
0.0
 20
0.0
 30
0.0
  3
AI9-BLK13
  1

  0
POLYLINE
  5
576
330
574
100
AcDbEntity
  8
レイヤー_1
 62
     7
100
AcDb2dPolyline
 66
     1
 10
0.0
 20
0.0
 30
0.0
 70
     1
  0
VERTEX
  5
577
330
576
100
AcDbEntity
  8
レイヤー_1
 62
     7
100
AcDbVertex
100
AcDb2dVertex
 10
-0.114377
 20
0.092845
 30
0.0
  0
VERTEX
  5
578
330
576
100
AcDbEntity
  8
レイヤー_1
 62
     7
100
AcDbVertex
100
AcDb2dVertex
 10
-1.992988
 20
0.092845
 30
0.0
  0
VERTEX
  5
579
330
576
100
AcDbEntity
  8
レイヤー_1
 62
     7
100
AcDbVertex
100
AcDb2dVertex
 10
-1.992988
 20
0.283359
 30
0.0
  0
VERTEX
  5
57A
330
576
100
AcDbEntity
  8
レイヤー_1
 62
     7
100
AcDbVertex
100
AcDb2dVertex
 10
-0.114377
 20
0.283359
 30
0.0
  0
SEQEND
  5
57B
330
576
100
AcDbEntity
  8
レイヤー_1
 62
     7
  0
POLYLINE
  5
57C
330
574
100
AcDbEntity
  8
レイヤー_1
 62
     7
100
AcDb2dPolyline
 66
     1
 10
0.0
 20
0.0
 30
0.0
 70
     1
  0
VERTEX
  5
57D
330
57C
100
AcDbEntity
  8
レイヤー_1
 62
     7
100
AcDbVertex
100
AcDb2dVertex
 10
1.992988
 20
0.092845
 30
0.0
  0
VERTEX
  5
57E
330
57C
100
AcDbEntity
  8
レイヤー_1
 62
     7
100
AcDbVertex
100
AcDb2dVertex
 10
0.114377
 20
0.092845
 30
0.0
  0
VERTEX
  5
57F
330
57C
100
AcDbEntity
  8
レイヤー_1
 62
     7
100
AcDbVertex
100
AcDb2dVertex
 10
0.114377
 20
0.283359
 30
0.0
  0
VERTEX
  5
580
330
57C
100
AcDbEntity
  8
レイヤー_1
 62
     7
100
AcDbVertex
100
AcDb2dVertex
 10
1.992988
 20
0.283359
 30
0.0
  0
SEQEND
  5
581
330
57C
100
AcDbEntity
  8
レイヤー_1
 62
     7
  0
LINE
  5
582
330
574
100
AcDbEntity
  8
レイヤー_1
 62
     7
100
AcDbLine
 10
-1.790072
 20
0.054605
 30
0.0
 11
-1.790072
 21
-0.26889
 31
0.0
  0
LINE
  5
583
330
574
100
AcDbEntity
  8
レイヤー_1
 62
     7
100
AcDbLine
 10
-0.279397
 20
0.054605
 30
0.0
 11
-0.279397
 21
-0.283359
 31
0.0
  0
LINE
  5
584
330
574
100
AcDbEntity
  8
レイヤー_1
 62
     7
100
AcDbLine
 10
0.272852
 20
0.054605
 30
0.0
 11
0.272852
 21
-0.273713
 31
0.0
  0
LINE
  5
585
330
574
100
AcDbEntity
  8
レイヤー_1
 62
     7
100
AcDbLine
 10
1.827968
 20
0.054605
 30
0.0
 11
1.827968
 21
-0.264411
 31
0.0
  0
ENDBLK
  5
586
330
574
100
AcDbEntity
  8
レイヤー_1
100
AcDbBlockEnd
  0
BLOCK
  5
588
330
587
100
AcDbEntity
  8
レイヤー_1
 62
     7
100
AcDbBlockBegin
  2
AI9-BLK14
 70
     0
 10
0.0
 20
0.0
 30
0.0
  3
AI9-BLK14
  1

  0
POLYLINE
  5
589
330
587
100
AcDbEntity
  8
レイヤー_1
 62
     7
100
AcDb2dPolyline
 66
     1
 10
0.0
 20
0.0
 30
0.0
 70
     1
  0
VERTEX
  5
58A
330
589
100
AcDbEntity
  8
レイヤー_1
 62
     7
100
AcDbVertex
100
AcDb2dVertex
 10
4.132048
 20
-3.314698999999998
 30
0.0
  0
VERTEX
  5
58B
330
589
100
AcDbEntity
  8
レイヤー_1
 62
     7
100
AcDbVertex
100
AcDb2dVertex
 10
-4.132048
 20
-3.314698999999998
 30
0.0
  0
VERTEX
  5
58C
330
589
100
AcDbEntity
  8
レイヤー_1
 62
     7
100
AcDbVertex
100
AcDb2dVertex
 10
-4.132048
 20
-2.057927999999999
 30
0.0
  0
VERTEX
  5
58D
330
589
100
AcDbEntity
  8
レイヤー_1
 62
     7
100
AcDbVertex
100
AcDb2dVertex
 10
4.132048
 20
-2.057927999999999
 30
0.0
  0
SEQEND
  5
58E
330
589
100
AcDbEntity
  8
レイヤー_1
 62
     7
  0
POLYLINE
  5
58F
330
587
100
AcDbEntity
  8
レイヤー_1
 62
     7
100
AcDb2dPolyline
 66
     1
 10
0.0
 20
0.0
 30
0.0
 70
     1
  0
VERTEX
  5
590
330
58F
100
AcDbEntity
  8
レイヤー_1
 62
     7
100
AcDbVertex
100
AcDb2dVertex
 10
3.751019999999998
 20
-2.048626
 30
0.0
  0
VERTEX
  5
591
330
58F
100
AcDbEntity
  8
レイヤー_1
 62
     7
100
AcDbVertex
100
AcDb2dVertex
 10
-3.713123999999998
 20
-2.048626
 30
0.0
  0
VERTEX
  5
592
330
58F
100
AcDbEntity
  8
レイヤー_1
 62
     7
100
AcDbVertex
100
AcDb2dVertex
 10
-3.713123999999998
 20
-1.305862999999998
 30
0.0
  0
VERTEX
  5
593
330
58F
100
AcDbEntity
  8
レイヤー_1
 62
     7
100
AcDbVertex
100
AcDb2dVertex
 10
3.751019999999998
 20
-1.305862999999998
 30
0.0
  0
SEQEND
  5
594
330
58F
100
AcDbEntity
  8
レイヤー_1
 62
     7
  0
POLYLINE
  5
595
330
587
100
AcDbEntity
  8
レイヤー_1
 62
     7
100
AcDb2dPolyline
 66
     1
 10
0.0
 20
0.0
 30
0.0
 70
     1
  0
VERTEX
  5
596
330
595
100
AcDbEntity
  8
レイヤー_1
 62
     7
100
AcDbVertex
100
AcDb2dVertex
 10
3.369991999999998
 20
-1.312408999999999
 30
0.0
  0
VERTEX
  5
597
330
595
100
AcDbEntity
  8
レイヤー_1
 62
     7
100
AcDbVertex
100
AcDb2dVertex
 10
-3.383773
 20
-1.312408999999999
 30
0.0
  0
VERTEX
  5
598
330
595
100
AcDbEntity
  8
レイヤー_1
 62
     7
100
AcDbVertex
100
AcDb2dVertex
 10
-3.078536999999998
 20
3.314698999999998
 30
0.0
  0
VERTEX
  5
599
330
595
100
AcDbEntity
  8
レイヤー_1
 62
     7
100
AcDbVertex
100
AcDb2dVertex
 10
3.065446
 20
3.314698999999998
 30
0.0
  0
SEQEND
  5
59A
330
595
100
AcDbEntity
  8
レイヤー_1
 62
     7
  0
ENDBLK
  5
59B
330
587
100
AcDbEntity
  8
レイヤー_1
100
AcDbBlockEnd
  0
BLOCK
  5
59D
330
59C
100
AcDbEntity
  8
レイヤー_1
 62
     7
100
AcDbBlockBegin
  2
AI9-BLK15
 70
     0
 10
0.0
 20
0.0
 30
0.0
  3
AI9-BLK15
  1

  0
POLYLINE
  5
59E
330
59C
100
AcDbEntity
  8
レイヤー_1
 62
     7
100
AcDb2dPolyline
 66
     1
 10
0.0
 20
0.0
 30
0.0
 70
     1
  0
VERTEX
  5
59F
330
59E
100
AcDbEntity
  8
レイヤー_1
 62
     7
100
AcDbVertex
100
AcDb2dVertex
 10
2.523188
 20
0.4068660000000002
 30
0.0
  0
VERTEX
  5
5A0
330
59E
100
AcDbEntity
  8
レイヤー_1
 62
     7
100
AcDbVertex
100
AcDb2dVertex
 10
-2.523188
 20
0.4068660000000002
 30
0.0
  0
VERTEX
  5
5A1
330
59E
100
AcDbEntity
  8
レイヤー_1
 62
     7
100
AcDbVertex
100
AcDb2dVertex
 10
-2.523188
 20
0.9139839999999999
 30
0.0
  0
VERTEX
  5
5A2
330
59E
100
AcDbEntity
  8
レイヤー_1
 62
     7
100
AcDbVertex
100
AcDb2dVertex
 10
2.523188
 20
0.9139839999999999
 30
0.0
  0
SEQEND
  5
5A3
330
59E
100
AcDbEntity
  8
レイヤー_1
 62
     7
  0
POLYLINE
  5
5A4
330
59C
100
AcDbEntity
  8
レイヤー_1
 62
     7
100
AcDb2dPolyline
 66
     1
 10
0.0
 20
0.0
 30
0.0
 70
     1
  0
VERTEX
  5
5A5
330
5A4
100
AcDbEntity
  8
レイヤー_1
 62
     7
100
AcDbVertex
100
AcDb2dVertex
 10
1.544092
 20
-0.9139839999999999
 30
0.0
  0
VERTEX
  5
5A6
330
5A4
100
AcDbEntity
  8
レイヤー_1
 62
     7
100
AcDbVertex
100
AcDb2dVertex
 10
-1.544092
 20
-0.9139839999999999
 30
0.0
  0
VERTEX
  5
5A7
330
5A4
100
AcDbEntity
  8
レイヤー_1
 62
     7
100
AcDbVertex
100
AcDb2dVertex
 10
-1.613682999999999
 20
0.397909
 30
0.0
  0
VERTEX
  5
5A8
330
5A4
100
AcDbEntity
  8
レイヤー_1
 62
     7
100
AcDbVertex
100
AcDb2dVertex
 10
1.613682999999999
 20
0.397909
 30
0.0
  0
SEQEND
  5
5A9
330
5A4
100
AcDbEntity
  8
レイヤー_1
 62
     7
  0
ENDBLK
  5
5AA
330
59C
100
AcDbEntity
  8
レイヤー_1
100
AcDbBlockEnd
  0
BLOCK
  5
5AC
330
5AB
100
AcDbEntity
  8
レイヤー_1
 62
     7
100
AcDbBlockBegin
  2
AI9-BLK16
 70
     0
 10
0.0
 20
0.0
 30
0.0
  3
AI9-BLK16
  1

  0
CIRCLE
  5
5AD
330
5AB
100
AcDbEntity
  8
レイヤー_1
 62
     7
100
AcDbCircle
 10
0.0
 20
0.000172
 30
0.0
 40
1.485353
  0
POLYLINE
  5
5AE
330
5AB
100
AcDbEntity
  8
レイヤー_1
 62
     7
100
AcDb2dPolyline
 66
     1
 10
0.0
 20
0.0
 30
0.0
 70
     1
  0
VERTEX
  5
5AF
330
5AE
100
AcDbEntity
  8
レイヤー_1
 62
     7
100
AcDbVertex
100
AcDb2dVertex
 10
0.771185
 20
0.18104
 30
0.0
  0
VERTEX
  5
5B0
330
5AE
100
AcDbEntity
  8
レイヤー_1
 62
     7
100
AcDbVertex
100
AcDb2dVertex
 10
0.18104
 20
0.18104
 30
0.0
  0
VERTEX
  5
5B1
330
5AE
100
AcDbEntity
  8
レイヤー_1
 62
     7
100
AcDbVertex
100
AcDb2dVertex
 10
0.18104
 20
0.771185
 30
0.0
  0
VERTEX
  5
5B2
330
5AE
100
AcDbEntity
  8
レイヤー_1
 62
     7
100
AcDbVertex
100
AcDb2dVertex
 10
-0.18104
 20
0.771185
 30
0.0
  0
VERTEX
  5
5B3
330
5AE
100
AcDbEntity
  8
レイヤー_1
 62
     7
100
AcDbVertex
100
AcDb2dVertex
 10
-0.18104
 20
0.18104
 30
0.0
  0
VERTEX
  5
5B4
330
5AE
100
AcDbEntity
  8
レイヤー_1
 62
     7
100
AcDbVertex
100
AcDb2dVertex
 10
-0.771185
 20
0.18104
 30
0.0
  0
VERTEX
  5
5B5
330
5AE
100
AcDbEntity
  8
レイヤー_1
 62
     7
100
AcDbVertex
100
AcDb2dVertex
 10
-0.771185
 20
-0.18104
 30
0.0
  0
VERTEX
  5
5B6
330
5AE
100
AcDbEntity
  8
レイヤー_1
 62
     7
100
AcDbVertex
100
AcDb2dVertex
 10
-0.18104
 20
-0.18104
 30
0.0
  0
VERTEX
  5
5B7
330
5AE
100
AcDbEntity
  8
レイヤー_1
 62
     7
100
AcDbVertex
100
AcDb2dVertex
 10
-0.18104
 20
-0.771185
 30
0.0
  0
VERTEX
  5
5B8
330
5AE
100
AcDbEntity
  8
レイヤー_1
 62
     7
100
AcDbVertex
100
AcDb2dVertex
 10
0.18104
 20
-0.771185
 30
0.0
  0
VERTEX
  5
5B9
330
5AE
100
AcDbEntity
  8
レイヤー_1
 62
     7
100
AcDbVertex
100
AcDb2dVertex
 10
0.18104
 20
-0.18104
 30
0.0
  0
VERTEX
  5
5BA
330
5AE
100
AcDbEntity
  8
レイヤー_1
 62
     7
100
AcDbVertex
100
AcDb2dVertex
 10
0.771185
 20
-0.18104
 30
0.0
  0
SEQEND
  5
5BB
330
5AE
100
AcDbEntity
  8
レイヤー_1
 62
     7
  0
ENDBLK
  5
5BC
330
5AB
100
AcDbEntity
  8
レイヤー_1
100
AcDbBlockEnd
  0
BLOCK
  5
5BE
330
5BD
100
AcDbEntity
  8
レイヤー_1
 62
     7
100
AcDbBlockBegin
  2
AI9-BLK17
 70
     0
 10
0.0
 20
0.0
 30
0.0
  3
AI9-BLK17
  1

  0
CIRCLE
  5
5BF
330
5BD
100
AcDbEntity
  8
レイヤー_1
 62
     7
100
AcDbCircle
 10
0.0
 20
0.000172
 30
0.0
 40
1.485353
  0
POLYLINE
  5
5C0
330
5BD
100
AcDbEntity
  8
レイヤー_1
 62
     7
100
AcDb2dPolyline
 66
     1
 10
0.0
 20
0.0
 30
0.0
 70
     1
  0
VERTEX
  5
5C1
330
5C0
100
AcDbEntity
  8
レイヤー_1
 62
     7
100
AcDbVertex
100
AcDb2dVertex
 10
0.77084
 20
0.18104
 30
0.0
  0
VERTEX
  5
5C2
330
5C0
100
AcDbEntity
  8
レイヤー_1
 62
     7
100
AcDbVertex
100
AcDb2dVertex
 10
0.180695
 20
0.18104
 30
0.0
  0
VERTEX
  5
5C3
330
5C0
100
AcDbEntity
  8
レイヤー_1
 62
     7
100
AcDbVertex
100
AcDb2dVertex
 10
0.180695
 20
0.771185
 30
0.0
  0
VERTEX
  5
5C4
330
5C0
100
AcDbEntity
  8
レイヤー_1
 62
     7
100
AcDbVertex
100
AcDb2dVertex
 10
-0.18104
 20
0.771185
 30
0.0
  0
VERTEX
  5
5C5
330
5C0
100
AcDbEntity
  8
レイヤー_1
 62
     7
100
AcDbVertex
100
AcDb2dVertex
 10
-0.18104
 20
0.18104
 30
0.0
  0
VERTEX
  5
5C6
330
5C0
100
AcDbEntity
  8
レイヤー_1
 62
     7
100
AcDbVertex
100
AcDb2dVertex
 10
-0.771185
 20
0.18104
 30
0.0
  0
VERTEX
  5
5C7
330
5C0
100
AcDbEntity
  8
レイヤー_1
 62
     7
100
AcDbVertex
100
AcDb2dVertex
 10
-0.771185
 20
-0.18104
 30
0.0
  0
VERTEX
  5
5C8
330
5C0
100
AcDbEntity
  8
レイヤー_1
 62
     7
100
AcDbVertex
100
AcDb2dVertex
 10
-0.18104
 20
-0.18104
 30
0.0
  0
VERTEX
  5
5C9
330
5C0
100
AcDbEntity
  8
レイヤー_1
 62
     7
100
AcDbVertex
100
AcDb2dVertex
 10
-0.18104
 20
-0.771185
 30
0.0
  0
VERTEX
  5
5CA
330
5C0
100
AcDbEntity
  8
レイヤー_1
 62
     7
100
AcDbVertex
100
AcDb2dVertex
 10
0.180695
 20
-0.771185
 30
0.0
  0
VERTEX
  5
5CB
330
5C0
100
AcDbEntity
  8
レイヤー_1
 62
     7
100
AcDbVertex
100
AcDb2dVertex
 10
0.180695
 20
-0.18104
 30
0.0
  0
VERTEX
  5
5CC
330
5C0
100
AcDbEntity
  8
レイヤー_1
 62
     7
100
AcDbVertex
100
AcDb2dVertex
 10
0.77084
 20
-0.18104
 30
0.0
  0
SEQEND
  5
5CD
330
5C0
100
AcDbEntity
  8
レイヤー_1
 62
     7
  0
ENDBLK
  5
5CE
330
5BD
100
AcDbEntity
  8
レイヤー_1
100
AcDbBlockEnd
  0
BLOCK
  5
5D0
330
5CF
100
AcDbEntity
  8
レイヤー_1
 62
     7
100
AcDbBlockBegin
  2
AI9-BLK18
 70
     0
 10
0.0
 20
0.0
 30
0.0
  3
AI9-BLK18
  1

  0
SPLINE
  5
5D1
330
5CF
100
AcDbEntity
  8
レイヤー_1
 62
     7
100
AcDbSpline
210
0.0
220
0.0
230
1.0
 70
     8
 71
     3
 72
    11
 73
     7
 74
     0
 42
0.0000000001
 43
0.0000000001
 40
0.0
 40
0.0
 40
0.0
 40
0.0
 40
1.0
 40
1.0
 40
1.0
 40
2.0
 40
2.0
 40
2.0
 40
2.0
 10
-38.68730265299479
 20
-0.5023810492621528
 30
0.0
 10
-38.68730265299479
 20
-0.5023810492621528
 30
0.0
 10
-38.66180894639757
 20
0.3864535861545139
 30
0.0
 10
-37.79864027235242
 20
0.3864535861545139
 30
0.0
 10
-37.79864027235242
 20
0.3864535861545139
 30
0.0
 10
0.0059427897135417
 20
0.3864535861545139
 30
0.0
 10
0.0059427897135417
 20
0.3864535861545139
 30
0.0
  0
SPLINE
  5
5D2
330
5CF
100
AcDbEntity
  8
レイヤー_1
 62
     7
100
AcDbSpline
210
0.0
220
0.0
230
1.0
 70
     8
 71
     3
 72
    11
 73
     7
 74
     0
 42
0.0000000001
 43
0.0000000001
 40
0.0
 40
0.0
 40
0.0
 40
0.0
 40
1.0
 40
1.0
 40
1.0
 40
2.0
 40
2.0
 40
2.0
 40
2.0
 10
38.68730265299479
 20
-0.5023810492621528
 30
0.0
 10
38.68730265299479
 20
-0.5023810492621528
 30
0.0
 10
38.66180894639757
 20
0.3864535861545139
 30
0.0
 10
37.79846801757814
 20
0.3864535861545139
 30
0.0
 10
37.79846801757814
 20
0.3864535861545139
 30
0.0
 10
-0.0061150444878472
 20
0.3864535861545139
 30
0.0
 10
-0.0061150444878472
 20
0.3864535861545139
 30
0.0
  0
ENDBLK
  5
5D3
330
5CF
100
AcDbEntity
  8
レイヤー_1
100
AcDbBlockEnd
  0
BLOCK
  5
5D5
330
5D4
100
AcDbEntity
  8
レイヤー_1
 62
     7
100
AcDbBlockBegin
  2
AI9-BLK19
 70
     0
 10
0.0
 20
0.0
 30
0.0
  3
AI9-BLK19
  1

  0
SPLINE
  5
5D6
330
5D4
100
AcDbEntity
  8
レイヤー_1
 62
     7
100
AcDbSpline
210
0.0
220
0.0
230
1.0
 70
     8
 71
     3
 72
    11
 73
     7
 74
     0
 42
0.0000000001
 43
0.0000000001
 40
0.0
 40
0.0
 40
0.0
 40
0.0
 40
1.0
 40
1.0
 40
1.0
 40
2.0
 40
2.0
 40
2.0
 40
2.0
 10
38.68730265299479
 20
0.5056538899739583
 30
0.0
 10
38.68730265299479
 20
0.5056538899739583
 30
0.0
 10
38.66180894639757
 20
-0.3828362358940972
 30
0.0
 10
37.79846801757814
 20
-0.3828362358940972
 30
0.0
 10
37.79846801757814
 20
-0.3828362358940972
 30
0.0
 10
-0.0064595540364583
 20
-0.3828362358940972
 30
0.0
 10
-0.0064595540364583
 20
-0.3828362358940972
 30
0.0
  0
SPLINE
  5
5D7
330
5D4
100
AcDbEntity
  8
レイヤー_1
 62
     7
100
AcDbSpline
210
0.0
220
0.0
230
1.0
 70
     8
 71
     3
 72
    11
 73
     7
 74
     0
 42
0.0000000001
 43
0.0000000001
 40
0.0
 40
0.0
 40
0.0
 40
0.0
 40
1.0
 40
1.0
 40
1.0
 40
2.0
 40
2.0
 40
2.0
 40
2.0
 10
-38.68730265299479
 20
0.5056538899739583
 30
0.0
 10
-38.68730265299479
 20
0.5056538899739583
 30
0.0
 10
-38.66180894639757
 20
-0.3828362358940972
 30
0.0
 10
-37.79864027235242
 20
-0.3828362358940972
 30
0.0
 10
-37.79864027235242
 20
-0.3828362358940972
 30
0.0
 10
0.0059427897135417
 20
-0.3828362358940972
 30
0.0
 10
0.0059427897135417
 20
-0.3828362358940972
 30
0.0
  0
ENDBLK
  5
5D8
330
5D4
100
AcDbEntity
  8
レイヤー_1
100
AcDbBlockEnd
  0
BLOCK
  5
5DA
330
5D9
100
AcDbEntity
  8
レイヤー_1
 62
     7
100
AcDbBlockBegin
  2
AI9-BLK20
 70
     0
 10
0.0
 20
0.0
 30
0.0
  3
AI9-BLK20
  1

  0
SPLINE
  5
5DB
330
5D9
100
AcDbEntity
  8
レイヤー_1
 62
     7
100
AcDbSpline
210
0.0
220
0.0
230
1.0
 70
     8
 71
     3
 72
    14
 73
    10
 74
     0
 42
0.0000000001
 43
0.0000000001
 40
0.0
 40
0.0
 40
0.0
 40
0.0
 40
1.0
 40
1.0
 40
1.0
 40
2.0
 40
2.0
 40
2.0
 40
3.0
 40
3.0
 40
3.0
 40
3.0
 10
0.0225653754340278
 20
3.732071940104166
 30
0.0
 10
0.0225653754340278
 20
3.732071940104166
 30
0.0
 10
-1.595940483940971
 20
3.732071940104166
 30
0.0
 10
-1.595940483940971
 20
3.732071940104166
 30
0.0
 10
-1.595940483940971
 20
3.732071940104166
 30
0.0
 10
-2.947795952690971
 20
0.5708523220486109
 30
0.0
 10
-1.615233018663194
 20
-3.732071940104166
 30
0.0
 10
-1.615233018663194
 20
-3.732071940104166
 30
0.0
 10
0.04185791015625
 20
-3.732071940104166
 30
0.0
 10
0.04185791015625
 20
-3.732071940104166
 30
0.0
  0
SPLINE
  5
5DC
330
5D9
100
AcDbEntity
  8
レイヤー_1
 62
     7
100
AcDbSpline
210
0.0
220
0.0
230
1.0
 70
     8
 71
     3
 72
    14
 73
    10
 74
     0
 42
0.0000000001
 43
0.0000000001
 40
0.0
 40
0.0
 40
0.0
 40
0.0
 40
1.0
 40
1.0
 40
1.0
 40
2.0
 40
2.0
 40
2.0
 40
3.0
 40
3.0
 40
3.0
 40
3.0
 10
-0.0229098849826389
 20
3.732071940104166
 30
0.0
 10
-0.0229098849826389
 20
3.732071940104166
 30
0.0
 10
1.59559597439236
 20
3.732071940104166
 30
0.0
 10
1.59559597439236
 20
3.732071940104166
 30
0.0
 10
1.59559597439236
 20
3.732071940104166
 30
0.0
 10
2.948140462239583
 20
0.5708523220486109
 30
0.0
 10
1.614888509114583
 20
-3.732071940104166
 30
0.0
 10
1.614888509114583
 20
-3.732071940104166
 30
0.0
 10
-0.0422024197048611
 20
-3.732071940104166
 30
0.0
 10
-0.0422024197048611
 20
-3.732071940104166
 30
0.0
  0
ENDBLK
  5
5DD
330
5D9
100
AcDbEntity
  8
レイヤー_1
100
AcDbBlockEnd
  0
BLOCK
  5
73C
330
73B
100
AcDbEntity
  8
0
100
AcDbBlockBegin
  2
*D22
 70
     1
 10
0.0
 20
0.0
 30
0.0
  3
*D22
  1

  0
LINE
  5
81E
330
73B
100
AcDbEntity
  8
AM_5
 62
     0
370
    -2
100
AcDbLine
 10
42.99470867369631
 20
82.98379878742276
 30
0.0
 11
42.99470867369631
 21
60.65220910465303
 31
0.0
  0
LINE
  5
81F
330
73B
100
AcDbEntity
  8
AM_5
 62
     0
370
    -2
100
AcDbLine
 10
121.1645721639484
 20
83.02993136835494
 30
0.0
 11
121.1645721639484
 21
60.65220910465303
 31
0.0
  0
LINE
  5
820
330
73B
100
AcDbEntity
  8
AM_5
 62
     0
370
    -2
100
AcDbLine
 10
45.49470867369631
 20
61.90220910465303
 30
0.0
 11
118.6645721639484
 21
61.90220910465303
 31
0.0
  0
SOLID
  5
821
330
73B
100
AcDbEntity
  8
AM_5
 62
     0
100
AcDbTrace
 10
45.49470867369631
 20
62.31887577131968
 30
0.0
 11
45.49470867369631
 21
61.48554243798635
 31
0.0
 12
42.99470867369631
 22
61.90220910465303
 32
0.0
 13
42.99470867369631
 23
61.90220910465303
 33
0.0
  0
SOLID
  5
822
330
73B
100
AcDbEntity
  8
AM_5
 62
     0
100
AcDbTrace
 10
118.6645721639484
 20
62.31887577131968
 30
0.0
 11
118.6645721639484
 21
61.48554243798635
 31
0.0
 12
121.1645721639484
 22
61.90220910465303
 32
0.0
 13
121.1645721639484
 23
61.90220910465303
 33
0.0
  0
MTEXT
  5
823
330
73B
100
AcDbEntity
  8
AM_5
 62
     0
100
AcDbMText
 10
82.07964041882235
 20
63.77720910465303
 30
0.0
 40
2.5
 41
0.0
 71
     5
 72
     1
  1
167
 73
     1
 44
1.0
1001
ACAD
1000
MTEXTBEGIN
1070
    73
1070
     1
1070
    44
1040
1.0
1070
    74
1070
     0
1000
MTEXTEND
  0
POINT
  5
824
330
73B
100
AcDbEntity
  8
Defpoints
 62
     0
100
AcDbPoint
 10
42.99470867369631
 20
83.60879878742276
 30
0.0
  0
POINT
  5
825
330
73B
100
AcDbEntity
  8
Defpoints
 62
     0
100
AcDbPoint
 10
121.1645721639484
 20
83.65493136835494
 30
0.0
  0
POINT
  5
826
330
73B
100
AcDbEntity
  8
Defpoints
 62
     0
100
AcDbPoint
 10
121.1645721639484
 20
61.90220910465303
 30
0.0
  0
ENDBLK
  5
73D
330
73B
100
AcDbEntity
  8
0
100
AcDbBlockEnd
  0
BLOCK
  5
76F
330
76E
100
AcDbEntity
  8
0
100
AcDbBlockBegin
  2
*D23
 70
     1
 10
0.0
 20
0.0
 30
0.0
  3
*D23
  1

  0
LINE
  5
827
330
76E
100
AcDbEntity
  8
AM_5
 62
     0
370
    -2
100
AcDbLine
 10
118.8518318126334
 20
103.8460980745323
 30
0.0
 11
149.5087044034244
 21
103.8460980745323
 31
0.0
  0
LINE
  5
828
330
76E
100
AcDbEntity
  8
AM_5
 62
     0
370
    -2
100
AcDbLine
 10
115.7200162809213
 20
78.46462724710193
 30
0.0
 11
149.5087044034244
 21
78.46462724710193
 31
0.0
  0
LINE
  5
829
330
76E
100
AcDbEntity
  8
AM_5
 62
     0
370
    -2
100
AcDbLine
 10
148.2587044034244
 20
101.3460980745322
 30
0.0
 11
148.2587044034244
 21
80.96462724710193
 31
0.0
  0
SOLID
  5
82A
330
76E
100
AcDbEntity
  8
AM_5
 62
     0
100
AcDbTrace
 10
147.8420377367577
 20
101.3460980745322
 30
0.0
 11
148.675371070091
 21
101.3460980745322
 31
0.0
 12
148.2587044034244
 22
103.8460980745323
 32
0.0
 13
148.2587044034244
 23
103.8460980745323
 33
0.0
  0
SOLID
  5
82B
330
76E
100
AcDbEntity
  8
AM_5
 62
     0
100
AcDbTrace
 10
147.8420377367577
 20
80.96462724710193
 30
0.0
 11
148.675371070091
 21
80.96462724710193
 31
0.0
 12
148.2587044034244
 22
78.46462724710193
 32
0.0
 13
148.2587044034244
 23
78.46462724710193
 33
0.0
  0
MTEXT
  5
82C
330
76E
100
AcDbEntity
  8
AM_5
 62
     0
100
AcDbMText
 10
146.3837044034244
 20
91.15536266081713
 30
0.0
 40
2.5
 41
0.0
 71
     5
 72
     1
  1
54
 11
0.0000000000000001
 21
1.0
 31
0.0
 73
     1
 44
1.0
1001
ACAD
1000
MTEXTBEGIN
1070
    73
1070
     1
1070
    44
1040
1.0
1070
    74
1070
     0
1000
MTEXTEND
  0
POINT
  5
82D
330
76E
100
AcDbEntity
  8
Defpoints
 62
     0
100
AcDbPoint
 10
118.2268318126334
 20
103.8460980745323
 30
0.0
  0
POINT
  5
82E
330
76E
100
AcDbEntity
  8
Defpoints
 62
     0
100
AcDbPoint
 10
115.0950162809213
 20
78.46462724710193
 30
0.0
  0
POINT
  5
82F
330
76E
100
AcDbEntity
  8
Defpoints
 62
     0
100
AcDbPoint
 10
148.2587044034244
 20
78.46462724710193
 30
0.0
  0
ENDBLK
  5
770
330
76E
100
AcDbEntity
  8
0
100
AcDbBlockEnd
  0
BLOCK
  5
7A0
330
79F
100
AcDbEntity
  8
0
100
AcDbBlockBegin
  2
*D24
 70
     1
 10
0.0
 20
0.0
 30
0.0
  3
*D24
  1

  0
LINE
  5
830
330
79F
100
AcDbEntity
  8
AM_5
 62
     0
370
    -2
100
AcDbLine
 10
116.0555680319516
 20
80.92450599460667
 30
0.0
 11
136.6458905255458
 21
80.92450599460667
 31
0.0
  0
LINE
  5
831
330
79F
100
AcDbEntity
  8
AM_5
 62
     0
370
    -2
100
AcDbLine
 10
115.7759417755692
 20
78.46462724710193
 30
0.0
 11
136.6458905255458
 21
78.46462724710193
 31
0.0
  0
LINE
  5
832
330
79F
100
AcDbEntity
  8
AM_5
 62
     0
370
    -2
100
AcDbLine
 10
135.3958905255458
 20
75.96462724710193
 30
0.0
 11
135.3958905255458
 21
73.46462724710193
 31
0.0
  0
LINE
  5
833
330
79F
100
AcDbEntity
  8
AM_5
 62
     0
370
    -2
100
AcDbLine
 10
135.3958905255458
 20
83.42450599460667
 30
0.0
 11
135.3958905255458
 21
88.50783932794
 31
0.0
  0
LINE
  5
834
330
79F
100
AcDbEntity
  8
AM_5
 62
     0
370
    -2
100
AcDbLine
 10
135.3958905255458
 20
78.46462724710193
 30
0.0
 11
135.3958905255458
 21
80.92450599460667
 31
0.0
  0
SOLID
  5
835
330
79F
100
AcDbEntity
  8
AM_5
 62
     0
100
AcDbTrace
 10
134.9792238588792
 20
75.96462724710193
 30
0.0
 11
135.8125571922125
 21
75.96462724710193
 31
0.0
 12
135.3958905255458
 22
78.46462724710193
 32
0.0
 13
135.3958905255458
 23
78.46462724710193
 33
0.0
  0
SOLID
  5
836
330
79F
100
AcDbEntity
  8
AM_5
 62
     0
100
AcDbTrace
 10
134.9792238588792
 20
83.42450599460667
 30
0.0
 11
135.8125571922125
 21
83.42450599460667
 31
0.0
 12
135.3958905255458
 22
80.92450599460667
 32
0.0
 13
135.3958905255458
 23
80.92450599460667
 33
0.0
  0
MTEXT
  5
837
330
79F
100
AcDbEntity
  8
AM_5
 62
     0
100
AcDbMText
 10
133.5208905255458
 20
87.21617266127333
 30
0.0
 40
2.5
 41
0.0
 71
     5
 72
     1
  1
5
 11
0.0000000000000001
 21
1.0
 31
0.0
 73
     1
 44
1.0
1001
ACAD
1000
MTEXTBEGIN
1070
    73
1070
     1
1070
    44
1040
1.0
1070
    74
1070
     0
1000
MTEXTEND
  0
POINT
  5
838
330
79F
100
AcDbEntity
  8
Defpoints
 62
     0
100
AcDbPoint
 10
115.4305680319517
 20
80.92450599460667
 30
0.0
  0
POINT
  5
839
330
79F
100
AcDbEntity
  8
Defpoints
 62
     0
100
AcDbPoint
 10
115.1509417755692
 20
78.46462724710193
 30
0.0
  0
POINT
  5
83A
330
79F
100
AcDbEntity
  8
Defpoints
 62
     0
100
AcDbPoint
 10
135.3958905255458
 20
78.46462724710193
 30
0.0
  0
ENDBLK
  5
7A1
330
79F
100
AcDbEntity
  8
0
100
AcDbBlockEnd
  0
BLOCK
  5
7E6
330
7E5
100
AcDbEntity
  8
0
100
AcDbBlockBegin
  2
*D25
 70
     1
 10
0.0
 20
0.0
 30
0.0
  3
*D25
  1

  0
LINE
  5
83B
330
7E5
100
AcDbEntity
  8
AM_5
 62
     0
370
    -2
100
AcDbLine
 10
120.6211882022877
 20
123.1451340287142
 30
0.0
 11
133.1942669284745
 21
123.1451340287142
 31
0.0
  0
LINE
  5
83C
330
7E5
100
AcDbEntity
  8
AM_5
 62
     0
370
    -2
100
AcDbLine
 10
120.6211882022877
 20
194.7111135389498
 30
0.0
 11
133.1942669284745
 21
194.7111135389498
 31
0.0
  0
LINE
  5
83D
330
7E5
100
AcDbEntity
  8
AM_5
 62
     0
370
    -2
100
AcDbLine
 10
131.9442669284745
 20
125.6451340287142
 30
0.0
 11
131.9442669284745
 21
192.2111135389498
 31
0.0
  0
SOLID
  5
83E
330
7E5
100
AcDbEntity
  8
AM_5
 62
     0
100
AcDbTrace
 10
131.5276002618078
 20
125.6451340287142
 30
0.0
 11
132.3609335951411
 21
125.6451340287142
 31
0.0
 12
131.9442669284745
 22
123.1451340287142
 32
0.0
 13
131.9442669284745
 23
123.1451340287142
 33
0.0
  0
SOLID
  5
83F
330
7E5
100
AcDbEntity
  8
AM_5
 62
     0
100
AcDbTrace
 10
131.5276002618078
 20
192.2111135389498
 30
0.0
 11
132.3609335951412
 21
192.2111135389498
 31
0.0
 12
131.9442669284745
 22
194.7111135389498
 32
0.0
 13
131.9442669284745
 23
194.7111135389498
 33
0.0
  0
MTEXT
  5
840
330
7E5
100
AcDbEntity
  8
AM_5
 62
     0
100
AcDbMText
 10
130.0692669284744
 20
158.928123783832
 30
0.0
 40
2.5
 41
0.0
 71
     5
 72
     1
  1
157
 11
0.0000000000000001
 21
1.0
 31
0.0
 73
     1
 44
1.0
1001
ACAD
1000
MTEXTBEGIN
1070
    73
1070
     1
1070
    44
1040
1.0
1070
    74
1070
     0
1000
MTEXTEND
  0
POINT
  5
841
330
7E5
100
AcDbEntity
  8
Defpoints
 62
     0
100
AcDbPoint
 10
119.9961882022878
 20
123.1451340287142
 30
0.0
  0
POINT
  5
842
330
7E5
100
AcDbEntity
  8
Defpoints
 62
     0
100
AcDbPoint
 10
119.9961882022878
 20
194.7111135389498
 30
0.0
  0
POINT
  5
843
330
7E5
100
AcDbEntity
  8
Defpoints
 62
     0
100
AcDbPoint
 10
131.9442669284745
 20
194.7111135389498
 30
0.0
  0
ENDBLK
  5
7E7
330
7E5
100
AcDbEntity
  8
0
100
AcDbBlockEnd
  0
ENDSEC
  0
SECTION
  2
ENTITIES
  0
MTEXT
  5
143
330
75
100
AcDbEntity
  8
レイヤー_1_0
 62
     7
100
AcDbMText
 10
70.25728882530639
 20
16.70127221824583
 30
0.0
 40
4.390912999999998
 41
0.0
 71
     1
 72
     2
  1
\fMS PGothic|b0|i0|c128;株式会社 ダイワインダストリ
  7
KANJISTD
 73
     1
 44
1.0
1001
ACAD
1000
MTEXTBEGIN
1070
    73
1070
     1
1070
    44
1040
1.0
1070
    74
1070
     0
1000
MTEXTEND
  0
LWPOLYLINE
  5
144
330
75
100
AcDbEntity
  8
枠
  6
Continuous
100
AcDbPolyline
 90
        4
 70
     1
 43
0.0
 10
0.0000005962378964
 20
0.0000004583823738
 10
210.0000005962379
 20
0.0000004583823738
 10
210.0000005962379
 20
297.0000004583824
 10
0.0000005962379248
 20
297.0000004583824
1001
GENIUS_GENREC_14
1002
{
1000
PYDIR
1011
0.0000005962379146
1021
297.0000004583824
1031
0.0
1002
}
1002
{
1000
PXDIR
1011
210.0000005962379
1021
0.0000004583823738
1031
0.0
1002
}
1002
{
1000
PORI
1011
0.0000005962378964
1021
0.0000004583823738
1031
0.0
1002
}
1002
{
1000
PINS
1011
0.0000005962378964
1021
0.0000004583823738
1031
0.0
1002
}
1002
{
1000
PINS2
1011
210.0000005962379
1021
297.0000004583824
1031
0.0
1002
}
1002
{
1000
C
1070
     1
1002
}
1001
GENIUS_GENOBJ-N-REC_13
1002
{
1000
OWNER
1000
GEN
1002
}
1001
GENIUS_GENODEF_13
1002
{
1000
HIER
1070
     0
1002
}
1002
{
1000
MANEDIT
1070
     0
1002
}
1002
{
1000
NOSEL
1070
     0
1002
}
1002
{
1000
BEHIND
1070
     0
1002
}
1002
{
1000
OTHER
1070
     0
1002
}
1002
{
1000
REACTOR
1002
}
  0
LWPOLYLINE
  5
145
330
75
100
AcDbEntity
  8
外形線
  6
Continuous
100
AcDbPolyline
 90
        4
 70
     1
 43
0.0
 10
11.60259079470369
 20
280.2064268369188
 10
196.3427498015165
 20
280.2064268369188
 10
196.3427498015165
 20
24.16351391153563
 10
11.60259079470367
 20
24.16351391153565
1001
GENIUS_GENREC_14
1002
{
1000
PYDIR
1011
11.60259079470368
1021
24.16351391153563
1031
0.0
1002
}
1002
{
1000
PXDIR
1011
196.3427498015165
1021
280.2064268369188
1031
0.0
1002
}
1002
{
1000
PORI
1011
11.60259079470369
1021
280.2064268369188
1031
0.0
1002
}
1002
{
1000
PINS
1011
11.60259079470369
1021
280.2064268369188
1031
0.0
1002
}
1002
{
1000
PINS2
1011
196.3427498015165
1021
24.16351391153563
1031
0.0
1002
}
1002
{
1000
C
1070
     1
1002
}
1001
GENIUS_GENODEF_13
1002
{
1000
HIER
1070
     0
1002
}
1002
{
1000
MANEDIT
1070
     0
1002
}
1002
{
1000
NOSEL
1070
     0
1002
}
1002
{
1000
BEHIND
1070
     0
1002
}
1002
{
1000
OTHER
1070
     0
1002
}
1002
{
1000
REACTOR
1002
}
1001
GENIUS_GENOBJ-N-REC_13
1002
{
1000
OWNER
1000
GEN
1002
}
  0
MTEXT
  5
146
330
75
100
AcDbEntity
  8
外形線
  6
Continuous
100
AcDbMText
 10
13.91068452073341
 20
31.00153342264298
 30
0.0
 40
4.0
 41
85.59488932217835
 71
     1
 72
     5
  1
{\fMS PGothic|b0|i0|c128|p50;\W1;品名：DC12V電源}
 73
     1
 44
1.0
1001
ACAD
1000
MTEXTBEGIN
1070
    73
1070
     1
1070
    44
1040
1.0
1070
    74
1070
     0
1000
MTEXTEND
1000
ACAD_MTEXT_DEFINED_HEIGHT_BEGIN
1070
    46
1040
10.33309109091124
1000
ACAD_MTEXT_DEFINED_HEIGHT_END
  0
MTEXT
  5
147
330
75
100
AcDbEntity
  8
外形線
  6
Continuous
100
AcDbMText
 10
101.7136921777195
 20
30.65536822327544
 30
0.0
 40
4.0
 41
62.79417921438346
 71
     1
 72
     5
  1
{\fMS PGothic|b0|i0|c128|p50;\W1;品番：PS-2520}
 73
     1
 44
1.0
1001
ACAD
1000
MTEXTBEGIN
1070
    73
1070
     1
1070
    44
1040
1.0
1070
    74
1070
     0
1000
MTEXTEND
1000
ACAD_MTEXT_DEFINED_HEIGHT_BEGIN
1070
    46
1040
5.173549736409313
1000
ACAD_MTEXT_DEFINED_HEIGHT_END
  0
MTEXT
  5
148
330
75
100
AcDbEntity
  8
外形線
  6
Continuous
100
AcDbMText
 10
168.3287606251567
 20
29.84595850511801
 30
0.0
 40
3.5
 41
25.04345815552802
 71
     1
 72
     5
  1
{\fMS PGothic|b0|i0|c128|p50;\W1;No.：1/1}
 73
     1
 44
1.0
1001
ACAD
1000
MTEXTBEGIN
1070
    73
1070
     1
1070
    44
1040
1.0
1070
    74
1070
     0
1000
MTEXTEND
1000
ACAD_MTEXT_DEFINED_HEIGHT_BEGIN
1070
    46
1040
4.957403205357532
1000
ACAD_MTEXT_DEFINED_HEIGHT_END
  0
MTEXT
  5
154
330
75
100
AcDbEntity
  8
レイヤー_1_0
 62
     7
100
AcDbMText
 10
18.18553122906851
 20
271.3098666133168
 30
0.0
 40
2.744320999999998
 41
0.0
 71
     1
 72
     2
  1
\fMS PGothic|b0|i0|c128;■ 外形図
  7
KANJISTD
 73
     1
 44
1.0
1001
ACAD
1000
MTEXTBEGIN
1070
    73
1070
     1
1070
    44
1040
1.0
1070
    74
1070
     0
1000
MTEXTEND
  0
LINE
  5
155
330
75
100
AcDbEntity
  8
外形線
  6
Continuous
100
AcDbLine
 10
11.65926085451633
 20
32.1199291769567
 30
0.0
 11
196.3435303386709
 21
32.1199291769567
 31
0.0
  0
MTEXT
  5
156
330
75
100
AcDbEntity
  8
枠
  6
Continuous
100
AcDbMText
 10
178.9060871603465
 20
42.63997074936265
 30
0.0
 40
3.0
 41
18.0892528424788
 71
     1
 72
     5
  1
(mm)
 73
     1
 44
1.0
1001
ACAD
1000
MTEXTBEGIN
1070
    73
1070
     1
1070
    44
1040
1.0
1070
    74
1070
     0
1000
MTEXTEND
  0
LINE
  5
1B5
330
75
100
AcDbEntity
  8
外形線
  6
Continuous
100
AcDbLine
 10
100.1244175688603
 20
32.1042682801114
 30
0.0
 11
100.1244175688603
 21
24.16625294823945
 31
0.0
  0
LINE
  5
1B6
330
75
100
AcDbEntity
  8
外形線
  6
Continuous
100
AcDbLine
 10
166.2523584809159
 20
32.1178433227995
 30
0.0
 11
166.2523584809159
 21
24.17761320759633
 31
0.0
  0
INSERT
  5
69A
330
75
100
AcDbEntity
  8
レイヤー_1
 62
     7
100
AcDbBlockReference
  2
AI9-BLK2
 10
82.07930531979762
 20
232.1392042433946
 30
0.0
  0
LINE
  5
69B
330
75
100
AcDbEntity
  8
レイヤー_1
 62
     7
100
AcDbLine
 10
154.9915006082734
 20
193.8745609087678
 30
0.0
 11
154.9915006082734
 21
124.0531549087678
 31
0.0
  0
INSERT
  5
69C
330
75
100
AcDbEntity
  8
レイヤー_1
 62
     7
100
AcDbBlockReference
  2
AI9-BLK3
 10
158.2126646082734
 20
126.2147809087678
 30
0.0
  0
INSERT
  5
69D
330
75
100
AcDbEntity
  8
レイヤー_1
 62
     7
100
AcDbBlockReference
  2
AI9-BLK4
 10
151.6111726082734
 20
126.2147809087678
 30
0.0
  0
INSERT
  5
69E
330
75
100
AcDbEntity
  8
レイヤー_1
 62
     7
100
AcDbBlockReference
  2
AI9-BLK5
 10
158.2126646082734
 20
191.7814929087678
 30
0.0
  0
INSERT
  5
69F
330
75
100
AcDbEntity
  8
レイヤー_1
 62
     7
100
AcDbBlockReference
  2
AI9-BLK6
 10
151.6111726082734
 20
191.7814929087678
 30
0.0
  0
POLYLINE
  5
6A0
330
75
100
AcDbEntity
  8
レイヤー_1
 62
     7
100
AcDb2dPolyline
 66
     1
 10
0.0
 20
0.0
 30
0.0
 70
     1
  0
VERTEX
  5
6A1
330
6A0
100
AcDbEntity
  8
レイヤー_1
 62
     7
100
AcDbVertex
100
AcDb2dVertex
 10
163.7255066082734
 20
196.0770109087678
 30
0.0
  0
VERTEX
  5
6A2
330
6A0
100
AcDbEntity
  8
レイヤー_1
 62
     7
100
AcDbVertex
100
AcDb2dVertex
 10
157.9742636082734
 20
196.0770109087678
 30
0.0
  0
VERTEX
  5
6A3
330
6A0
100
AcDbEntity
  8
レイヤー_1
 62
     7
100
AcDbVertex
100
AcDb2dVertex
 10
157.9742636082734
 20
194.7630509087678
 30
0.0
  0
VERTEX
  5
6A4
330
6A0
100
AcDbEntity
  8
レイヤー_1
 62
     7
100
AcDbVertex
100
AcDb2dVertex
 10
163.7255066082734
 20
194.7630509087678
 30
0.0
  0
SEQEND
  5
6A5
330
6A0
100
AcDbEntity
  8
レイヤー_1
 62
     7
  0
INSERT
  5
6A6
330
75
100
AcDbEntity
  8
レイヤー_1
 62
     7
100
AcDbBlockReference
  2
AI9-BLK7
 10
150.2241776082734
 20
198.1287369087678
 30
0.0
  0
INSERT
  5
6A7
330
75
100
AcDbEntity
  8
レイヤー_1
 62
     7
100
AcDbBlockReference
  2
AI9-BLK8
 10
155.0021796082734
 20
194.3363759087678
 30
0.0
  0
INSERT
  5
6A8
330
75
100
AcDbEntity
  8
レイヤー_1
 62
     7
100
AcDbBlockReference
  2
AI9-BLK9
 10
155.0021796082734
 20
123.5062459087678
 30
0.0
  0
POLYLINE
  5
6A9
330
75
100
AcDbEntity
  8
レイヤー_1
 62
     7
100
AcDb2dPolyline
 66
     1
 10
0.0
 20
0.0
 30
0.0
 70
     1
  0
VERTEX
  5
6AA
330
6A9
100
AcDbEntity
  8
レイヤー_1
 62
     7
100
AcDbVertex
100
AcDb2dVertex
 10
165.9048736082734
 20
124.0531549087678
 30
0.0
  0
VERTEX
  5
6AB
330
6A9
100
AcDbEntity
  8
レイヤー_1
 62
     7
100
AcDbVertex
100
AcDb2dVertex
 10
154.9915006082734
 20
124.0531549087678
 30
0.0
  0
VERTEX
  5
6AC
330
6A9
100
AcDbEntity
  8
レイヤー_1
 62
     7
100
AcDbVertex
100
AcDb2dVertex
 10
143.9148296082734
 20
124.0531549087678
 30
0.0
  0
VERTEX
  5
6AD
330
6A9
100
AcDbEntity
  8
レイヤー_1
 62
     7
100
AcDbVertex
100
AcDb2dVertex
 10
143.9148296082734
 20
193.8239179087678
 30
0.0
  0
VERTEX
  5
6AE
330
6A9
100
AcDbEntity
  8
レイヤー_1
 62
     7
100
AcDbVertex
100
AcDb2dVertex
 10
165.9048736082734
 20
193.8239179087678
 30
0.0
  0
SEQEND
  5
6AF
330
6A9
100
AcDbEntity
  8
レイヤー_1
 62
     7
  0
INSERT
  5
6B0
330
75
100
AcDbEntity
  8
レイヤー_1
 62
     7
100
AcDbBlockReference
  2
AI9-BLK10
 10
51.64533131979762
 20
195.5590409087678
 30
0.0
  0
INSERT
  5
6B1
330
75
100
AcDbEntity
  8
レイヤー_1
 62
     7
100
AcDbBlockReference
  2
AI9-BLK11
 10
55.89795731979761
 20
195.5590409087678
 30
0.0
  0
INSERT
  5
6B2
330
75
100
AcDbEntity
  8
レイヤー_1
 62
     7
100
AcDbBlockReference
  2
AI9-BLK12
 10
60.15058331979762
 20
195.5590409087678
 30
0.0
  0
INSERT
  5
6B3
330
75
100
AcDbEntity
  8
レイヤー_1
 62
     7
100
AcDbBlockReference
  2
AI9-BLK13
 10
64.40320931979762
 20
195.5590409087678
 30
0.0
  0
LINE
  5
6B4
330
75
100
AcDbEntity
  8
レイヤー_1
 62
     7
100
AcDbLine
 10
76.99641131979761
 20
195.6136449087678
 30
0.0
 11
76.99641131979761
 21
195.2946289087678
 31
0.0
  0
LINE
  5
6B5
330
75
100
AcDbEntity
  8
レイヤー_1
 62
     7
100
AcDbLine
 10
75.44129531979762
 20
195.6136449087678
 30
0.0
 11
75.44129531979762
 21
195.2853279087678
 31
0.0
  0
LINE
  5
6B6
330
75
100
AcDbEntity
  8
レイヤー_1
 62
     7
100
AcDbLine
 10
74.88904631979761
 20
195.6136449087678
 30
0.0
 11
74.88904631979761
 21
195.2756809087678
 31
0.0
  0
LINE
  5
6B7
330
75
100
AcDbEntity
  8
レイヤー_1
 62
     7
100
AcDbLine
 10
73.37837231979762
 20
195.6136449087678
 30
0.0
 11
73.37837231979762
 21
195.2901509087678
 31
0.0
  0
POLYLINE
  5
6B8
330
75
100
AcDbEntity
  8
レイヤー_1
 62
     7
100
AcDb2dPolyline
 66
     1
 10
0.0
 20
0.0
 30
0.0
 70
     1
  0
VERTEX
  5
6B9
330
6B8
100
AcDbEntity
  8
レイヤー_1
 62
     7
100
AcDbVertex
100
AcDb2dVertex
 10
77.16143131979761
 20
195.6518859087678
 30
0.0
  0
VERTEX
  5
6BA
330
6B8
100
AcDbEntity
  8
レイヤー_1
 62
     7
100
AcDbVertex
100
AcDb2dVertex
 10
75.28282031979762
 20
195.6518859087678
 30
0.0
  0
VERTEX
  5
6BB
330
6B8
100
AcDbEntity
  8
レイヤー_1
 62
     7
100
AcDbVertex
100
AcDb2dVertex
 10
75.28282031979762
 20
195.8423999087678
 30
0.0
  0
VERTEX
  5
6BC
330
6B8
100
AcDbEntity
  8
レイヤー_1
 62
     7
100
AcDbVertex
100
AcDb2dVertex
 10
77.16143131979761
 20
195.8423999087678
 30
0.0
  0
SEQEND
  5
6BD
330
6B8
100
AcDbEntity
  8
レイヤー_1
 62
     7
  0
POLYLINE
  5
6BE
330
75
100
AcDbEntity
  8
レイヤー_1
 62
     7
100
AcDb2dPolyline
 66
     1
 10
0.0
 20
0.0
 30
0.0
 70
     1
  0
VERTEX
  5
6BF
330
6BE
100
AcDbEntity
  8
レイヤー_1
 62
     7
100
AcDbVertex
100
AcDb2dVertex
 10
75.05406631979763
 20
195.6518859087678
 30
0.0
  0
VERTEX
  5
6C0
330
6BE
100
AcDbEntity
  8
レイヤー_1
 62
     7
100
AcDbVertex
100
AcDb2dVertex
 10
73.17545631979761
 20
195.6518859087678
 30
0.0
  0
VERTEX
  5
6C1
330
6BE
100
AcDbEntity
  8
レイヤー_1
 62
     7
100
AcDbVertex
100
AcDb2dVertex
 10
73.17545631979761
 20
195.8423999087678
 30
0.0
  0
VERTEX
  5
6C2
330
6BE
100
AcDbEntity
  8
レイヤー_1
 62
     7
100
AcDbVertex
100
AcDb2dVertex
 10
75.05406631979763
 20
195.8423999087678
 30
0.0
  0
SEQEND
  5
6C3
330
6BE
100
AcDbEntity
  8
レイヤー_1
 62
     7
  0
POLYLINE
  5
6C4
330
75
100
AcDbEntity
  8
レイヤー_1
 62
     7
100
AcDb2dPolyline
 66
     1
 10
0.0
 20
0.0
 30
0.0
 70
     1
  0
VERTEX
  5
6C5
330
6C4
100
AcDbEntity
  8
レイヤー_1
 62
     7
100
AcDbVertex
100
AcDb2dVertex
 10
66.61220431979763
 20
194.7885449087678
 30
0.0
  0
VERTEX
  5
6C6
330
6C4
100
AcDbEntity
  8
レイヤー_1
 62
     7
100
AcDbVertex
100
AcDb2dVertex
 10
49.29026431979761
 20
194.7885449087678
 30
0.0
  0
VERTEX
  5
6C7
330
6C4
100
AcDbEntity
  8
レイヤー_1
 62
     7
100
AcDbVertex
100
AcDb2dVertex
 10
49.29026431979761
 20
195.2708579087678
 30
0.0
  0
VERTEX
  5
6C8
330
6C4
100
AcDbEntity
  8
レイヤー_1
 62
     7
100
AcDbVertex
100
AcDb2dVertex
 10
66.61220431979763
 20
195.2708579087678
 30
0.0
  0
SEQEND
  5
6C9
330
6C4
100
AcDbEntity
  8
レイヤー_1
 62
     7
  0
POLYLINE
  5
6CA
330
75
100
AcDbEntity
  8
レイヤー_1
 62
     7
100
AcDb2dPolyline
 66
     1
 10
0.0
 20
0.0
 30
0.0
 70
     1
  0
VERTEX
  5
6CB
330
6CA
100
AcDbEntity
  8
レイヤー_1
 62
     7
100
AcDbVertex
100
AcDb2dVertex
 10
77.25686031979762
 20
194.7885449087678
 30
0.0
  0
VERTEX
  5
6CC
330
6CA
100
AcDbEntity
  8
レイヤー_1
 62
     7
100
AcDbVertex
100
AcDb2dVertex
 10
73.01663731979762
 20
194.7885449087678
 30
0.0
  0
VERTEX
  5
6CD
330
6CA
100
AcDbEntity
  8
レイヤー_1
 62
     7
100
AcDbVertex
100
AcDb2dVertex
 10
73.01663731979762
 20
195.2708579087678
 30
0.0
  0
VERTEX
  5
6CE
330
6CA
100
AcDbEntity
  8
レイヤー_1
 62
     7
100
AcDbVertex
100
AcDb2dVertex
 10
77.25686031979762
 20
195.2708579087678
 30
0.0
  0
SEQEND
  5
6CF
330
6CA
100
AcDbEntity
  8
レイヤー_1
 62
     7
  0
POLYLINE
  5
6D0
330
75
100
AcDbEntity
  8
レイヤー_1
 62
     7
100
AcDb2dPolyline
 66
     1
 10
0.0
 20
0.0
 30
0.0
 70
     1
  0
VERTEX
  5
6D1
330
6D0
100
AcDbEntity
  8
レイヤー_1
 62
     7
100
AcDbVertex
100
AcDb2dVertex
 10
92.75066031979759
 20
194.7885449087678
 30
0.0
  0
VERTEX
  5
6D2
330
6D0
100
AcDbEntity
  8
レイヤー_1
 62
     7
100
AcDbVertex
100
AcDb2dVertex
 10
80.79221731979762
 20
194.7885449087678
 30
0.0
  0
VERTEX
  5
6D3
330
6D0
100
AcDbEntity
  8
レイヤー_1
 62
     7
100
AcDbVertex
100
AcDb2dVertex
 10
81.09710831979761
 20
195.7025289087678
 30
0.0
  0
VERTEX
  5
6D4
330
6D0
100
AcDbEntity
  8
レイヤー_1
 62
     7
100
AcDbVertex
100
AcDb2dVertex
 10
92.44611431979762
 20
195.7025289087678
 30
0.0
  0
SEQEND
  5
6D5
330
6D0
100
AcDbEntity
  8
レイヤー_1
 62
     7
  0
POLYLINE
  5
6D6
330
75
100
AcDbEntity
  8
レイヤー_1
 62
     7
100
AcDb2dPolyline
 66
     1
 10
0.0
 20
0.0
 30
0.0
 70
     1
  0
VERTEX
  5
6D7
330
6D6
100
AcDbEntity
  8
レイヤー_1
 62
     7
100
AcDbVertex
100
AcDb2dVertex
 10
106.6895173197976
 20
194.7885449087678
 30
0.0
  0
VERTEX
  5
6D8
330
6D6
100
AcDbEntity
  8
レイヤー_1
 62
     7
100
AcDbVertex
100
AcDb2dVertex
 10
94.73090131979764
 20
194.7885449087678
 30
0.0
  0
VERTEX
  5
6D9
330
6D6
100
AcDbEntity
  8
レイヤー_1
 62
     7
100
AcDbVertex
100
AcDb2dVertex
 10
95.0361373197976
 20
195.7025289087678
 30
0.0
  0
VERTEX
  5
6DA
330
6D6
100
AcDbEntity
  8
レイヤー_1
 62
     7
100
AcDbVertex
100
AcDb2dVertex
 10
106.3849703197976
 20
195.7025289087678
 30
0.0
  0
SEQEND
  5
6DB
330
6D6
100
AcDbEntity
  8
レイヤー_1
 62
     7
  0
INSERT
  5
6DC
330
75
100
AcDbEntity
  8
レイヤー_1
 62
     7
100
AcDbBlockReference
  2
AI9-BLK14
 10
111.9770493197976
 20
198.1287369087678
 30
0.0
  0
INSERT
  5
6DD
330
75
100
AcDbEntity
  8
レイヤー_1
 62
     7
100
AcDbBlockReference
  2
AI9-BLK15
 10
112.3546323197976
 20
122.2317329087678
 30
0.0
  0
CIRCLE
  5
6DE
330
75
100
AcDbEntity
  8
レイヤー_1
 62
     7
100
AcDbCircle
 10
111.9973753197976
 20
129.8677879087678
 30
0.0
 40
0.5081520000000001
  0
CIRCLE
  5
6DF
330
75
100
AcDbEntity
  8
レイヤー_1
 62
     7
100
AcDbCircle
 10
111.9973753197976
 20
132.7875059087678
 30
0.0
 40
0.5081520000000001
  0
CIRCLE
  5
6E0
330
75
100
AcDbEntity
  8
レイヤー_1
 62
     7
100
AcDbCircle
 10
108.0871923197976
 20
129.8677879087678
 30
0.0
 40
0.5081520000000001
  0
CIRCLE
  5
6E1
330
75
100
AcDbEntity
  8
レイヤー_1
 62
     7
100
AcDbCircle
 10
108.0871923197976
 20
132.7875059087678
 30
0.0
 40
0.5081520000000001
  0
CIRCLE
  5
6E2
330
75
100
AcDbEntity
  8
レイヤー_1
 62
     7
100
AcDbCircle
 10
104.1770093197976
 20
129.8677879087678
 30
0.0
 40
0.5081520000000001
  0
CIRCLE
  5
6E3
330
75
100
AcDbEntity
  8
レイヤー_1
 62
     7
100
AcDbCircle
 10
104.1770093197976
 20
132.7875059087678
 30
0.0
 40
0.5081520000000001
  0
CIRCLE
  5
6E4
330
75
100
AcDbEntity
  8
レイヤー_1
 62
     7
100
AcDbCircle
 10
100.2668253197976
 20
129.8677879087678
 30
0.0
 40
0.5081520000000001
  0
CIRCLE
  5
6E5
330
75
100
AcDbEntity
  8
レイヤー_1
 62
     7
100
AcDbCircle
 10
100.2668253197976
 20
132.7875059087678
 30
0.0
 40
0.5081520000000001
  0
CIRCLE
  5
6E6
330
75
100
AcDbEntity
  8
レイヤー_1
 62
     7
100
AcDbCircle
 10
96.35664231979765
 20
129.8677879087678
 30
0.0
 40
0.5081520000000001
  0
CIRCLE
  5
6E7
330
75
100
AcDbEntity
  8
レイヤー_1
 62
     7
100
AcDbCircle
 10
96.35664231979765
 20
132.7875059087678
 30
0.0
 40
0.5081520000000001
  0
CIRCLE
  5
6E8
330
75
100
AcDbEntity
  8
レイヤー_1
 62
     7
100
AcDbCircle
 10
92.44645831979758
 20
129.8677879087678
 30
0.0
 40
0.5081520000000001
  0
CIRCLE
  5
6E9
330
75
100
AcDbEntity
  8
レイヤー_1
 62
     7
100
AcDbCircle
 10
92.44645831979758
 20
132.7875059087678
 30
0.0
 40
0.5081520000000001
  0
CIRCLE
  5
6EA
330
75
100
AcDbEntity
  8
レイヤー_1
 62
     7
100
AcDbCircle
 10
88.53644731979761
 20
129.8677879087678
 30
0.0
 40
0.5078070000000002
  0
CIRCLE
  5
6EB
330
75
100
AcDbEntity
  8
レイヤー_1
 62
     7
100
AcDbCircle
 10
88.53644731979761
 20
132.7875059087678
 30
0.0
 40
0.5078070000000002
  0
CIRCLE
  5
6EC
330
75
100
AcDbEntity
  8
レイヤー_1
 62
     7
100
AcDbCircle
 10
84.62643631979762
 20
129.8677879087678
 30
0.0
 40
0.5076350000000001
  0
CIRCLE
  5
6ED
330
75
100
AcDbEntity
  8
レイヤー_1
 62
     7
100
AcDbCircle
 10
84.62643631979762
 20
132.7875059087678
 30
0.0
 40
0.5076350000000001
  0
CIRCLE
  5
6EE
330
75
100
AcDbEntity
  8
レイヤー_1
 62
     7
100
AcDbCircle
 10
80.71642531979762
 20
129.8677879087678
 30
0.0
 40
0.5078070000000002
  0
CIRCLE
  5
6EF
330
75
100
AcDbEntity
  8
レイヤー_1
 62
     7
100
AcDbCircle
 10
80.71642531979762
 20
132.7875059087678
 30
0.0
 40
0.5078070000000002
  0
CIRCLE
  5
6F0
330
75
100
AcDbEntity
  8
レイヤー_1
 62
     7
100
AcDbCircle
 10
76.80624231979762
 20
129.8677879087678
 30
0.0
 40
0.5078070000000002
  0
CIRCLE
  5
6F1
330
75
100
AcDbEntity
  8
レイヤー_1
 62
     7
100
AcDbCircle
 10
76.80624231979762
 20
132.7875059087678
 30
0.0
 40
0.5078070000000002
  0
CIRCLE
  5
6F2
330
75
100
AcDbEntity
  8
レイヤー_1
 62
     7
100
AcDbCircle
 10
72.89623131979762
 20
129.8677879087678
 30
0.0
 40
0.5076350000000001
  0
CIRCLE
  5
6F3
330
75
100
AcDbEntity
  8
レイヤー_1
 62
     7
100
AcDbCircle
 10
72.89623131979762
 20
132.7875059087678
 30
0.0
 40
0.5076350000000001
  0
CIRCLE
  5
6F4
330
75
100
AcDbEntity
  8
レイヤー_1
 62
     7
100
AcDbCircle
 10
68.98639231979763
 20
129.8677879087678
 30
0.0
 40
0.5076350000000001
  0
CIRCLE
  5
6F5
330
75
100
AcDbEntity
  8
レイヤー_1
 62
     7
100
AcDbCircle
 10
68.98639231979763
 20
132.7875059087678
 30
0.0
 40
0.5076350000000001
  0
CIRCLE
  5
6F6
330
75
100
AcDbEntity
  8
レイヤー_1
 62
     7
100
AcDbCircle
 10
65.07638131979764
 20
129.8677879087678
 30
0.0
 40
0.5078070000000002
  0
CIRCLE
  5
6F7
330
75
100
AcDbEntity
  8
レイヤー_1
 62
     7
100
AcDbCircle
 10
65.07638131979764
 20
132.7875059087678
 30
0.0
 40
0.5078070000000002
  0
CIRCLE
  5
6F8
330
75
100
AcDbEntity
  8
レイヤー_1
 62
     7
100
AcDbCircle
 10
61.16619731979762
 20
129.8677879087678
 30
0.0
 40
0.5078070000000002
  0
CIRCLE
  5
6F9
330
75
100
AcDbEntity
  8
レイヤー_1
 62
     7
100
AcDbCircle
 10
61.16619731979762
 20
132.7875059087678
 30
0.0
 40
0.5078070000000002
  0
CIRCLE
  5
6FA
330
75
100
AcDbEntity
  8
レイヤー_1
 62
     7
100
AcDbCircle
 10
57.25610031979762
 20
129.8677879087678
 30
0.0
 40
0.507721
  0
CIRCLE
  5
6FB
330
75
100
AcDbEntity
  8
レイヤー_1
 62
     7
100
AcDbCircle
 10
57.25610031979762
 20
132.7875059087678
 30
0.0
 40
0.507721
  0
CIRCLE
  5
6FC
330
75
100
AcDbEntity
  8
レイヤー_1
 62
     7
100
AcDbCircle
 10
53.34617531979763
 20
129.8677879087678
 30
0.0
 40
0.5078070000000002
  0
CIRCLE
  5
6FD
330
75
100
AcDbEntity
  8
レイヤー_1
 62
     7
100
AcDbCircle
 10
53.34617531979763
 20
132.7875059087678
 30
0.0
 40
0.5078070000000002
  0
INSERT
  5
6FE
330
75
100
AcDbEntity
  8
レイヤー_1
 62
     7
100
AcDbBlockReference
  2
AI9-BLK16
 10
82.18386331979763
 20
126.1989329087678
 30
0.0
  0
INSERT
  5
6FF
330
75
100
AcDbEntity
  8
レイヤー_1
 62
     7
100
AcDbBlockReference
  2
AI9-BLK17
 10
82.06983131979761
 20
191.7814929087678
 30
0.0
  0
INSERT
  5
700
330
75
100
AcDbEntity
  8
レイヤー_1
 62
     7
100
AcDbBlockReference
  2
AI9-BLK18
 10
82.09334431979762
 20
194.3769419087678
 30
0.0
  0
INSERT
  5
701
330
75
100
AcDbEntity
  8
レイヤー_1
 62
     7
100
AcDbBlockReference
  2
AI9-BLK19
 10
82.09334431979762
 20
123.5729949087678
 30
0.0
  0
POLYLINE
  5
702
330
75
100
AcDbEntity
  8
レイヤー_1
 62
     7
100
AcDb2dPolyline
 66
     1
 10
0.0
 20
0.0
 30
0.0
 70
     1
  0
VERTEX
  5
703
330
702
100
AcDbEntity
  8
レイヤー_1
 62
     7
100
AcDbVertex
100
AcDb2dVertex
 10
121.1361803197976
 20
124.0531549087678
 30
0.0
  0
VERTEX
  5
704
330
702
100
AcDbEntity
  8
レイヤー_1
 62
     7
100
AcDbVertex
100
AcDb2dVertex
 10
42.93647431979761
 20
124.0531549087678
 30
0.0
  0
VERTEX
  5
705
330
702
100
AcDbEntity
  8
レイヤー_1
 62
     7
100
AcDbVertex
100
AcDb2dVertex
 10
42.93647431979761
 20
193.8239179087678
 30
0.0
  0
VERTEX
  5
706
330
702
100
AcDbEntity
  8
レイヤー_1
 62
     7
100
AcDbVertex
100
AcDb2dVertex
 10
121.1361803197976
 20
193.8239179087678
 30
0.0
  0
SEQEND
  5
707
330
702
100
AcDbEntity
  8
レイヤー_1
 62
     7
  0
POLYLINE
  5
708
330
75
100
AcDbEntity
  8
レイヤー_1
 62
     7
100
AcDb2dPolyline
 66
     1
 10
0.0
 20
0.0
 30
0.0
 70
     1
  0
VERTEX
  5
709
330
708
100
AcDbEntity
  8
レイヤー_1
 62
     7
100
AcDbVertex
100
AcDb2dVertex
 10
168.4253056082734
 20
134.6216749087678
 30
0.0
  0
VERTEX
  5
70A
330
708
100
AcDbEntity
  8
レイヤー_1
 62
     7
100
AcDbVertex
100
AcDb2dVertex
 10
168.4253056082734
 20
129.5184549087678
 30
0.0
  0
VERTEX
  5
70B
330
708
100
AcDbEntity
  8
レイヤー_1
 62
     7
100
AcDbVertex
100
AcDb2dVertex
 10
165.9310566082734
 20
129.2139079087678
 30
0.0
  0
VERTEX
  5
70C
330
708
100
AcDbEntity
  8
レイヤー_1
 62
     7
100
AcDbVertex
100
AcDb2dVertex
 10
165.9310566082734
 20
134.9265659087678
 30
0.0
  0
SEQEND
  5
70D
330
708
100
AcDbEntity
  8
レイヤー_1
 62
     7
  0
POLYLINE
  5
70E
330
75
100
AcDbEntity
  8
レイヤー_1
 62
     7
100
AcDb2dPolyline
 66
     1
 10
0.0
 20
0.0
 30
0.0
 70
     1
  0
VERTEX
  5
70F
330
70E
100
AcDbEntity
  8
レイヤー_1
 62
     7
100
AcDbVertex
100
AcDb2dVertex
 10
168.4253056082734
 20
190.6819909087678
 30
0.0
  0
VERTEX
  5
710
330
70E
100
AcDbEntity
  8
レイヤー_1
 62
     7
100
AcDbVertex
100
AcDb2dVertex
 10
168.4253056082734
 20
185.5784269087678
 30
0.0
  0
VERTEX
  5
711
330
70E
100
AcDbEntity
  8
レイヤー_1
 62
     7
100
AcDbVertex
100
AcDb2dVertex
 10
165.9310566082734
 20
185.2738799087678
 30
0.0
  0
VERTEX
  5
712
330
70E
100
AcDbEntity
  8
レイヤー_1
 62
     7
100
AcDbVertex
100
AcDb2dVertex
 10
165.9310566082734
 20
190.9865379087678
 30
0.0
  0
SEQEND
  5
713
330
70E
100
AcDbEntity
  8
レイヤー_1
 62
     7
  0
POLYLINE
  5
714
330
75
100
AcDbEntity
  8
レイヤー_1
 62
     7
100
AcDb2dPolyline
 66
     1
 10
0.0
 20
0.0
 30
0.0
 70
     1
  0
VERTEX
  5
715
330
714
100
AcDbEntity
  8
レイヤー_1
 62
     7
100
AcDbVertex
100
AcDb2dVertex
 10
54.81860931979761
 20
78.44043590876781
 30
0.0
  0
VERTEX
  5
716
330
714
100
AcDbEntity
  8
レイヤー_1
 62
     7
100
AcDbVertex
100
AcDb2dVertex
 10
49.71538931979762
 20
78.44043590876781
 30
0.0
  0
VERTEX
  5
717
330
714
100
AcDbEntity
  8
レイヤー_1
 62
     7
100
AcDbVertex
100
AcDb2dVertex
 10
49.41067031979762
 20
80.93537390876781
 30
0.0
  0
VERTEX
  5
718
330
714
100
AcDbEntity
  8
レイヤー_1
 62
     7
100
AcDbVertex
100
AcDb2dVertex
 10
55.12332731979761
 20
80.93537390876781
 30
0.0
  0
SEQEND
  5
719
330
714
100
AcDbEntity
  8
レイヤー_1
 62
     7
  0
POLYLINE
  5
71A
330
75
100
AcDbEntity
  8
レイヤー_1
 62
     7
100
AcDb2dPolyline
 66
     1
 10
0.0
 20
0.0
 30
0.0
 70
     1
  0
VERTEX
  5
71B
330
71A
100
AcDbEntity
  8
レイヤー_1
 62
     7
100
AcDbVertex
100
AcDb2dVertex
 10
115.1437813197976
 20
78.44043590876781
 30
0.0
  0
VERTEX
  5
71C
330
71A
100
AcDbEntity
  8
レイヤー_1
 62
     7
100
AcDbVertex
100
AcDb2dVertex
 10
110.0409063197976
 20
78.44043590876781
 30
0.0
  0
VERTEX
  5
71D
330
71A
100
AcDbEntity
  8
レイヤー_1
 62
     7
100
AcDbVertex
100
AcDb2dVertex
 10
109.7363593197976
 20
80.93537390876781
 30
0.0
  0
VERTEX
  5
71E
330
71A
100
AcDbEntity
  8
レイヤー_1
 62
     7
100
AcDbVertex
100
AcDb2dVertex
 10
115.4490163197976
 20
80.93537390876781
 30
0.0
  0
SEQEND
  5
71F
330
71A
100
AcDbEntity
  8
レイヤー_1
 62
     7
  0
SPLINE
  5
720
330
75
100
AcDbEntity
  8
レイヤー_1
 62
     7
100
AcDbSpline
210
0.0
220
0.0
230
1.0
 70
     8
 71
     3
 72
    11
 73
     7
 74
     0
 42
0.0000000001
 43
0.0000000001
 40
0.0
 40
0.0
 40
0.0
 40
0.0
 40
1.0
 40
1.0
 40
1.0
 40
2.0
 40
2.0
 40
2.0
 40
2.0
 10
42.86051041094345
 20
127.8766944951393
 30
0.0
 10
42.56216514184623
 20
127.8766944951393
 30
0.0
 10
42.32031943872121
 20
127.2538212312504
 30
0.0
 10
42.32031943872121
 20
126.4848759187504
 30
0.0
 10
42.32031943872121
 20
125.7159306062504
 30
0.0
 10
42.56216514184623
 20
125.0937463614588
 30
0.0
 10
42.86051041094345
 20
125.0937463614588
 30
0.0
  0
SPLINE
  5
721
330
75
100
AcDbEntity
  8
レイヤー_1
 62
     7
100
AcDbSpline
210
0.0
220
0.0
230
1.0
 70
     8
 71
     3
 72
    11
 73
     7
 74
     0
 42
0.0000000001
 43
0.0000000001
 40
0.0
 40
0.0
 40
0.0
 40
0.0
 40
1.0
 40
1.0
 40
1.0
 40
2.0
 40
2.0
 40
2.0
 40
2.0
 10
42.86051041094345
 20
193.0229333731775
 30
0.0
 10
42.56216514184623
 20
193.0229333731775
 30
0.0
 10
42.32031943872121
 20
192.4000601092886
 30
0.0
 10
42.32031943872121
 20
191.6311147967886
 30
0.0
 10
42.32031943872121
 20
190.8621694842885
 30
0.0
 10
42.56216514184623
 20
190.239985239497
 30
0.0
 10
42.86051041094345
 20
190.239985239497
 30
0.0
  0
SPLINE
  5
722
330
75
100
AcDbEntity
  8
レイヤー_1
 62
     7
100
AcDbSpline
210
0.0
220
0.0
230
1.0
 70
     8
 71
     3
 72
    11
 73
     7
 74
     0
 42
0.0000000001
 43
0.0000000001
 40
0.0
 40
0.0
 40
0.0
 40
0.0
 40
1.0
 40
1.0
 40
1.0
 40
2.0
 40
2.0
 40
2.0
 40
2.0
 10
121.1802776635476
 20
190.239985239497
 30
0.0
 10
121.4786229326448
 20
190.239985239497
 30
0.0
 10
121.7204686357698
 20
190.8628585033858
 30
0.0
 10
121.7204686357698
 20
191.6318038158858
 30
0.0
 10
121.7204686357698
 20
192.4007491283858
 30
0.0
 10
121.4786229326448
 20
193.0229333731775
 30
0.0
 10
121.1802776635476
 20
193.0229333731775
 30
0.0
  0
SPLINE
  5
723
330
75
100
AcDbEntity
  8
レイヤー_1
 62
     7
100
AcDbSpline
210
0.0
220
0.0
230
1.0
 70
     8
 71
     3
 72
    11
 73
     7
 74
     0
 42
0.0000000001
 43
0.0000000001
 40
0.0
 40
0.0
 40
0.0
 40
0.0
 40
1.0
 40
1.0
 40
1.0
 40
2.0
 40
2.0
 40
2.0
 40
2.0
 10
121.1802776635476
 20
125.0350074834206
 30
0.0
 10
121.4786229326448
 20
125.0350074834206
 30
0.0
 10
121.7204686357698
 20
125.6578807473094
 30
0.0
 10
121.7204686357698
 20
126.4268260598094
 30
0.0
 10
121.7204686357698
 20
127.1957713723095
 30
0.0
 10
121.4786229326448
 20
127.8179556171011
 30
0.0
 10
121.1802776635476
 20
127.8179556171011
 30
0.0
  0
SPLINE
  5
724
330
75
100
AcDbEntity
  8
レイヤー_1
 62
     7
100
AcDbSpline
210
0.0
220
0.0
230
1.0
 70
     8
 71
     3
 72
    11
 73
     7
 74
     0
 42
0.0000000001
 43
0.0000000001
 40
0.0
 40
0.0
 40
0.0
 40
0.0
 40
1.0
 40
1.0
 40
1.0
 40
2.0
 40
2.0
 40
2.0
 40
2.0
 10
121.1802776635476
 20
93.62779448428863
 30
0.0
 10
121.4786229326448
 20
93.62779448428863
 30
0.0
 10
121.7204686357698
 20
94.25066774817755
 30
0.0
 10
121.7204686357698
 20
95.01961306067752
 30
0.0
 10
121.7204686357698
 20
95.78855837317751
 30
0.0
 10
121.4786229326448
 20
96.41074261796916
 30
0.0
 10
121.1802776635476
 20
96.41074261796916
 30
0.0
  0
SPLINE
  5
725
330
75
100
AcDbEntity
  8
レイヤー_1
 62
     7
100
AcDbSpline
210
0.0
220
0.0
230
1.0
 70
     8
 71
     3
 72
    11
 73
     7
 74
     0
 42
0.0000000001
 43
0.0000000001
 40
0.0
 40
0.0
 40
0.0
 40
0.0
 40
1.0
 40
1.0
 40
1.0
 40
2.0
 40
2.0
 40
2.0
 40
2.0
 10
121.1802776635476
 20
88.1693851960942
 30
0.0
 10
121.4786229326448
 20
88.1693851960942
 30
0.0
 10
121.7204686357698
 20
88.79225845998311
 30
0.0
 10
121.7204686357698
 20
89.56051475338588
 30
0.0
 10
121.7204686357698
 20
90.32946006588586
 30
0.0
 10
121.4786229326448
 20
90.95233332977477
 30
0.0
 10
121.1802776635476
 20
90.95233332977477
 30
0.0
  0
SPLINE
  5
726
330
75
100
AcDbEntity
  8
レイヤー_1
 62
     7
100
AcDbSpline
210
0.0
220
0.0
230
1.0
 70
     8
 71
     3
 72
    11
 73
     7
 74
     0
 42
0.0000000001
 43
0.0000000001
 40
0.0
 40
0.0
 40
0.0
 40
0.0
 40
1.0
 40
1.0
 40
1.0
 40
2.0
 40
2.0
 40
2.0
 40
2.0
 10
42.97764365747122
 20
93.62779448428863
 30
0.0
 10
42.67964289792262
 20
93.62779448428863
 30
0.0
 10
42.43814170434624
 20
94.25066774817755
 30
0.0
 10
42.43814170434624
 20
95.01961306067752
 30
0.0
 10
42.43814170434624
 20
95.78855837317751
 30
0.0
 10
42.67964289792262
 20
96.41074261796916
 30
0.0
 10
42.97764365747122
 20
96.41074261796916
 30
0.0
  0
SPLINE
  5
727
330
75
100
AcDbEntity
  8
レイヤー_1
 62
     7
100
AcDbSpline
210
0.0
220
0.0
230
1.0
 70
     8
 71
     3
 72
    11
 73
     7
 74
     0
 42
0.0000000001
 43
0.0000000001
 40
0.0
 40
0.0
 40
0.0
 40
0.0
 40
1.0
 40
1.0
 40
1.0
 40
2.0
 40
2.0
 40
2.0
 40
2.0
 10
42.97764365747122
 20
88.1693851960942
 30
0.0
 10
42.67964289792262
 20
88.1693851960942
 30
0.0
 10
42.43814170434624
 20
88.79225845998311
 30
0.0
 10
42.43814170434624
 20
89.56051475338588
 30
0.0
 10
42.43814170434624
 20
90.32946006588586
 30
0.0
 10
42.67964289792262
 20
90.95233332977477
 30
0.0
 10
42.97764365747122
 20
90.95233332977477
 30
0.0
  0
SPLINE
  5
728
330
75
100
AcDbEntity
  8
レイヤー_1
 62
     7
100
AcDbSpline
210
0.0
220
0.0
230
1.0
 70
     8
 71
     3
 72
    11
 73
     7
 74
     0
 42
0.0000000001
 43
0.0000000001
 40
0.0
 40
0.0
 40
0.0
 40
0.0
 40
1.0
 40
1.0
 40
1.0
 40
2.0
 40
2.0
 40
2.0
 40
2.0
 10
81.07127023082192
 20
103.9341421405386
 30
0.0
 10
81.07127023082192
 20
104.2324874096358
 30
0.0
 10
81.69414349471081
 20
104.4743331127608
 30
0.0
 10
82.46239978811358
 20
104.4743331127608
 30
0.0
 10
83.23134510061361
 20
104.4743331127608
 30
0.0
 10
83.85421836450245
 20
104.2324874096358
 30
0.0
 10
83.85421836450245
 20
103.9341421405386
 30
0.0
  0
SPLINE
  5
729
330
75
100
AcDbEntity
  8
レイヤー_1
 62
     7
100
AcDbSpline
210
0.0
220
0.0
230
1.0
 70
     8
 71
     3
 72
    11
 73
     7
 74
     0
 42
0.0000000001
 43
0.0000000001
 40
0.0
 40
0.0
 40
0.0
 40
0.0
 40
1.0
 40
1.0
 40
1.0
 40
2.0
 40
2.0
 40
2.0
 40
2.0
 10
83.85421836450245
 20
80.94433094262198
 30
0.0
 10
83.85421836450245
 20
80.64598567352474
 30
0.0
 10
83.23134510061361
 20
80.40482898949695
 30
0.0
 10
82.4627442976622
 20
80.40482898949695
 30
0.0
 10
81.69414349471081
 20
80.40482898949695
 30
0.0
 10
81.07127023082192
 20
80.64598567352474
 30
0.0
 10
81.07127023082192
 20
80.94433094262198
 30
0.0
  0
LINE
  5
72A
330
75
100
AcDbEntity
  8
レイヤー_1
 62
     7
100
AcDbLine
 10
42.98384531979762
 20
92.4840229087678
 30
0.0
 11
43.65701631979762
 21
92.4840229087678
 31
0.0
  0
LINE
  5
72B
330
75
100
AcDbEntity
  8
レイヤー_1
 62
     7
100
AcDbLine
 10
120.6283733197976
 20
92.5095169087678
 30
0.0
 11
121.1616743197976
 21
92.5095169087678
 31
0.0
  0
INSERT
  5
72C
330
75
100
AcDbEntity
  8
レイヤー_1
 62
     7
100
AcDbBlockReference
  2
AI9-BLK20
 10
113.8603113197976
 20
91.23999890876786
 30
0.0
  0
POLYLINE
  5
72D
330
75
100
AcDbEntity
  8
レイヤー_1
 62
     7
100
AcDb2dPolyline
 66
     1
 10
0.0
 20
0.0
 30
0.0
 70
     1
  0
VERTEX
  5
72E
330
72D
100
AcDbEntity
  8
レイヤー_1
 62
     7
100
AcDbVertex
100
AcDb2dVertex
 10
117.1929243197976
 20
86.28905190876782
 30
0.0
  0
VERTEX
  5
72F
330
72D
100
AcDbEntity
  8
レイヤー_1
 62
     7
100
AcDbVertex
100
AcDb2dVertex
 10
110.5280423197976
 20
86.28905190876782
 30
0.0
  0
VERTEX
  5
730
330
72D
100
AcDbEntity
  8
レイヤー_1
 62
     7
100
AcDbVertex
100
AcDb2dVertex
 10
110.5280423197976
 20
96.19094590876782
 30
0.0
  0
VERTEX
  5
731
330
72D
100
AcDbEntity
  8
レイヤー_1
 62
     7
100
AcDbVertex
100
AcDb2dVertex
 10
117.1929243197976
 20
96.19094590876782
 30
0.0
  0
SEQEND
  5
732
330
72D
100
AcDbEntity
  8
レイヤー_1
 62
     7
  0
CIRCLE
  5
733
330
75
100
AcDbEntity
  8
レイヤー_1
 62
     7
100
AcDbCircle
 10
104.0171563197976
 20
95.7720219087678
 30
0.0
 40
0.742418
  0
CIRCLE
  5
734
330
75
100
AcDbEntity
  8
レイヤー_1
 62
     7
100
AcDbCircle
 10
104.0175013197976
 20
95.7720219087678
 30
0.0
 40
1.313959
  0
SPLINE
  5
735
330
75
100
AcDbEntity
  8
レイヤー_1
 62
     7
100
AcDbSpline
210
0.0
220
0.0
230
1.0
 70
    11
 71
     3
 72
    29
 73
    25
 74
     0
 42
0.0000000001
 43
0.0000000001
 40
0.0
 40
0.0
 40
0.0
 40
0.0
 40
1.0
 40
1.0
 40
1.0
 40
2.0
 40
2.0
 40
2.0
 40
3.0
 40
3.0
 40
3.0
 40
4.0
 40
4.0
 40
4.0
 40
5.0
 40
5.0
 40
5.0
 40
6.0
 40
6.0
 40
6.0
 40
7.0
 40
7.0
 40
7.0
 40
8.0
 40
8.0
 40
8.0
 40
8.0
 10
120.6297514048671
 20
84.06696549123308
 30
0.0
 10
120.6297514048671
 20
82.66618966658029
 30
0.0
 10
119.482534607992
 20
81.52999717526087
 30
0.0
 10
118.0672893822976
 20
81.52999717526087
 30
0.0
 10
118.0672893822976
 20
81.52999717526087
 30
0.0
 10
46.20845420434622
 20
81.52999717526087
 30
0.0
 10
46.20845420434622
 20
81.52999717526087
 30
0.0
 10
44.79320897865179
 20
81.52999717526087
 30
0.0
 10
43.64616443655108
 20
82.66618966658029
 30
0.0
 10
43.64616443655108
 20
84.06696549123308
 30
0.0
 10
43.64616443655108
 20
84.06696549123308
 30
0.0
 10
43.64616443655108
 20
100.7736115415802
 30
0.0
 10
43.64616443655108
 20
100.7736115415802
 30
0.0
 10
43.64616443655108
 20
102.1750763853302
 30
0.0
 10
44.79320897865179
 20
103.3105798575525
 30
0.0
 10
46.20845420434622
 20
103.3105798575525
 30
0.0
 10
46.20845420434622
 20
103.3105798575525
 30
0.0
 10
118.0672893822976
 20
103.3105798575525
 30
0.0
 10
118.0672893822976
 20
103.3105798575525
 30
0.0
 10
119.482534607992
 20
103.3105798575525
 30
0.0
 10
120.6297514048671
 20
102.1750763853302
 30
0.0
 10
120.6297514048671
 20
100.7736115415802
 30
0.0
 10
120.6297514048671
 20
100.7736115415802
 30
0.0
 10
120.6297514048671
 20
84.06696549123308
 30
0.0
 10
120.6297514048671
 20
84.06696549123308
 30
0.0
  0
SPLINE
  5
736
330
75
100
AcDbEntity
  8
レイヤー_1
 62
     7
100
AcDbSpline
210
0.0
220
0.0
230
1.0
 70
    11
 71
     3
 72
    29
 73
    25
 74
     0
 42
0.0000000001
 43
0.0000000001
 40
0.0
 40
0.0
 40
0.0
 40
0.0
 40
1.0
 40
1.0
 40
1.0
 40
2.0
 40
2.0
 40
2.0
 40
3.0
 40
3.0
 40
3.0
 40
4.0
 40
4.0
 40
4.0
 40
5.0
 40
5.0
 40
5.0
 40
6.0
 40
6.0
 40
6.0
 40
7.0
 40
7.0
 40
7.0
 40
8.0
 40
8.0
 40
8.0
 40
8.0
 10
121.1361804413254
 20
83.62806032630253
 30
0.0
 10
121.1361804413254
 20
82.15287043914974
 30
0.0
 10
119.9717381670198
 20
80.95742230546919
 30
0.0
 10
118.5351333493114
 20
80.95742230546919
 30
0.0
 10
118.5351333493114
 20
80.95742230546919
 30
0.0
 10
45.58833701684622
 20
80.95742230546919
 30
0.0
 10
45.58833701684622
 20
80.95742230546919
 30
0.0
 10
44.15173219913788
 20
80.95742230546919
 30
0.0
 10
42.98728992483233
 20
82.15287043914974
 30
0.0
 10
42.98728992483233
 20
83.62806032630253
 30
0.0
 10
42.98728992483233
 20
83.62806032630253
 30
0.0
 10
42.98728992483233
 20
101.2132057256081
 30
0.0
 10
42.98728992483233
 20
101.2132057256081
 30
0.0
 10
42.98728992483233
 20
102.6883956127608
 30
0.0
 10
44.15173219913788
 20
103.8838437464414
 30
0.0
 10
45.58833701684622
 20
103.8838437464414
 30
0.0
 10
45.58833701684622
 20
103.8838437464414
 30
0.0
 10
118.5351333493114
 20
103.8838437464414
 30
0.0
 10
118.5351333493114
 20
103.8838437464414
 30
0.0
 10
119.9717381670198
 20
103.8838437464414
 30
0.0
 10
121.1361804413254
 20
102.6883956127608
 30
0.0
 10
121.1361804413254
 20
101.2132057256081
 30
0.0
 10
121.1361804413254
 20
101.2132057256081
 30
0.0
 10
121.1361804413254
 20
83.62806032630253
 30
0.0
 10
121.1361804413254
 20
83.62806032630253
 30
0.0
  0
DIMENSION
  5
739
330
75
100
AcDbEntity
  8
AM_5
100
AcDbDimension
  2
*D22
 10
121.1645721639484
 20
61.90220910465303
 30
0.0
 11
82.07964041882235
 21
63.77720910465303
 31
0.0
 70
    32
  1
167
 71
     5
 42
78.16986349025206
  3
ISO-25$0
100
AcDbAlignedDimension
 13
42.99470867369631
 23
83.60879878742276
 33
0.0
 14
121.1645721639484
 24
83.65493136835494
 34
0.0
 50
0.0000000000001132
100
AcDbRotatedDimension
1001
ACAD_DSTYLE_DIMINSPECT
1070
   396
1000
100%
1070
   395
1000

1070
   394
1070
    33
1070
   393
1070
     0
  0
DIMENSION
  5
76D
330
75
100
AcDbEntity
  8
AM_5
100
AcDbDimension
  2
*D23
 10
148.2587044034244
 20
78.46462724710193
 30
0.0
 11
146.3837044034244
 21
91.15536266081713
 31
0.0
 70
    32
  1
54
 71
     5
 42
25.38147082743035
  3
ISO-25$0
100
AcDbAlignedDimension
 13
118.2268318126334
 23
103.8460980745323
 33
0.0
 14
115.0950162809213
 24
78.46462724710193
 34
0.0
 50
90.0
100
AcDbRotatedDimension
1001
ACAD_DSTYLE_DIMINSPECT
1070
   396
1000
100%
1070
   395
1000

1070
   394
1070
    33
1070
   393
1070
     0
  0
DIMENSION
  5
79E
330
75
100
AcDbEntity
  8
AM_5
100
AcDbDimension
  2
*D24
 10
135.3958905255458
 20
78.46462724710193
 30
0.0
 11
135.3958905255458
 21
87.21617266127333
 31
0.0
 70
   160
  1
5
 71
     5
 42
2.459878747504717
  3
ISO-25$0
100
AcDbAlignedDimension
 13
115.4305680319517
 23
80.92450599460667
 33
0.0
 14
115.1509417755692
 24
78.46462724710193
 34
0.0
 50
90.0
100
AcDbRotatedDimension
1001
ACAD_DSTYLE_DIMINSPECT
1070
   396
1000
100%
1070
   395
1000

1070
   394
1070
    33
1070
   393
1070
     0
  0
DIMENSION
  5
7E4
330
75
100
AcDbEntity
  8
AM_5
100
AcDbDimension
  2
*D25
 10
131.9442669284745
 20
194.7111135389498
 30
0.0
 11
131.9442669284744
 21
158.928123783832
 31
0.0
 70
   160
  1
157
 71
     5
 42
71.5659795102356
  3
ISO-25$0
100
AcDbAlignedDimension
 13
119.9961882022878
 23
123.1451340287142
 33
0.0
 14
119.9961882022878
 24
194.7111135389498
 34
0.0
 50
90.0
100
AcDbRotatedDimension
1001
ACAD_DSTYLE_DIMINSPECT
1070
   396
1000
100%
1070
   395
1000

1070
   394
1070
    33
1070
   393
1070
     0
  0
ENDSEC
  0
SECTION
  2
OBJECTS
  0
DICTIONARY
  5
C
330
0
100
AcDbDictionary
281
     1
  3
ACAD_2007HEADERVARS_RT
350
90E
  3
ACAD_COLOR
350
6B
  3
ACAD_GROUP
350
D
  3
ACAD_LAYOUT
350
6A
  3
ACAD_MATERIAL
350
10
  3
ACAD_MLEADERSTYLE
350
6E
  3
ACAD_MLINESTYLE
350
67
  3
ACAD_PLOTSETTINGS
350
69
  3
ACAD_PLOTSTYLENAME
350
E
  3
ACAD_SCALELIST
350
3A
  3
ACAD_TABLESTYLE
350
6C
  3
ACAD_VISUALSTYLE
350
29
  3
ACDB_RECOMPOSE_DATA
350
163
  3
AcDbVariableDictionary
350
164
  3
AcmDictionary
350
DC
  3
AMG
350
7F
  3
AMGSNAPSETTINGS
350
13A
  3
ASE_INDEX_DICTIONARY
350
40E
  3
DWGPROPS
350
90D
  0
DICTIONARY
  5
12A
330
2
100
AcDbDictionary
280
     1
281
     1
  3
ACAD_LAYERSTATES
360
12B
  3
AMLAYER_GROUPCOLORS
360
1BE
  0
DICTIONARY
  5
158
330
5C
100
AcDbDictionary
280
     1
281
     1
  3
ADSK_XREC_LAYER_RECONCILED
360
159
  0
DICTIONARY
  5
11A
330
119
100
AcDbDictionary
280
     1
281
     1
  3
ADSK_XREC_LAYER_RECONCILED
360
15A
  0
DICTIONARY
  5
11C
330
11B
100
AcDbDictionary
280
     1
281
     1
  3
ADSK_XREC_LAYER_RECONCILED
360
15B
  0
DICTIONARY
  5
15C
330
11D
100
AcDbDictionary
280
     1
281
     1
  3
ADSK_XREC_LAYER_RECONCILED
360
15D
  0
DICTIONARY
  5
90E
102
{ACAD_REACTORS
330
C
102
}
330
C
100
AcDbDictionary
281
     1
  3
DIMARCSYM
350
90F
  3
DIMJOGANG
350
910
  0
DICTIONARY
  5
6B
102
{ACAD_REACTORS
330
C
102
}
330
C
100
AcDbDictionary
281
     1
  0
DICTIONARY
  5
D
102
{ACAD_REACTORS
330
C
102
}
330
C
100
AcDbDictionary
281
     1
  0
DICTIONARY
  5
6A
102
{ACAD_REACTORS
330
C
102
}
330
C
100
AcDbDictionary
281
     1
  3
Model
350
78
  3
レイアウト1
350
74
  3
レイアウト2
350
7C
  0
DICTIONARY
  5
10
102
{ACAD_REACTORS
330
C
102
}
330
C
100
AcDbDictionary
281
     1
  3
ByBlock
350
19
  3
ByLayer
350
11
  3
Global
350
21
  0
DICTIONARY
  5
6E
102
{ACAD_REACTORS
330
C
102
}
330
C
100
AcDbDictionary
281
     1
  3
Standard
350
6F
  0
DICTIONARY
  5
67
102
{ACAD_REACTORS
330
C
102
}
330
C
100
AcDbDictionary
281
     1
  3
Standard
350
68
  0
DICTIONARY
  5
69
102
{ACAD_REACTORS
330
C
102
}
330
C
100
AcDbDictionary
281
     1
  0
ACDBDICTIONARYWDFLT
  5
E
102
{ACAD_REACTORS
330
C
102
}
330
C
100
AcDbDictionary
281
     1
  3
Normal
350
F
100
AcDbDictionaryWithDefault
340
F
  0
DICTIONARY
  5
3A
102
{ACAD_REACTORS
330
C
102
}
330
C
100
AcDbDictionary
281
     1
  3
A0
350
3B
  3
A1
350
3C
  3
A2
350
3D
  3
A3
350
3E
  3
A4
350
3F
  3
A5
350
40
  3
A6
350
41
  3
A7
350
42
  3
A8
350
43
  3
A9
350
44
  3
B0
350
45
  3
B1
350
46
  3
B2
350
47
  3
B3
350
48
  3
B4
350
49
  3
B5
350
4A
  3
B6
350
4B
  3
B7
350
4C
  3
B8
350
4D
  3
B9
350
4E
  3
C0
350
4F
  3
C1
350
50
  3
C2
350
51
  3
C3
350
52
  3
C4
350
53
  3
C5
350
54
  3
C6
350
55
  3
C7
350
56
  3
C8
350
57
  3
C9
350
58
  3
D0
350
59
  3
D1
350
5A
  3
D2
350
5B
  0
DICTIONARY
  5
6C
102
{ACAD_REACTORS
330
C
102
}
330
C
100
AcDbDictionary
281
     1
  3
Standard
350
6D
  0
DICTIONARY
  5
29
102
{ACAD_REACTORS
330
C
102
}
330
C
100
AcDbDictionary
281
     1
  3
2dWireframe
350
2F
  3
3D Hidden
350
31
  3
3dWireframe
350
30
  3
Basic
350
2E
  3
Brighten
350
35
  3
ColorChange
350
39
  3
Conceptual
350
32
  3
Dim
350
34
  3
Facepattern
350
38
  3
Flat
350
2A
  3
FlatWithEdges
350
2B
  3
Gouraud
350
2C
  3
GouraudWithEdges
350
2D
  3
Linepattern
350
37
  3
Realistic
350
33
  3
Thicken
350
36
  0
XRECORD
  5
163
102
{ACAD_REACTORS
330
C
102
}
330
C
100
AcDbXrecord
280
     1
 90
        1
330
6D
  0
DICTIONARY
  5
164
102
{ACAD_REACTORS
330
C
102
}
330
C
100
AcDbDictionary
281
     1
  3
CANNOSCALE
350
167
  3
CMLEADERSTYLE
350
166
  3
CTABLESTYLE
350
165
  3
DIMASSOC
350
240
  3
HIDETEXT
350
23F
  3
INDEXCTL
350
23E
  3
LIGHTINGUNITS
350
23C
  3
MSLTSCALE
350
23B
  3
SORTENTS
350
23D
  0
DICTIONARY
  5
DC
102
{ACAD_REACTORS
330
C
102
}
330
C
100
AcDbDictionary
281
     1
  3
AcmStdDictionary
350
DE
  3
AMDTSECTSYM_ARROWCOLOR
350
F6
  0
DICTIONARY
  5
7F
102
{ACAD_REACTORS
330
C
102
}
330
C
100
AcDbDictionary
281
     1
  0
DICTIONARY
  5
13A
102
{ACAD_REACTORS
330
C
102
}
330
C
100
AcDbDictionary
281
     1
  0
DICTIONARY
  5
40E
102
{ACAD_REACTORS
330
C
102
}
330
C
100
AcDbDictionary
281
     1
  3
ASEBlockHierarchyIndexRecord
350
40F
1001
DCO15
1040
1619788443.453
  0
XRECORD
  5
90D
102
{ACAD_REACTORS
330
C
102
}
330
C
100
AcDbXrecord
280
     1
  1
DWGPROPS COOKIE
  2

  3

  4

  6

  7

  8
Administrator
  9

300
=
301
=
302
=
303
=
304
=
305
=
306
=
307
=
308
=
309
=
 40
0.0141822106481482
 41
2454313.581725069
 42
2454550.763280706
  1

 90
        0
  0
DICTIONARY
  5
12B
102
{ACAD_REACTORS
330
12A
102
}
330
12A
100
AcDbDictionary
281
     1
  0
DICTIONARY
  5
1BE
102
{ACAD_REACTORS
330
12A
102
}
330
12A
100
AcDbDictionary
280
     1
281
     1
  0
XRECORD
  5
159
102
{ACAD_REACTORS
330
158
102
}
330
158
100
AcDbXrecord
280
     1
290
     1
  0
XRECORD
  5
15A
102
{ACAD_REACTORS
330
11A
102
}
330
11A
100
AcDbXrecord
280
     1
290
     1
  0
XRECORD
  5
15B
102
{ACAD_REACTORS
330
11C
102
}
330
11C
100
AcDbXrecord
280
     1
290
     1
  0
XRECORD
  5
15D
102
{ACAD_REACTORS
330
15C
102
}
330
15C
100
AcDbXrecord
280
     1
290
     1
  0
XRECORD
  5
90F
102
{ACAD_REACTORS
330
90E
102
}
330
90E
100
AcDbXrecord
280
     1
 70
     1
  0
XRECORD
  5
910
102
{ACAD_REACTORS
330
90E
102
}
330
90E
100
AcDbXrecord
280
     1
 40
1.570796326794896
  0
LAYOUT
  5
78
102
{ACAD_XDICTIONARY
360
914
102
}
102
{ACAD_REACTORS
330
6A
102
}
330
6A
100
AcDbPlotSettings
  1

  2
EPSON LP-8800C
  4
A4
  6

 40
5.873749732971191
 41
5.873717308044432
 42
5.873748779296875
 43
5.873748779296875
 44
209.9733276367186
 45
297.0106506347656
 46
-5.887085437774657
 47
-5.868407726287839
 48
0.0
 49
0.0
140
0.0
141
0.0
142
1.0
143
1.0
 70
 11940
 72
     1
 73
     0
 74
     2
  7
monochrome.ctb
 75
     0
147
0.6674270340890596
148
0.0
149
0.0
100
AcDbLayout
  1
Model
 70
     1
 71
     0
 10
0.0
 20
0.0
 11
12.0
 21
9.0
 12
0.0
 22
0.0
 32
0.0
 14
0.0
 24
0.0
 34
0.0
 15
0.0
 25
0.0
 35
0.0
146
0.0
 13
0.0
 23
0.0
 33
0.0
 16
1.0
 26
0.0
 36
0.0
 17
0.0
 27
1.0
 37
0.0
 76
     0
330
75
331
5F
1001
ACAD_PSEXT
1000
EPSON LP-8800C
1000
EPSON LP-8800C
1000
IP_192.168.0.95
1000

1070
     0
  0
LAYOUT
  5
74
102
{ACAD_XDICTIONARY
360
912
102
}
102
{ACAD_REACTORS
330
6A
102
}
330
6A
100
AcDbPlotSettings
  1

  2
EPSON LP-8800C
  4

  6

 40
0.0
 41
0.0
 42
0.0
 43
0.0
 44
0.0
 45
0.0
 46
0.0
 47
0.0
 48
0.0
 49
0.0
140
0.0
141
0.0
142
1.0
143
1.0
 70
   688
 72
     0
 73
     0
 74
     5
  7
monochrome.ctb
 75
    16
147
1.0
148
0.0
149
0.0
100
AcDbLayout
  1
レイアウト1
 70
     1
 71
     1
 10
0.0
 20
0.0
 11
420.0
 21
297.0
 12
0.0
 22
0.0
 32
0.0
 14
1.000000000000000E+20
 24
1.000000000000000E+20
 34
1.000000000000000E+20
 15
-1.000000000000000E+20
 25
-1.000000000000000E+20
 35
-1.000000000000000E+20
146
0.0
 13
0.0
 23
0.0
 33
0.0
 16
1.0
 26
0.0
 36
0.0
 17
0.0
 27
1.0
 37
0.0
 76
     0
330
71
  0
LAYOUT
  5
7C
102
{ACAD_XDICTIONARY
360
916
102
}
102
{ACAD_REACTORS
330
6A
102
}
330
6A
100
AcDbPlotSettings
  1

  2
EPSON LP-8800C
  4

  6

 40
0.0
 41
0.0
 42
0.0
 43
0.0
 44
0.0
 45
0.0
 46
0.0
 47
0.0
 48
0.0
 49
0.0
140
0.0
141
0.0
142
1.0
143
1.0
 70
   688
 72
     0
 73
     0
 74
     5
  7
monochrome.ctb
 75
    16
147
1.0
148
0.0
149
0.0
100
AcDbLayout
  1
レイアウト2
 70
     1
 71
     2
 10
0.0
 20
0.0
 11
12.0
 21
9.0
 12
0.0
 22
0.0
 32
0.0
 14
0.0
 24
0.0
 34
0.0
 15
0.0
 25
0.0
 35
0.0
146
0.0
 13
0.0
 23
0.0
 33
0.0
 16
1.0
 26
0.0
 36
0.0
 17
0.0
 27
1.0
 37
0.0
 76
     0
330
79
  0
MATERIAL
  5
19
102
{ACAD_XDICTIONARY
360
1A
102
}
102
{ACAD_REACTORS
330
10
102
}
330
10
100
AcDbMaterial
  1
ByBlock
 72
     0
 43
0.0208333333333333
 43
0.0
 43
0.0
 43
0.0
 43
0.0
 43
0.0208333333333333
 43
0.0
 43
0.0
 43
0.0
 43
0.0
 43
1.0
 43
0.0
 43
0.0
 43
0.0
 43
0.0
 43
1.0
 77
     0
 47
0.0208333333333333
 47
0.0
 47
0.0
 47
0.0
 47
0.0
 47
0.0208333333333333
 47
0.0
 47
0.0
 47
0.0
 47
0.0
 47
1.0
 47
0.0
 47
0.0
 47
0.0
 47
0.0
 47
1.0
171
     0
 49
0.0208333333333333
 49
0.0
 49
0.0
 49
0.0
 49
0.0
 49
0.0208333333333333
 49
0.0
 49
0.0
 49
0.0
 49
0.0
 49
1.0
 49
0.0
 49
0.0
 49
0.0
 49
0.0
 49
1.0
175
     0
142
0.0208333333333333
142
0.0
142
0.0
142
0.0
142
0.0
142
0.0208333333333333
142
0.0
142
0.0
142
0.0
142
0.0
142
1.0
142
0.0
142
0.0
142
0.0
142
0.0
142
1.0
179
     0
144
0.0208333333333333
144
0.0
144
0.0
144
0.0
144
0.0
144
0.0208333333333333
144
0.0
144
0.0
144
0.0
144
0.0
144
1.0
144
0.0
144
0.0
144
0.0
144
0.0
144
1.0
147
0.0208333333333333
147
0.0
147
0.0
147
0.0
147
0.0
147
0.0208333333333333
147
0.0
147
0.0
147
0.0
147
0.0
147
1.0
147
0.0
147
0.0
147
0.0
147
0.0
147
1.0
  0
MATERIAL
  5
11
102
{ACAD_XDICTIONARY
360
12
102
}
102
{ACAD_REACTORS
330
10
102
}
330
10
100
AcDbMaterial
  1
ByLayer
 72
     0
 43
0.0208333333333333
 43
0.0
 43
0.0
 43
0.0
 43
0.0
 43
0.0208333333333333
 43
0.0
 43
0.0
 43
0.0
 43
0.0
 43
1.0
 43
0.0
 43
0.0
 43
0.0
 43
0.0
 43
1.0
 77
     0
 47
0.0208333333333333
 47
0.0
 47
0.0
 47
0.0
 47
0.0
 47
0.0208333333333333
 47
0.0
 47
0.0
 47
0.0
 47
0.0
 47
1.0
 47
0.0
 47
0.0
 47
0.0
 47
0.0
 47
1.0
171
     0
 49
0.0208333333333333
 49
0.0
 49
0.0
 49
0.0
 49
0.0
 49
0.0208333333333333
 49
0.0
 49
0.0
 49
0.0
 49
0.0
 49
1.0
 49
0.0
 49
0.0
 49
0.0
 49
0.0
 49
1.0
175
     0
142
0.0208333333333333
142
0.0
142
0.0
142
0.0
142
0.0
142
0.0208333333333333
142
0.0
142
0.0
142
0.0
142
0.0
142
1.0
142
0.0
142
0.0
142
0.0
142
0.0
142
1.0
179
     0
144
0.0208333333333333
144
0.0
144
0.0
144
0.0
144
0.0
144
0.0208333333333333
144
0.0
144
0.0
144
0.0
144
0.0
144
1.0
144
0.0
144
0.0
144
0.0
144
0.0
144
1.0
147
0.0208333333333333
147
0.0
147
0.0
147
0.0
147
0.0
147
0.0208333333333333
147
0.0
147
0.0
147
0.0
147
0.0
147
1.0
147
0.0
147
0.0
147
0.0
147
0.0
147
1.0
  0
MATERIAL
  5
21
102
{ACAD_XDICTIONARY
360
22
102
}
102
{ACAD_REACTORS
330
10
102
}
330
10
100
AcDbMaterial
  1
Global
 72
     0
 43
0.0208333333333333
 43
0.0
 43
0.0
 43
0.0
 43
0.0
 43
0.0208333333333333
 43
0.0
 43
0.0
 43
0.0
 43
0.0
 43
1.0
 43
0.0
 43
0.0
 43
0.0
 43
0.0
 43
1.0
 77
     0
 47
0.0208333333333333
 47
0.0
 47
0.0
 47
0.0
 47
0.0
 47
0.0208333333333333
 47
0.0
 47
0.0
 47
0.0
 47
0.0
 47
1.0
 47
0.0
 47
0.0
 47
0.0
 47
0.0
 47
1.0
171
     0
 49
0.0208333333333333
 49
0.0
 49
0.0
 49
0.0
 49
0.0
 49
0.0208333333333333
 49
0.0
 49
0.0
 49
0.0
 49
0.0
 49
1.0
 49
0.0
 49
0.0
 49
0.0
 49
0.0
 49
1.0
175
     0
142
0.0208333333333333
142
0.0
142
0.0
142
0.0
142
0.0
142
0.0208333333333333
142
0.0
142
0.0
142
0.0
142
0.0
142
1.0
142
0.0
142
0.0
142
0.0
142
0.0
142
1.0
179
     0
144
0.0208333333333333
144
0.0
144
0.0
144
0.0
144
0.0
144
0.0208333333333333
144
0.0
144
0.0
144
0.0
144
0.0
144
1.0
144
0.0
144
0.0
144
0.0
144
0.0
144
1.0
147
0.0208333333333333
147
0.0
147
0.0
147
0.0
147
0.0
147
0.0208333333333333
147
0.0
147
0.0
147
0.0
147
0.0
147
1.0
147
0.0
147
0.0
147
0.0
147
0.0
147
1.0
  0
MLEADERSTYLE
  5
6F
102
{ACAD_REACTORS
330
6E
102
}
330
6E
100
AcDbMLeaderStyle
170
     2
171
     1
172
     0
 90
        2
 40
0.0
 41
0.0
173
     1
 91
-1056964608
340
63
 92
       -2
290
     1
 42
0.09
291
     1
 43
0.36
  3
Standard
 44
0.18
300

342
5D
174
     1
178
     6
175
     1
176
     0
 93
-1056964608
 45
0.18
292
     0
297
     0
 46
0.18
 94
-1056964608
 47
1.0
 49
1.0
140
1.0
293
     1
141
0.0
294
     1
177
     0
142
1.0
295
     0
296
     0
143
0.125
1001
ACAD_MLEADERVER
1070
     2
  0
MLINESTYLE
  5
68
102
{ACAD_REACTORS
330
67
102
}
330
67
100
AcDbMlineStyle
  2
STANDARD
 70
     0
  3

 62
   256
 51
90.0
 52
90.0
 71
     2
 49
0.5
 62
   256
  6
BYLAYER
 49
-0.5
 62
   256
  6
BYLAYER
  0
ACDBPLACEHOLDER
  5
F
102
{ACAD_REACTORS
330
E
102
}
330
E
  0
SCALE
  5
3B
102
{ACAD_REACTORS
330
3A
102
}
330
3A
100
AcDbScale
 70
     0
300
1:1
140
1.0
141
1.0
290
     1
  0
SCALE
  5
3C
102
{ACAD_REACTORS
330
3A
102
}
330
3A
100
AcDbScale
 70
     0
300
1:2
140
1.0
141
2.0
290
     0
  0
SCALE
  5
3D
102
{ACAD_REACTORS
330
3A
102
}
330
3A
100
AcDbScale
 70
     0
300
1:4
140
1.0
141
4.0
290
     0
  0
SCALE
  5
3E
102
{ACAD_REACTORS
330
3A
102
}
330
3A
100
AcDbScale
 70
     0
300
1:5
140
1.0
141
5.0
290
     0
  0
SCALE
  5
3F
102
{ACAD_REACTORS
330
3A
102
}
330
3A
100
AcDbScale
 70
     0
300
1:8
140
1.0
141
8.0
290
     0
  0
SCALE
  5
40
102
{ACAD_REACTORS
330
3A
102
}
330
3A
100
AcDbScale
 70
     0
300
1:10
140
1.0
141
10.0
290
     0
  0
SCALE
  5
41
102
{ACAD_REACTORS
330
3A
102
}
330
3A
100
AcDbScale
 70
     0
300
1:16
140
1.0
141
16.0
290
     0
  0
SCALE
  5
42
102
{ACAD_REACTORS
330
3A
102
}
330
3A
100
AcDbScale
 70
     0
300
1:20
140
1.0
141
20.0
290
     0
  0
SCALE
  5
43
102
{ACAD_REACTORS
330
3A
102
}
330
3A
100
AcDbScale
 70
     0
300
1:30
140
1.0
141
30.0
290
     0
  0
SCALE
  5
44
102
{ACAD_REACTORS
330
3A
102
}
330
3A
100
AcDbScale
 70
     0
300
1:40
140
1.0
141
40.0
290
     0
  0
SCALE
  5
45
102
{ACAD_REACTORS
330
3A
102
}
330
3A
100
AcDbScale
 70
     0
300
1:50
140
1.0
141
50.0
290
     0
  0
SCALE
  5
46
102
{ACAD_REACTORS
330
3A
102
}
330
3A
100
AcDbScale
 70
     0
300
1:100
140
1.0
141
100.0
290
     0
  0
SCALE
  5
47
102
{ACAD_REACTORS
330
3A
102
}
330
3A
100
AcDbScale
 70
     0
300
2:1
140
2.0
141
1.0
290
     0
  0
SCALE
  5
48
102
{ACAD_REACTORS
330
3A
102
}
330
3A
100
AcDbScale
 70
     0
300
4:1
140
4.0
141
1.0
290
     0
  0
SCALE
  5
49
102
{ACAD_REACTORS
330
3A
102
}
330
3A
100
AcDbScale
 70
     0
300
8:1
140
8.0
141
1.0
290
     0
  0
SCALE
  5
4A
102
{ACAD_REACTORS
330
3A
102
}
330
3A
100
AcDbScale
 70
     0
300
10:1
140
10.0
141
1.0
290
     0
  0
SCALE
  5
4B
102
{ACAD_REACTORS
330
3A
102
}
330
3A
100
AcDbScale
 70
     0
300
100:1
140
100.0
141
1.0
290
     0
  0
SCALE
  5
4C
102
{ACAD_REACTORS
330
3A
102
}
330
3A
100
AcDbScale
 70
     0
300
1/128" = 1'-0"
140
0.0078125
141
12.0
290
     0
  0
SCALE
  5
4D
102
{ACAD_REACTORS
330
3A
102
}
330
3A
100
AcDbScale
 70
     0
300
1/64" = 1'-0"
140
0.015625
141
12.0
290
     0
  0
SCALE
  5
4E
102
{ACAD_REACTORS
330
3A
102
}
330
3A
100
AcDbScale
 70
     0
300
1/32" = 1'-0"
140
0.03125
141
12.0
290
     0
  0
SCALE
  5
4F
102
{ACAD_REACTORS
330
3A
102
}
330
3A
100
AcDbScale
 70
     0
300
1/16" = 1'-0"
140
0.0625
141
12.0
290
     0
  0
SCALE
  5
50
102
{ACAD_REACTORS
330
3A
102
}
330
3A
100
AcDbScale
 70
     0
300
3/32" = 1'-0"
140
0.09375
141
12.0
290
     0
  0
SCALE
  5
51
102
{ACAD_REACTORS
330
3A
102
}
330
3A
100
AcDbScale
 70
     0
300
1/8" = 1'-0"
140
0.125
141
12.0
290
     0
  0
SCALE
  5
52
102
{ACAD_REACTORS
330
3A
102
}
330
3A
100
AcDbScale
 70
     0
300
3/16" = 1'-0"
140
0.1875
141
12.0
290
     0
  0
SCALE
  5
53
102
{ACAD_REACTORS
330
3A
102
}
330
3A
100
AcDbScale
 70
     0
300
1/4" = 1'-0"
140
0.25
141
12.0
290
     0
  0
SCALE
  5
54
102
{ACAD_REACTORS
330
3A
102
}
330
3A
100
AcDbScale
 70
     0
300
3/8" = 1'-0"
140
0.375
141
12.0
290
     0
  0
SCALE
  5
55
102
{ACAD_REACTORS
330
3A
102
}
330
3A
100
AcDbScale
 70
     0
300
1/2" = 1'-0"
140
0.5
141
12.0
290
     0
  0
SCALE
  5
56
102
{ACAD_REACTORS
330
3A
102
}
330
3A
100
AcDbScale
 70
     0
300
3/4" = 1'-0"
140
0.75
141
12.0
290
     0
  0
SCALE
  5
57
102
{ACAD_REACTORS
330
3A
102
}
330
3A
100
AcDbScale
 70
     0
300
1" = 1'-0"
140
1.0
141
12.0
290
     0
  0
SCALE
  5
58
102
{ACAD_REACTORS
330
3A
102
}
330
3A
100
AcDbScale
 70
     0
300
1-1/2" = 1'-0"
140
1.5
141
12.0
290
     0
  0
SCALE
  5
59
102
{ACAD_REACTORS
330
3A
102
}
330
3A
100
AcDbScale
 70
     0
300
3" = 1'-0"
140
3.0
141
12.0
290
     0
  0
SCALE
  5
5A
102
{ACAD_REACTORS
330
3A
102
}
330
3A
100
AcDbScale
 70
     0
300
6" = 1'-0"
140
6.0
141
12.0
290
     0
  0
SCALE
  5
5B
102
{ACAD_REACTORS
330
3A
102
}
330
3A
100
AcDbScale
 70
     0
300
1'-0" = 1'-0"
140
12.0
141
12.0
290
     0
  0
TABLESTYLE
  5
6D
102
{ACAD_XDICTIONARY
360
161
102
}
102
{ACAD_REACTORS
330
6C
102
}
330
6C
100
AcDbTableStyle
  3
Standard
 70
     0
 71
     0
 40
1.5
 41
1.5
280
     0
281
     0
  7
STANDARD
140
4.5
170
     2
 62
     0
 63
     7
283
     0
274
    -2
284
     1
 64
     0
275
    -2
285
     1
 65
     0
276
    -2
286
     1
 66
     0
277
    -2
287
     1
 67
     0
278
    -2
288
     1
 68
     0
279
    -2
289
     1
 69
     0
  7
STANDARD
140
6.0
170
     5
 62
     0
 63
     7
283
     0
274
    -2
284
     1
 64
     0
275
    -2
285
     1
 65
     0
276
    -2
286
     1
 66
     0
277
    -2
287
     1
 67
     0
278
    -2
288
     1
 68
     0
279
    -2
289
     1
 69
     0
  7
STANDARD
140
4.5
170
     5
 62
     0
 63
     7
283
     0
274
    -2
284
     1
 64
     0
275
    -2
285
     1
 65
     0
276
    -2
286
     1
 66
     0
277
    -2
287
     1
 67
     0
278
    -2
288
     1
 68
     0
279
    -2
289
     1
 69
     0
  0
VISUALSTYLE
  5
2F
102
{ACAD_REACTORS
330
29
102
}
330
29
100
AcDbVisualStyle
  2
2dWireframe
 70
     4
 71
     0
 72
     2
 73
     0
 90
        0
 40
-0.6
 41
-30.0
 62
     5
 63
     7
 74
     1
 91
        4
 64
     7
 65
   257
 75
     1
175
     1
 42
1.0
 92
        0
 66
   257
 43
1.0
 76
     1
 77
     6
 78
     2
 67
     7
 79
     5
170
     0
171
     0
290
     0
174
     0
 93
        1
 44
0.0
173
     0
291
     0
 45
0.0
1001
ACAD
1000
AcDbSavedByObjectVersion
1070
     0
1000
AcDbSavedByObjectVersion
1070
     0
1000
AcDbSavedByObjectVersion
1070
     0
1000
AcDbSavedByObjectVersion
1070
     0
  0
VISUALSTYLE
  5
31
102
{ACAD_REACTORS
330
29
102
}
330
29
100
AcDbVisualStyle
  2
3D Hidden
 70
     6
 71
     1
 72
     2
 73
     2
 90
        0
 40
-0.6
 41
-30.0
 62
     5
 63
     7
 74
     2
 91
        2
 64
     7
 65
   257
 75
     2
175
     1
 42
40.0
 92
        0
 66
   257
 43
1.0
 76
     1
 77
     6
 78
     2
 67
     7
 79
     3
170
     0
171
     0
290
     0
174
     0
 93
        1
 44
0.0
173
     0
291
     0
 45
0.0
1001
ACAD
1000
AcDbSavedByObjectVersion
1070
     0
1000
AcDbSavedByObjectVersion
1070
     0
1000
AcDbSavedByObjectVersion
1070
     0
1000
AcDbSavedByObjectVersion
1070
     0
  0
VISUALSTYLE
  5
30
102
{ACAD_REACTORS
330
29
102
}
330
29
100
AcDbVisualStyle
  2
3dWireframe
 70
     5
 71
     0
 72
     2
 73
     0
 90
        0
 40
-0.6
 41
-30.0
 62
     5
 63
     7
 74
     1
 91
        4
 64
     7
 65
   257
 75
     1
175
     1
 42
1.0
 92
        0
 66
   257
 43
1.0
 76
     1
 77
     6
 78
     2
 67
     7
 79
     5
170
     0
171
     0
290
     0
174
     0
 93
        1
 44
0.0
173
     0
291
     0
 45
0.0
1001
ACAD
1000
AcDbSavedByObjectVersion
1070
     0
1000
AcDbSavedByObjectVersion
1070
     0
1000
AcDbSavedByObjectVersion
1070
     0
1000
AcDbSavedByObjectVersion
1070
     0
  0
VISUALSTYLE
  5
2E
102
{ACAD_REACTORS
330
29
102
}
330
29
100
AcDbVisualStyle
  2
Basic
 70
     7
 71
     1
 72
     0
 73
     1
 90
        0
 40
-0.6
 41
-30.0
 62
     5
 63
     7
 74
     0
 91
        4
 64
     7
 65
   257
 75
     1
175
     1
 42
1.0
 92
        8
 66
     7
 43
1.0
 76
     1
 77
     6
 78
     2
 67
     7
 79
     5
170
     0
171
     0
290
     0
174
     0
 93
        1
 44
0.0
173
     0
291
     1
 45
0.0
1001
ACAD
1000
AcDbSavedByObjectVersion
1070
     0
1000
AcDbSavedByObjectVersion
1070
     0
1000
AcDbSavedByObjectVersion
1070
     0
1000
AcDbSavedByObjectVersion
1070
     0
  0
VISUALSTYLE
  5
35
102
{ACAD_REACTORS
330
29
102
}
330
29
100
AcDbVisualStyle
  2
Brighten
 70
    12
 71
     2
 72
     2
 73
     0
 90
        0
 40
-0.6
 41
-30.0
 62
     5
 63
     7
 74
     1
 91
        4
 64
     7
 65
   257
 75
     1
175
     1
 42
1.0
 92
        8
 66
     7
 43
1.0
 76
     1
 77
     6
 78
     2
 67
     7
 79
     5
170
     0
171
     0
290
     0
174
     0
 93
        1
 44
50.0
173
     0
291
     1
 45
0.0
1001
ACAD
1000
AcDbSavedByObjectVersion
1070
     0
1000
AcDbSavedByObjectVersion
1070
     0
1000
AcDbSavedByObjectVersion
1070
     0
1000
AcDbSavedByObjectVersion
1070
     0
  0
VISUALSTYLE
  5
39
102
{ACAD_REACTORS
330
29
102
}
330
29
100
AcDbVisualStyle
  2
ColorChange
 70
    16
 71
     2
 72
     2
 73
     3
 90
        0
 40
-0.6
 41
-30.0
 62
     5
 63
     8
 74
     1
 91
        4
 64
     7
 65
   257
 75
     1
175
     1
 42
1.0
 92
        8
 66
     8
 43
1.0
 76
     1
 77
     6
 78
     2
 67
     7
 79
     5
170
     0
171
     0
290
     0
174
     0
 93
        1
 44
0.0
173
     0
291
     1
 45
0.0
1001
ACAD
1000
AcDbSavedByObjectVersion
1070
     0
1000
AcDbSavedByObjectVersion
1070
     0
1000
AcDbSavedByObjectVersion
1070
     0
1000
AcDbSavedByObjectVersion
1070
     0
  0
VISUALSTYLE
  5
32
102
{ACAD_REACTORS
330
29
102
}
330
29
100
AcDbVisualStyle
  2
Conceptual
 70
     9
 71
     3
 72
     2
 73
     0
 90
        0
 40
-0.6
 41
-30.0
 62
     5
 63
     7
 74
     2
 91
        2
 64
     7
 65
   257
 75
     1
175
     1
 42
40.0
 92
        8
 66
     7
 43
1.0
 76
     1
 77
     6
 78
     2
 67
     7
 79
     3
170
     0
171
     0
290
     0
174
     0
 93
        1
 44
0.0
173
     0
291
     0
 45
0.0
1001
ACAD
1000
AcDbSavedByObjectVersion
1070
     0
1000
AcDbSavedByObjectVersion
1070
     0
1000
AcDbSavedByObjectVersion
1070
     0
1000
AcDbSavedByObjectVersion
1070
     0
  0
VISUALSTYLE
  5
34
102
{ACAD_REACTORS
330
29
102
}
330
29
100
AcDbVisualStyle
  2
Dim
 70
    11
 71
     2
 72
     2
 73
     0
 90
        0
 40
-0.6
 41
-30.0
 62
     5
 63
     7
 74
     1
 91
        4
 64
     7
 65
   257
 75
     1
175
     1
 42
1.0
 92
        8
 66
     7
 43
1.0
 76
     1
 77
     6
 78
     2
 67
     7
 79
     5
170
     0
171
     0
290
     0
174
     0
 93
        1
 44
-50.0
173
     0
291
     1
 45
0.0
1001
ACAD
1000
AcDbSavedByObjectVersion
1070
     0
1000
AcDbSavedByObjectVersion
1070
     0
1000
AcDbSavedByObjectVersion
1070
     0
1000
AcDbSavedByObjectVersion
1070
     0
  0
VISUALSTYLE
  5
38
102
{ACAD_REACTORS
330
29
102
}
330
29
100
AcDbVisualStyle
  2
Facepattern
 70
    15
 71
     2
 72
     2
 73
     0
 90
        0
 40
-0.6
 41
-30.0
 62
     5
 63
     7
 74
     1
 91
        4
 64
     7
 65
   257
 75
     1
175
     1
 42
1.0
 92
        8
 66
     7
 43
1.0
 76
     1
 77
     6
 78
     2
 67
     7
 79
     5
170
     0
171
     0
290
     0
174
     0
 93
        1
 44
0.0
173
     0
291
     1
 45
0.0
1001
ACAD
1000
AcDbSavedByObjectVersion
1070
     0
1000
AcDbSavedByObjectVersion
1070
     0
1000
AcDbSavedByObjectVersion
1070
     0
1000
AcDbSavedByObjectVersion
1070
     0
  0
VISUALSTYLE
  5
2A
102
{ACAD_REACTORS
330
29
102
}
330
29
100
AcDbVisualStyle
  2
Flat
 70
     0
 71
     2
 72
     1
 73
     1
 90
        2
 40
-0.6
 41
30.0
 62
     5
 63
     7
 74
     0
 91
        4
 64
     7
 65
   257
 75
     1
175
     1
 42
1.0
 92
        8
 66
     7
 43
1.0
 76
     1
 77
     6
 78
     2
 67
     7
 79
     5
170
     0
171
     0
290
     0
174
     0
 93
       13
 44
0.0
173
     0
291
     1
 45
0.0
1001
ACAD
1000
AcDbSavedByObjectVersion
1070
     0
1000
AcDbSavedByObjectVersion
1070
     0
1000
AcDbSavedByObjectVersion
1070
     0
1000
AcDbSavedByObjectVersion
1070
     0
  0
VISUALSTYLE
  5
2B
102
{ACAD_REACTORS
330
29
102
}
330
29
100
AcDbVisualStyle
  2
FlatWithEdges
 70
     1
 71
     2
 72
     1
 73
     1
 90
        2
 40
-0.6
 41
30.0
 62
     5
 63
     7
 74
     1
 91
        4
 64
     7
 65
   257
 75
     1
175
     1
 42
1.0
 92
        0
 66
   257
 43
1.0
 76
     1
 77
     6
 78
     2
 67
     7
 79
     5
170
     0
171
     0
290
     0
174
     0
 93
       13
 44
0.0
173
     0
291
     1
 45
0.0
1001
ACAD
1000
AcDbSavedByObjectVersion
1070
     0
1000
AcDbSavedByObjectVersion
1070
     0
1000
AcDbSavedByObjectVersion
1070
     0
1000
AcDbSavedByObjectVersion
1070
     0
  0
VISUALSTYLE
  5
2C
102
{ACAD_REACTORS
330
29
102
}
330
29
100
AcDbVisualStyle
  2
Gouraud
 70
     2
 71
     2
 72
     2
 73
     1
 90
        2
 40
-0.6
 41
30.0
 62
     5
 63
     7
 74
     0
 91
        4
 64
     7
 65
   257
 75
     1
175
     1
 42
1.0
 92
        0
 66
     7
 43
1.0
 76
     1
 77
     6
 78
     2
 67
     7
 79
     5
170
     0
171
     0
290
     0
174
     0
 93
       13
 44
0.0
173
     0
291
     1
 45
0.0
1001
ACAD
1000
AcDbSavedByObjectVersion
1070
     0
1000
AcDbSavedByObjectVersion
1070
     0
1000
AcDbSavedByObjectVersion
1070
     0
1000
AcDbSavedByObjectVersion
1070
     0
  0
VISUALSTYLE
  5
2D
102
{ACAD_REACTORS
330
29
102
}
330
29
100
AcDbVisualStyle
  2
GouraudWithEdges
 70
     3
 71
     2
 72
     2
 73
     1
 90
        2
 40
-0.6
 41
30.0
 62
     5
 63
     7
 74
     1
 91
        4
 64
     7
 65
   257
 75
     1
175
     1
 42
1.0
 92
        0
 66
   257
 43
1.0
 76
     1
 77
     6
 78
     2
 67
     7
 79
     5
170
     0
171
     0
290
     0
174
     0
 93
       13
 44
0.0
173
     0
291
     1
 45
0.0
1001
ACAD
1000
AcDbSavedByObjectVersion
1070
     0
1000
AcDbSavedByObjectVersion
1070
     0
1000
AcDbSavedByObjectVersion
1070
     0
1000
AcDbSavedByObjectVersion
1070
     0
  0
VISUALSTYLE
  5
37
102
{ACAD_REACTORS
330
29
102
}
330
29
100
AcDbVisualStyle
  2
Linepattern
 70
    14
 71
     2
 72
     2
 73
     0
 90
        0
 40
-0.6
 41
-30.0
 62
     5
 63
     7
 74
     1
 91
        4
 64
     7
 65
   257
 75
     7
175
     7
 42
1.0
 92
        8
 66
     7
 43
1.0
 76
     1
 77
     6
 78
     2
 67
     7
 79
     5
170
     0
171
     0
290
     0
174
     0
 93
        1
 44
0.0
173
     0
291
     1
 45
0.0
1001
ACAD
1000
AcDbSavedByObjectVersion
1070
     0
1000
AcDbSavedByObjectVersion
1070
     0
1000
AcDbSavedByObjectVersion
1070
     0
1000
AcDbSavedByObjectVersion
1070
     0
  0
VISUALSTYLE
  5
33
102
{ACAD_REACTORS
330
29
102
}
330
29
100
AcDbVisualStyle
  2
Realistic
 70
     8
 71
     2
 72
     2
 73
     0
 90
        0
 40
-0.6
 41
-30.0
 62
     5
 63
     7
 74
     1
 91
        0
 64
     7
 65
   257
 75
     1
175
     1
 42
1.0
 92
        8
 66
     8
 43
1.0
 76
     1
 77
     6
 78
     2
 67
     7
 79
     5
170
     0
171
     0
290
     0
174
     0
 93
       13
 44
0.0
173
     0
291
     0
 45
0.0
1001
ACAD
1000
AcDbSavedByObjectVersion
1070
     0
1000
AcDbSavedByObjectVersion
1070
     0
1000
AcDbSavedByObjectVersion
1070
     0
1000
AcDbSavedByObjectVersion
1070
     0
  0
VISUALSTYLE
  5
36
102
{ACAD_REACTORS
330
29
102
}
330
29
100
AcDbVisualStyle
  2
Thicken
 70
    13
 71
     2
 72
     2
 73
     0
 90
        0
 40
-0.6
 41
-30.0
 62
     5
 63
     7
 74
     1
 91
        4
 64
     7
 65
   257
 75
     1
175
     1
 42
1.0
 92
       12
 66
     7
 43
1.0
 76
     1
 77
     6
 78
     2
 67
     7
 79
     5
170
     0
171
     0
290
     0
174
     0
 93
        1
 44
0.0
173
     0
291
     1
 45
0.0
1001
ACAD
1000
AcDbSavedByObjectVersion
1070
     0
1000
AcDbSavedByObjectVersion
1070
     0
1000
AcDbSavedByObjectVersion
1070
     0
1000
AcDbSavedByObjectVersion
1070
     0
  0
DICTIONARYVAR
  5
167
102
{ACAD_REACTORS
330
164
102
}
330
164
100
DictionaryVariables
280
     0
  1
1:1
  0
DICTIONARYVAR
  5
166
102
{ACAD_REACTORS
330
164
102
}
330
164
100
DictionaryVariables
280
     0
  1
STANDARD
  0
DICTIONARYVAR
  5
165
102
{ACAD_REACTORS
330
164
102
}
330
164
100
DictionaryVariables
280
     0
  1
STANDARD
  0
DICTIONARYVAR
  5
240
102
{ACAD_REACTORS
330
164
102
}
330
164
100
DictionaryVariables
280
     0
  1
2
  0
DICTIONARYVAR
  5
23F
102
{ACAD_REACTORS
330
164
102
}
330
164
100
DictionaryVariables
280
     0
  1
1
  0
DICTIONARYVAR
  5
23E
102
{ACAD_REACTORS
330
164
102
}
330
164
100
DictionaryVariables
280
     0
  1
0
  0
DICTIONARYVAR
  5
23C
102
{ACAD_REACTORS
330
164
102
}
330
164
100
DictionaryVariables
280
     0
  1
2
  0
DICTIONARYVAR
  5
23B
102
{ACAD_REACTORS
330
164
102
}
330
164
100
DictionaryVariables
280
     0
  1
1
  0
DICTIONARYVAR
  5
23D
102
{ACAD_REACTORS
330
164
102
}
330
164
100
DictionaryVariables
280
     0
  1
127
  0
DICTIONARY
  5
DE
102
{ACAD_REACTORS
330
DC
102
}
330
DC
100
AcDbDictionary
281
     1
  0
XRECORD
  5
F6
102
{ACAD_REACTORS
330
DC
102
}
330
DC
100
AcDbXrecord
280
     1
 90
-1023410169
  0
XRECORD
  5
40F
102
{ACAD_REACTORS
330
40E
102
}
330
40E
100
AcDbXrecord
280
     1
330
700
330
701
330
72C
330
6DC
330
6DD
330
6FE
330
6FF
330
69A
330
69C
330
69D
330
69E
330
69F
330
6A6
330
6A7
330
6A8
330
6B0
330
6B1
330
6B2
330
6B3
  0
DICTIONARY
  5
914
330
78
100
AcDbDictionary
280
     1
281
     1
  3
ACAD_XREC_ROUNDTRIP
360
915
  0
DICTIONARY
  5
912
330
74
100
AcDbDictionary
280
     1
281
     1
  3
ACAD_XREC_ROUNDTRIP
360
913
  0
DICTIONARY
  5
916
330
7C
100
AcDbDictionary
280
     1
281
     1
  3
ACAD_XREC_ROUNDTRIP
360
917
  0
DICTIONARY
  5
1A
330
19
100
AcDbDictionary
280
     1
281
     1
  3
ACAD_XREC_ROUNDTRIP
360
246
  3
BUMPTILE
360
1C
  3
DIFFUSETILE
360
1B
  3
OPACITYTILE
360
1F
  3
REFLECTIONTILE
360
1E
  3
REFRACTIONTILE
360
20
  3
SPECULARTILE
360
1D
  0
DICTIONARY
  5
12
330
11
100
AcDbDictionary
280
     1
281
     1
  3
ACAD_XREC_ROUNDTRIP
360
245
  3
BUMPTILE
360
14
  3
DIFFUSETILE
360
13
  3
OPACITYTILE
360
17
  3
REFLECTIONTILE
360
16
  3
REFRACTIONTILE
360
18
  3
SPECULARTILE
360
15
  0
DICTIONARY
  5
22
330
21
100
AcDbDictionary
280
     1
281
     1
  3
ACAD_XREC_ROUNDTRIP
360
247
  3
BUMPTILE
360
24
  3
DIFFUSETILE
360
23
  3
OPACITYTILE
360
27
  3
REFLECTIONTILE
360
26
  3
REFRACTIONTILE
360
28
  3
SPECULARTILE
360
25
  0
DICTIONARY
  5
161
330
6D
100
AcDbDictionary
280
     1
281
     1
  3
ACAD_ROUNDTRIP_2008_TABLESTYLE_CELLSTYLEMAP
360
90C
  3
ACAD_XREC_ROUNDTRIP
360
911
  0
XRECORD
  5
915
102
{ACAD_REACTORS
330
914
102
}
330
914
100
AcDbXrecord
280
     1
102
SHADEPLOT
 70
     0
102
SHADEPLOTRESLEVEL
 70
     2
102
SHADEPLOTCUSTOMDPI
 70
   300
  0
XRECORD
  5
913
102
{ACAD_REACTORS
330
912
102
}
330
912
100
AcDbXrecord
280
     1
102
SHADEPLOT
 70
     0
102
SHADEPLOTRESLEVEL
 70
     2
102
SHADEPLOTCUSTOMDPI
 70
   300
  0
XRECORD
  5
917
102
{ACAD_REACTORS
330
916
102
}
330
916
100
AcDbXrecord
280
     1
102
SHADEPLOT
 70
     0
102
SHADEPLOTRESLEVEL
 70
     2
102
SHADEPLOTCUSTOMDPI
 70
   300
  0
XRECORD
  5
246
102
{ACAD_REACTORS
330
1A
102
}
330
1A
100
AcDbXrecord
280
     1
102
MATERIAL
148
0.0
149
0.0
149
0.0
 93
        0
 94
      127
282
     0
 72
     0
 77
     0
171
     0
175
     0
179
     0
273
     0
  0
XRECORD
  5
1C
102
{ACAD_REACTORS
330
1A
102
}
330
1A
100
AcDbXrecord
280
     1
270
     1
271
     1
  0
XRECORD
  5
1B
102
{ACAD_REACTORS
330
1A
102
}
330
1A
100
AcDbXrecord
280
     1
270
     1
271
     1
  0
XRECORD
  5
1F
102
{ACAD_REACTORS
330
1A
102
}
330
1A
100
AcDbXrecord
280
     1
270
     1
271
     1
  0
XRECORD
  5
1E
102
{ACAD_REACTORS
330
1A
102
}
330
1A
100
AcDbXrecord
280
     1
270
     1
271
     1
  0
XRECORD
  5
20
102
{ACAD_REACTORS
330
1A
102
}
330
1A
100
AcDbXrecord
280
     1
270
     1
271
     1
  0
XRECORD
  5
1D
102
{ACAD_REACTORS
330
1A
102
}
330
1A
100
AcDbXrecord
280
     1
270
     1
271
     1
  0
XRECORD
  5
245
102
{ACAD_REACTORS
330
12
102
}
330
12
100
AcDbXrecord
280
     1
102
MATERIAL
148
0.0
149
0.0
149
0.0
 93
        0
 94
      127
282
     0
 72
     0
 77
     0
171
     0
175
     0
179
     0
273
     0
  0
XRECORD
  5
14
102
{ACAD_REACTORS
330
12
102
}
330
12
100
AcDbXrecord
280
     1
270
     1
271
     1
  0
XRECORD
  5
13
102
{ACAD_REACTORS
330
12
102
}
330
12
100
AcDbXrecord
280
     1
270
     1
271
     1
  0
XRECORD
  5
17
102
{ACAD_REACTORS
330
12
102
}
330
12
100
AcDbXrecord
280
     1
270
     1
271
     1
  0
XRECORD
  5
16
102
{ACAD_REACTORS
330
12
102
}
330
12
100
AcDbXrecord
280
     1
270
     1
271
     1
  0
XRECORD
  5
18
102
{ACAD_REACTORS
330
12
102
}
330
12
100
AcDbXrecord
280
     1
270
     1
271
     1
  0
XRECORD
  5
15
102
{ACAD_REACTORS
330
12
102
}
330
12
100
AcDbXrecord
280
     1
270
     1
271
     1
  0
XRECORD
  5
247
102
{ACAD_REACTORS
330
22
102
}
330
22
100
AcDbXrecord
280
     1
102
MATERIAL
148
0.0
149
0.0
149
0.0
 93
        0
 94
      127
282
     0
 72
     0
 77
     0
171
     0
175
     0
179
     0
273
     0
  0
XRECORD
  5
24
102
{ACAD_REACTORS
330
22
102
}
330
22
100
AcDbXrecord
280
     1
270
     1
271
     1
  0
XRECORD
  5
23
102
{ACAD_REACTORS
330
22
102
}
330
22
100
AcDbXrecord
280
     1
270
     1
271
     1
  0
XRECORD
  5
27
102
{ACAD_REACTORS
330
22
102
}
330
22
100
AcDbXrecord
280
     1
270
     1
271
     1
  0
XRECORD
  5
26
102
{ACAD_REACTORS
330
22
102
}
330
22
100
AcDbXrecord
280
     1
270
     1
271
     1
  0
XRECORD
  5
28
102
{ACAD_REACTORS
330
22
102
}
330
22
100
AcDbXrecord
280
     1
270
     1
271
     1
  0
XRECORD
  5
25
102
{ACAD_REACTORS
330
22
102
}
330
22
100
AcDbXrecord
280
     1
270
     1
271
     1
  0
CELLSTYLEMAP
  5
90C
102
{ACAD_REACTORS
330
161
102
}
330
161
100
AcDbCellStyleMap
 90
        3
300
CELLSTYLE
  1
TABLEFORMAT_BEGIN
 90
        5
170
     1
 91
        0
 92
    32768
 62
   257
 93
        1
300
CONTENTFORMAT
  1
CONTENTFORMAT_BEGIN
 90
        0
 91
        0
 92
      512
 93
        0
300

 40
0.0
140
1.0
 94
        5
 62
     0
340
5D
144
6.0
309
CONTENTFORMAT_END
171
     1
301
MARGIN
  1
CELLMARGIN_BEGIN
 40
1.5
 40
1.5
 40
1.5
 40
1.5
 40
0.18
 40
0.18
309
CELLMARGIN_END
 94
        6
 95
        1
302
GRIDFORMAT
  1
GRIDFORMAT_BEGIN
 90
        0
 91
        1
 62
     0
 92
       -2
340
0
 93
        0
 40
1.125
309
GRIDFORMAT_END
 95
        2
302
GRIDFORMAT
  1
GRIDFORMAT_BEGIN
 90
        0
 91
        1
 62
     0
 92
       -2
340
0
 93
        0
 40
1.125
309
GRIDFORMAT_END
 95
        4
302
GRIDFORMAT
  1
GRIDFORMAT_BEGIN
 90
        0
 91
        1
 62
     0
 92
       -2
340
0
 93
        0
 40
1.125
309
GRIDFORMAT_END
 95
        8
302
GRIDFORMAT
  1
GRIDFORMAT_BEGIN
 90
        0
 91
        1
 62
     0
 92
       -2
340
0
 93
        0
 40
1.125
309
GRIDFORMAT_END
 95
       16
302
GRIDFORMAT
  1
GRIDFORMAT_BEGIN
 90
        0
 91
        1
 62
     0
 92
       -2
340
0
 93
        0
 40
1.125
309
GRIDFORMAT_END
 95
       32
302
GRIDFORMAT
  1
GRIDFORMAT_BEGIN
 90
        0
 91
        1
 62
     0
 92
       -2
340
0
 93
        0
 40
1.125
309
GRIDFORMAT_END
309
TABLEFORMAT_END
  1
CELLSTYLE_BEGIN
 90
        1
 91
        1
300
_TITLE
309
CELLSTYLE_END
300
CELLSTYLE
  1
TABLEFORMAT_BEGIN
 90
        5
170
     1
 91
        0
 92
        0
 62
   257
 93
        1
300
CONTENTFORMAT
  1
CONTENTFORMAT_BEGIN
 90
        0
 91
        0
 92
      512
 93
        0
300

 40
0.0
140
1.0
 94
        5
 62
     0
340
5D
144
4.5
309
CONTENTFORMAT_END
171
     1
301
MARGIN
  1
CELLMARGIN_BEGIN
 40
1.5
 40
1.5
 40
1.5
 40
1.5
 40
0.18
 40
0.18
309
CELLMARGIN_END
 94
        6
 95
        1
302
GRIDFORMAT
  1
GRIDFORMAT_BEGIN
 90
        0
 91
        1
 62
     0
 92
       -2
340
0
 93
        0
 40
1.125
309
GRIDFORMAT_END
 95
        2
302
GRIDFORMAT
  1
GRIDFORMAT_BEGIN
 90
        0
 91
        1
 62
     0
 92
       -2
340
0
 93
        0
 40
1.125
309
GRIDFORMAT_END
 95
        4
302
GRIDFORMAT
  1
GRIDFORMAT_BEGIN
 90
        0
 91
        1
 62
     0
 92
       -2
340
0
 93
        0
 40
1.125
309
GRIDFORMAT_END
 95
        8
302
GRIDFORMAT
  1
GRIDFORMAT_BEGIN
 90
        0
 91
        1
 62
     0
 92
       -2
340
0
 93
        0
 40
1.125
309
GRIDFORMAT_END
 95
       16
302
GRIDFORMAT
  1
GRIDFORMAT_BEGIN
 90
        0
 91
        1
 62
     0
 92
       -2
340
0
 93
        0
 40
1.125
309
GRIDFORMAT_END
 95
       32
302
GRIDFORMAT
  1
GRIDFORMAT_BEGIN
 90
        0
 91
        1
 62
     0
 92
       -2
340
0
 93
        0
 40
1.125
309
GRIDFORMAT_END
309
TABLEFORMAT_END
  1
CELLSTYLE_BEGIN
 90
        2
 91
        1
300
_HEADER
309
CELLSTYLE_END
300
CELLSTYLE
  1
TABLEFORMAT_BEGIN
 90
        5
170
     1
 91
        0
 92
        0
 62
   257
 93
        1
300
CONTENTFORMAT
  1
CONTENTFORMAT_BEGIN
 90
        0
 91
        0
 92
      512
 93
        0
300

 40
0.0
140
1.0
 94
        2
 62
     0
340
5D
144
4.5
309
CONTENTFORMAT_END
171
     1
301
MARGIN
  1
CELLMARGIN_BEGIN
 40
1.5
 40
1.5
 40
1.5
 40
1.5
 40
0.18
 40
0.18
309
CELLMARGIN_END
 94
        6
 95
        1
302
GRIDFORMAT
  1
GRIDFORMAT_BEGIN
 90
        0
 91
        1
 62
     0
 92
       -2
340
0
 93
        0
 40
1.125
309
GRIDFORMAT_END
 95
        2
302
GRIDFORMAT
  1
GRIDFORMAT_BEGIN
 90
        0
 91
        1
 62
     0
 92
       -2
340
0
 93
        0
 40
1.125
309
GRIDFORMAT_END
 95
        4
302
GRIDFORMAT
  1
GRIDFORMAT_BEGIN
 90
        0
 91
        1
 62
     0
 92
       -2
340
0
 93
        0
 40
1.125
309
GRIDFORMAT_END
 95
        8
302
GRIDFORMAT
  1
GRIDFORMAT_BEGIN
 90
        0
 91
        1
 62
     0
 92
       -2
340
0
 93
        0
 40
1.125
309
GRIDFORMAT_END
 95
       16
302
GRIDFORMAT
  1
GRIDFORMAT_BEGIN
 90
        0
 91
        1
 62
     0
 92
       -2
340
0
 93
        0
 40
1.125
309
GRIDFORMAT_END
 95
       32
302
GRIDFORMAT
  1
GRIDFORMAT_BEGIN
 90
        0
 91
        1
 62
     0
 92
       -2
340
0
 93
        0
 40
1.125
309
GRIDFORMAT_END
309
TABLEFORMAT_END
  1
CELLSTYLE_BEGIN
 90
        3
 91
        2
300
_DATA
309
CELLSTYLE_END
  0
XRECORD
  5
911
102
{ACAD_REACTORS
330
161
102
}
330
161
100
AcDbXrecord
280
     1
102
ACAD_ROUNDTRIP_PRE2007_TABLESTYLE
 90
      512
 91
        0
  1

 92
      512
 93
        0
  2

 94
      512
 95
        0
  3

  0
ENDSEC
  0
EOF
