  0
SECTION
  2
HEADER
  9
$ACADVER
  1
AC1015
  9
$ACADMAINTVER
 70
    20
  9
$DWGCODEPAGE
  3
ANSI_932
  9
$INSBASE
 10
0.0
 20
0.0
 30
0.0
  9
$EXTMIN
 10
-117.8839226896722
 20
0.0000004583823738
 30
0.0
  9
$EXTMAX
 10
210.0000005962379
 20
297.0000004583824
 30
0.0
  9
$LIMMIN
 10
0.0
 20
0.0
  9
$LIMMAX
 10
210.0
 20
297.0
  9
$ORTHOMODE
 70
     1
  9
$REGENMODE
 70
     1
  9
$FILLMODE
 70
     1
  9
$QTEXTMODE
 70
     0
  9
$MIRRTEXT
 70
     0
  9
$LTSCALE
 40
1.0
  9
$ATTMODE
 70
     1
  9
$TEXTSIZE
 40
2.5
  9
$TRACEWID
 40
1.0
  9
$TEXTSTYLE
  7
STANDARD
  9
$CLAYER
  8
0
  9
$CELTYPE
  6
ByLayer
  9
$CECOLOR
 62
   256
  9
$CELTSCALE
 40
1.0
  9
$DISPSILH
 70
     0
  9
$DIMSCALE
 40
1.0
  9
$DIMASZ
 40
2.5
  9
$DIMEXO
 40
1.0
  9
$DIMDLI
 40
10.0
  9
$DIMRND
 40
0.0
  9
$DIMDLE
 40
0.0
  9
$DIMEXE
 40
1.0
  9
$DIMTP
 40
0.1
  9
$DIMTM
 40
0.1
  9
$DIMTXT
 40
3.0
  9
$DIMCEN
 40
0.0
  9
$DIMTSZ
 40
0.0
  9
$DIMTOL
 70
     0
  9
$DIMLIM
 70
     0
  9
$DIMTIH
 70
     0
  9
$DIMTOH
 70
     0
  9
$DIMSE1
 70
     0
  9
$DIMSE2
 70
     0
  9
$DIMTAD
 70
     1
  9
$DIMZIN
 70
     8
  9
$DIMBLK
  1

  9
$DIMASO
 70
     1
  9
$DIMSHO
 70
     1
  9
$DIMPOST
  1

  9
$DIMAPOST
  1
"
  9
$DIMALT
 70
     0
  9
$DIMALTD
 70
     2
  9
$DIMALTF
 40
0.0393701
  9
$DIMLFAC
 40
1.0
  9
$DIMTOFL
 70
     1
  9
$DIMTVP
 40
0.0
  9
$DIMTIX
 70
     0
  9
$DIMSOXD
 70
     0
  9
$DIMSAH
 70
     0
  9
$DIMBLK1
  1

  9
$DIMBLK2
  1

  9
$DIMSTYLE
  2
AM_ISO
  9
$DIMCLRD
 70
   256
  9
$DIMCLRE
 70
   256
  9
$DIMCLRT
 70
     2
  9
$DIMTFAC
 40
0.71
  9
$DIMGAP
 40
1.0
  9
$DIMJUST
 70
     0
  9
$DIMSD1
 70
     0
  9
$DIMSD2
 70
     0
  9
$DIMTOLJ
 70
     0
  9
$DIMTZIN
 70
     8
  9
$DIMALTZ
 70
     0
  9
$DIMALTTZ
 70
     0
  9
$DIMUPT
 70
     0
  9
$DIMDEC
 70
     2
  9
$DIMTDEC
 70
     2
  9
$DIMALTU
 70
     2
  9
$DIMALTTD
 70
     2
  9
$DIMTXSTY
  7
STANDARD
  9
$DIMAUNIT
 70
     0
  9
$DIMADEC
 70
     0
  9
$DIMALTRND
 40
0.0
  9
$DIMAZIN
 70
     2
  9
$DIMDSEP
 70
    46
  9
$DIMATFIT
 70
     3
  9
$DIMFRAC
 70
     0
  9
$DIMLDRBLK
  1

  9
$DIMLUNIT
 70
     2
  9
$DIMLWD
 70
    -1
  9
$DIMLWE
 70
    -1
  9
$DIMTMOVE
 70
     0
  9
$LUNITS
 70
     2
  9
$LUPREC
 70
     2
  9
$SKETCHINC
 40
1.0
  9
$FILLETRAD
 40
1.5
  9
$AUNITS
 70
     0
  9
$AUPREC
 70
     0
  9
$MENU
  1
.
  9
$ELEVATION
 40
0.0
  9
$PELEVATION
 40
0.0
  9
$THICKNESS
 40
0.0
  9
$LIMCHECK
 70
     0
  9
$CHAMFERA
 40
2.5
  9
$CHAMFERB
 40
2.5
  9
$CHAMFERC
 40
0.0
  9
$CHAMFERD
 40
0.0
  9
$SKPOLY
 70
     0
  9
$TDCREATE
 40
2454313.581725069
  9
$TDUCREATE
 40
2454313.206725069
  9
$TDUPDATE
 40
2454950.493197153
  9
$TDUUPDATE
 40
2454950.118197153
  9
$TDINDWG
 40
0.0706494097
  9
$TDUSRTIMER
 40
0.0706485069
  9
$USRTIMER
 70
     1
  9
$ANGBASE
 50
0.0
  9
$ANGDIR
 70
     0
  9
$PDMODE
 70
     0
  9
$PDSIZE
 40
0.0
  9
$PLINEWID
 40
0.0
  9
$SPLFRAME
 70
     0
  9
$SPLINETYPE
 70
     6
  9
$SPLINESEGS
 70
     8
  9
$HANDSEED
  5
14AC
  9
$SURFTAB1
 70
     6
  9
$SURFTAB2
 70
     6
  9
$SURFTYPE
 70
     6
  9
$SURFU
 70
     6
  9
$SURFV
 70
     6
  9
$UCSBASE
  2

  9
$UCSNAME
  2

  9
$UCSORG
 10
0.0
 20
0.0
 30
0.0
  9
$UCSXDIR
 10
1.0
 20
0.0
 30
0.0
  9
$UCSYDIR
 10
0.0
 20
1.0
 30
0.0
  9
$UCSORTHOREF
  2

  9
$UCSORTHOVIEW
 70
     0
  9
$UCSORGTOP
 10
0.0
 20
0.0
 30
0.0
  9
$UCSORGBOTTOM
 10
0.0
 20
0.0
 30
0.0
  9
$UCSORGLEFT
 10
0.0
 20
0.0
 30
0.0
  9
$UCSORGRIGHT
 10
0.0
 20
0.0
 30
0.0
  9
$UCSORGFRONT
 10
0.0
 20
0.0
 30
0.0
  9
$UCSORGBACK
 10
0.0
 20
0.0
 30
0.0
  9
$PUCSBASE
  2

  9
$PUCSNAME
  2

  9
$PUCSORG
 10
0.0
 20
0.0
 30
0.0
  9
$PUCSXDIR
 10
1.0
 20
0.0
 30
0.0
  9
$PUCSYDIR
 10
0.0
 20
1.0
 30
0.0
  9
$PUCSORTHOREF
  2

  9
$PUCSORTHOVIEW
 70
     0
  9
$PUCSORGTOP
 10
0.0
 20
0.0
 30
0.0
  9
$PUCSORGBOTTOM
 10
0.0
 20
0.0
 30
0.0
  9
$PUCSORGLEFT
 10
0.0
 20
0.0
 30
0.0
  9
$PUCSORGRIGHT
 10
0.0
 20
0.0
 30
0.0
  9
$PUCSORGFRONT
 10
0.0
 20
0.0
 30
0.0
  9
$PUCSORGBACK
 10
0.0
 20
0.0
 30
0.0
  9
$USERI1
 70
     0
  9
$USERI2
 70
     0
  9
$USERI3
 70
     0
  9
$USERI4
 70
     0
  9
$USERI5
 70
     0
  9
$USERR1
 40
0.0
  9
$USERR2
 40
0.0
  9
$USERR3
 40
0.0
  9
$USERR4
 40
0.0
  9
$USERR5
 40
0.0
  9
$WORLDVIEW
 70
     1
  9
$SHADEDGE
 70
     3
  9
$SHADEDIF
 70
    70
  9
$TILEMODE
 70
     1
  9
$MAXACTVP
 70
    64
  9
$PINSBASE
 10
0.0
 20
0.0
 30
0.0
  9
$PLIMCHECK
 70
     0
  9
$PEXTMIN
 10
1.000000000000000E+20
 20
1.000000000000000E+20
 30
1.000000000000000E+20
  9
$PEXTMAX
 10
-1.000000000000000E+20
 20
-1.000000000000000E+20
 30
-1.000000000000000E+20
  9
$PLIMMIN
 10
0.0
 20
0.0
  9
$PLIMMAX
 10
420.0
 20
297.0
  9
$UNITMODE
 70
     0
  9
$VISRETAIN
 70
     1
  9
$PLINEGEN
 70
     0
  9
$PSLTSCALE
 70
     1
  9
$TREEDEPTH
 70
  3020
  9
$CMLSTYLE
  2
Standard
  9
$CMLJUST
 70
     0
  9
$CMLSCALE
 40
20.0
  9
$PROXYGRAPHICS
 70
     1
  9
$MEASUREMENT
 70
     1
  9
$CELWEIGHT
370
    -1
  9
$ENDCAPS
280
     0
  9
$JOINSTYLE
280
     0
  9
$LWDISPLAY
290
     0
  9
$INSUNITS
 70
     4
  9
$HYPERLINKBASE
  1

  9
$STYLESHEET
  1
MONOCHROME.CTB
  9
$XEDIT
290
     1
  9
$CEPSNTYPE
380
     0
  9
$PSTYLEMODE
290
     1
  9
$FINGERPRINTGUID
  2
{AD501973-C1A7-47D2-B6FF-3A238122188F}
  9
$VERSIONGUID
  2
{A378D6CC-E7A6-4221-9E5C-F2579EF0548A}
  9
$EXTNAMES
290
     1
  9
$PSVPSCALE
 40
0.0
  9
$OLESTARTUP
290
     0
  0
ENDSEC
  0
SECTION
  2
CLASSES
  0
CLASS
  1
ACDBDICTIONARYWDFLT
  2
AcDbDictionaryWithDefault
  3
ObjectDBX Classes
 90
        0
280
     0
281
     0
  0
CLASS
  1
MATERIAL
  2
AcDbMaterial
  3
ObjectDBX Classes
 90
     1153
280
     0
281
     0
  0
CLASS
  1
VISUALSTYLE
  2
AcDbVisualStyle
  3
ObjectDBX Classes
 90
     4095
280
     0
281
     0
  0
CLASS
  1
SCALE
  2
AcDbScale
  3
ObjectDBX Classes
 90
     1153
280
     0
281
     0
  0
CLASS
  1
TABLESTYLE
  2
AcDbTableStyle
  3
ObjectDBX Classes
 90
     4095
280
     0
281
     0
  0
CLASS
  1
MLEADERSTYLE
  2
AcDbMLeaderStyle
  3
ACDB_MLEADERSTYLE_CLASS
 90
     4095
280
     0
281
     0
  0
CLASS
  1
AMGSETTINGSOBJ
  2
AmgSettingsObj
  3
"AcadM|Product Description: AutoCAD Mechanical|Company: Autodesk, Inc."
 90
     1024
280
     0
281
     0
  0
CLASS
  1
ACME_DOCUMENT
  2
AcMeDbDoc
  3
AcMeServices
 90
     1024
280
     0
281
     0
  0
CLASS
  1
ACMESCOPE
  2
AcMeScope
  3
AcMeServices
 90
     1024
280
     0
281
     0
  0
CLASS
  1
ACMECOMMANDHISTORY
  2
AcMeCommandHistory
  3
AcMeServices
 90
     1024
280
     0
281
     0
  0
CLASS
  1
ACIMSYSVARMAN
  2
AcImSysVarManager
  3
AcMeServices
 90
     1024
280
     0
281
     0
  0
CLASS
  1
ACIMINTSYSVAR
  2
AcImIntSysVar
  3
AcMeServices
 90
     1024
280
     0
281
     0
  0
CLASS
  1
ACMEDRAWINGMAN
  2
AcMeDrawingMan
  3
AcMeServices
 90
     1024
280
     0
281
     0
  0
CLASS
  1
ACMEVIEW
  2
AcMeView
  3
AcMeServices
 90
     1024
280
     0
281
     0
  0
CLASS
  1
ACDBENTITYCACHE
  2
AcMeEntityCache
  3
AcMeServices
 90
     1024
280
     0
281
     0
  0
CLASS
  1
GSMANAGER
  2
AcMeGSManager
  3
AcMeServices
 90
     1024
280
     0
281
     0
  0
CLASS
  1
AMDTINTERNALREACTOR
  2
AmdtInternalReactor
  3
AcMeServices
 90
     1024
280
     0
281
     0
  0
CLASS
  1
ACMESTATEMGR
  2
AcMeStateMgr
  3
AcMeServices
 90
     1024
280
     0
281
     0
  0
CLASS
  1
ACGREFMASTER
  2
AcGrefMaster
  3
AcAttribServices
 90
     1024
280
     0
281
     0
  0
CLASS
  1
AM_DRAWING_MGR
  2
AcDmDwgMgr
  3
AcMechDwgViewMgmt
 90
     1024
280
     0
281
     0
  0
CLASS
  1
AM_DWG_DOCUMENT
  2
AcDmDwgDocument
  3
AcMechDwgViewMgmt
 90
     1024
280
     0
281
     0
  0
CLASS
  1
AM_DWG_SHEET
  2
AcDmSheet
  3
AcMechDwgViewMgmt
 90
     1024
280
     0
281
     0
  0
CLASS
  1
AM_VIEWDIMPARMAP
  2
AcDmViewDimParMap
  3
AcMechDwgViewMgmt
 90
     1024
280
     0
281
     0
  0
CLASS
  1
ACIMREALSYSVAR
  2
AcImRealSysVar
  3
AcMeServices
 90
     1024
280
     0
281
     0
  0
CLASS
  1
AM_DWGMGR_NAME
  2
AcDmDwgMgrName
  3
AcMechDwgViewMgmt
 90
     1024
280
     0
281
     0
  0
CLASS
  1
ACME_DATABASE
  2
AcMeDbDatabase
  3
AcMeServices
 90
     1024
280
     0
281
     0
  0
CLASS
  1
ACRFINSADJUSTERMGR
  2
AcRfInsAdjusterMgr
  3
AcMeServices
 90
     1024
280
     0
281
     0
  0
CLASS
  1
ACGREFACADMASTER
  2
AcGrefacadMaster
  3
AcGrefServices
 90
     1024
280
     0
281
     0
  0
CLASS
  1
AMDTMENUSTATEMGR
  2
AmdtMenuStateMgr
  3
McadcomServices
 90
     1024
280
     0
281
     0
  0
CLASS
  1
AMDTMCOMMENUSTATE
  2
AmdtMcomMenuState
  3
McadcomServices
 90
     1024
280
     0
281
     0
  0
CLASS
  1
AMIMASTER
  2
AmiMaster
  3
AmiServices
 90
     1024
280
     0
281
     0
  0
CLASS
  1
MAPIAMMOUDLE
  2
MApiAmModule
  3
MApiAmServices
 90
     1024
280
     0
281
     0
  0
CLASS
  1
ACIMSTRSYSVAR
  2
AcImStrSysVar
  3
AcMeServices
 90
     1024
280
     0
281
     0
  0
CLASS
  1
AMDTADMENUSTATE
  2
AmdtAdMenuState
  3
DesignerServices
 90
     1024
280
     0
281
     0
  0
CLASS
  1
ADAPPL
  2
AcAdAppl
  3
DesignerServices
 90
     1024
280
     0
281
     0
  0
CLASS
  1
DEPMGR
  2
AcAdDepMgr
  3
DesignerServices
 90
     1024
280
     0
281
     0
  0
CLASS
  1
PARAMMGR
  2
AcAdParamMgr
  3
DesignerServices
 90
     1024
280
     0
281
     0
  0
CLASS
  1
PARAMSCOPE
  2
AcAdParamScope
  3
DesignerServices
 90
     1024
280
     0
281
     0
  0
CLASS
  1
NAMEDAPPL
  2
AcAdNamedAppl
  3
DesignerServices
 90
     1024
280
     0
281
     0
  0
CLASS
  1
AMDTDMMENUSTATE
  2
AmdtDmMenuState
  3
AcMechDwgViewMgmt
 90
     1024
280
     0
281
     0
  0
CLASS
  1
AMDTAMMENUSTATE
  2
AmdtAmMenuState
  3
DesignerAssemblies
 90
     1024
280
     0
281
     0
  0
CLASS
  1
ACAMPROJECT
  2
AcAmProject
  3
DesignerAssemblies
 90
     1024
280
     0
281
     0
  0
CLASS
  1
ACAMGRCOMPDEF
  2
AcAmGrCompDef
  3
DesignerAssemblies
 90
     1024
280
     0
281
     0
  0
CLASS
  1
ACCMCONTEXT
  2
AcCmContext
  3
DesignerAssemblies
 90
     1024
280
     0
281
     0
  0
CLASS
  1
ACAMCOMPDEF
  2
AcAmCompDef
  3
DesignerAssemblies
 90
     1024
280
     0
281
     0
  0
CLASS
  1
ACAMCOMPDEFMGR
  2
AcAmCompDefMgr
  3
DesignerAssemblies
 90
     1024
280
     0
281
     0
  0
CLASS
  1
AMCONTEXTMGR
  2
AcAmContextMgr
  3
DesignerAssemblies
 90
     1024
280
     0
281
     0
  0
CLASS
  1
ACAMCONTEXTMODELER
  2
AcAmContextModeler
  3
DesignerAssemblies
 90
     1024
280
     0
281
     0
  0
CLASS
  1
ACMDATADICTIONARY
  2
AcmDataDictionary
  3
"AcmSymBB|Product Description: AutoCAD Mechanical|Company: Autodesk, Inc."
 90
     1024
280
     0
281
     0
  0
CLASS
  1
ACMSTANDARDISO
  2
AcmStandardISO
  3
"Amdt_StdImp|Product Description: AutoCAD Mechanical|Company: Autodesk, Inc."
 90
     1024
280
     0
281
     0
  0
CLASS
  1
AMGOBJPROPCFG
  2
AmgObjPropCfg
  3
"AmgLay|Product Description: AutoCAD Mechanical|Company: Autodesk, Inc."
 90
     1025
280
     0
281
     0
  0
CLASS
  1
AMDTEDGESTANDARDISO13715
  2
AmdtEdgeStdISO13715
  3
"Amdt_StdImp|Product Description: AutoCAD Mechanical|Company: Autodesk, Inc."
 90
     1024
280
     0
281
     0
  0
CLASS
  1
ACMSURFSTANDARDISO2002
  2
AcmSurfTextStdISO2002
  3
"Amdt_StdImp|Product Description: AutoCAD Mechanical|Company: Autodesk, Inc."
 90
     1024
280
     0
281
     0
  0
CLASS
  1
ACMFCFSTANDARDISO
  2
AcmFCFStdISO
  3
"Amdt_StdImp|Product Description: AutoCAD Mechanical|Company: Autodesk, Inc."
 90
     1024
280
     0
281
     0
  0
CLASS
  1
ACMWELDSTANDARDISO
  2
AcmWeldingStdISO
  3
"Amdt_StdImp|Product Description: AutoCAD Mechanical|Company: Autodesk, Inc."
 90
     1024
280
     0
281
     0
  0
CLASS
  1
ACMIDSTANDARDISO
  2
AcmIdStdISO
  3
"Amdt_StdImp|Product Description: AutoCAD Mechanical|Company: Autodesk, Inc."
 90
     1024
280
     0
281
     0
  0
CLASS
  1
ACMDATUMSTANDARDISO
  2
AcmDatumStdISO
  3
"Amdt_StdImp|Product Description: AutoCAD Mechanical|Company: Autodesk, Inc."
 90
     1024
280
     0
281
     0
  0
CLASS
  1
ACMBOMSTANDARDISO
  2
AcmBOMStdISO
  3
"Amdt_StdImp|Product Description: AutoCAD Mechanical|Company: Autodesk, Inc."
 90
     1024
280
     0
281
     0
  0
CLASS
  1
ACMDETAILSTANDARDISO
  2
AmdtDetailSymStdISO
  3
"Amdt_StdImp|Product Description: AutoCAD Mechanical|Company: Autodesk, Inc."
 90
     1024
280
     0
281
     0
  0
CLASS
  1
ACMSECTIONSTANDARDISO2001
  2
AmdtSectionSymStdISO2001
  3
"Amdt_StdImp|Product Description: AutoCAD Mechanical|Company: Autodesk, Inc."
 90
     1024
280
     0
281
     0
  0
CLASS
  1
ACMCENTERLINESTANDARDISO
  2
AmdtCenterLineStdISO
  3
"Amdt_StdImp|Product Description: AutoCAD Mechanical|Company: Autodesk, Inc."
 90
     1024
280
     0
281
     0
  0
CLASS
  1
ACMTHREADLINESTANDARDISO
  2
AmdtThreadLineStdISO
  3
"Amdt_StdImp|Product Description: AutoCAD Mechanical|Company: Autodesk, Inc."
 90
     1024
280
     0
281
     0
  0
CLASS
  1
ACMNOTESTANDARDISO
  2
AmdtNoteStdISO
  3
"Amdt_StdImp|Product Description: AutoCAD Mechanical|Company: Autodesk, Inc."
 90
     1024
280
     0
281
     0
  0
CLASS
  1
ACMTAPERSTANDARDISO
  2
AcmTaperStdISO
  3
"Amdt_StdImp|Product Description: AutoCAD Mechanical|Company: Autodesk, Inc."
 90
     1024
280
     0
281
     0
  0
CLASS
  1
ACMANOOTATIONVIEWSTANDARDISO
  2
AmdtAnViewStdISO
  3
"Amdt_StdImp|Product Description: AutoCAD Mechanical|Company: Autodesk, Inc."
 90
     1024
280
     0
281
     0
  0
CLASS
  1
AMDTNOTETEMPLATEDB
  2
AmdtNoteTemplateDB
  3
AcmSymBB|Product Description: AutoCAD Mechanical|Company: Autodesk, Inc.
 90
     1024
280
     0
281
     0
  0
CLASS
  1
ACAMGLAYSTD
  2
AcAmgLayStd
  3
"AmgLay|Product Description: AutoCAD Mechanical|Company: Autodesk, Inc."
 90
     1024
280
     0
281
     0
  0
CLASS
  1
ACAMGDIMSTD
  2
AcAmgDimStd
  3
"AmgDim|Product Description: AutoCAD Mechanical|Company: Autodesk, Inc."
 90
     1024
280
     0
281
     0
  0
CLASS
  1
ACAMGHOLECHARTSTDISO
  2
AcAmgHoleChartStdISO
  3
AmgDim|Product Description: AutoCAD Mechanical|Company: Autodesk, Inc.
 90
     1024
280
     0
281
     0
  0
CLASS
  1
ACAMGTITLESTD
  2
AcAmgTitleStd
  3
"AmgTitle|Product Description: AutoCAD Mechanical|Company: Autodesk, Inc."
 90
     4095
280
     0
281
     0
  0
CLASS
  1
CATALOGSTATE
  2
AcAmCatalogState
  3
DesignerAssemblies
 90
     1024
280
     0
281
     0
  0
CLASS
  1
ACAMGRCOMPDEFSET
  2
AcAmGrCompDefSet
  3
DesignerAssemblies
 90
     1024
280
     0
281
     0
  0
CLASS
  1
AMDTBROWSERDBTAB
  2
AmdtBrowserDbTab
  3
McadcomServices
 90
     1024
280
     0
281
     0
  0
CLASS
  1
CBROWSERAPPOBJECT
  2
CBrowserAppObject
  3
McadcomServices
 90
     1024
280
     0
281
     0
  0
CLASS
  1
DM_PLACEHOLDER
  2
AcDmSelsetPlaceholder
  3
AcMechDwgViewMgmt
 90
     1024
280
     0
281
     0
  0
CLASS
  1
SORTENTSTABLE
  2
AcDbSortentsTable
  3
ObjectDBX Classes
 90
        0
280
     0
281
     0
  0
CLASS
  1
ACMDATAENTRYBLOCK
  2
AcmDataEntryBlock
  3
AcmSymBB|Product Description: AutoCAD Mechanical|Company: Autodesk, Inc.
 90
    33792
280
     0
281
     0
  0
CLASS
  1
ACAMGFILTERDAT
  2
AcAmgFilterDat
  3
"AcadM|Product Description: AutoCAD Mechanical|Company: Autodesk, Inc."
 90
    33792
280
     0
281
     0
  0
CLASS
  1
CAMSSTRUCTBTNSTATE
  2
StructBtnState
  3
DesignerAssemblies
 90
     1024
280
     0
281
     0
  0
CLASS
  1
CELLSTYLEMAP
  2
AcDbCellStyleMap
  3
ObjectDBX Classes
 90
     1152
280
     0
281
     0
  0
CLASS
  1
DICTIONARYVAR
  2
AcDbDictionaryVar
  3
ObjectDBX Classes
 90
        0
280
     0
281
     0
  0
CLASS
  1
ACMSTANDARDANSI
  2
AcmStandardANSI
  3
"Amdt_StdImp|Product Description: AutoCAD Mechanical|Company: Autodesk, Inc."
 90
    33792
280
     0
281
     0
  0
CLASS
  1
ACMSURFSTANDARDANSI
  2
AcmSurfTextStdANSI
  3
"Amdt_StdImp|Product Description: AutoCAD Mechanical|Company: Autodesk, Inc."
 90
    33792
280
     0
281
     0
  0
CLASS
  1
ACMFCFSTANDARDANSI
  2
AcmFCFStdANSI
  3
"Amdt_StdImp|Product Description: AutoCAD Mechanical|Company: Autodesk, Inc."
 90
    33792
280
     0
281
     0
  0
CLASS
  1
ACMWELDSTANDARDANSI
  2
AcmWeldingStdANSI
  3
"Amdt_StdImp|Product Description: AutoCAD Mechanical|Company: Autodesk, Inc."
 90
    33792
280
     0
281
     0
  0
CLASS
  1
ACMIDSTANDARDANSI
  2
AcmIdStdANSI
  3
"Amdt_StdImp|Product Description: AutoCAD Mechanical|Company: Autodesk, Inc."
 90
    33792
280
     0
281
     0
  0
CLASS
  1
ACMDATUMSTANDARDANSI
  2
AcmDatumStdANSI
  3
"Amdt_StdImp|Product Description: AutoCAD Mechanical|Company: Autodesk, Inc."
 90
    33792
280
     0
281
     0
  0
CLASS
  1
ACMBOMSTANDARDANSI
  2
AcmBOMStdANSI
  3
"Amdt_StdImp|Product Description: AutoCAD Mechanical|Company: Autodesk, Inc."
 90
    33792
280
     0
281
     0
  0
CLASS
  1
ACMDETAILSTANDARDANSI
  2
AmdtDetailSymStdANSI
  3
"Amdt_StdImp|Product Description: AutoCAD Mechanical|Company: Autodesk, Inc."
 90
    33792
280
     0
281
     0
  0
CLASS
  1
ACMSECTIONSTANDARDANSI
  2
AmdtSectionSymStdANSI
  3
"Amdt_StdImp|Product Description: AutoCAD Mechanical|Company: Autodesk, Inc."
 90
    33792
280
     0
281
     0
  0
CLASS
  1
ACMCENTERLINESTANDARDANSI
  2
AmdtCenterLineStdANSI
  3
"Amdt_StdImp|Product Description: AutoCAD Mechanical|Company: Autodesk, Inc."
 90
    33792
280
     0
281
     0
  0
CLASS
  1
ACMTHREADLINESTANDARDANSI
  2
AmdtThreadLineStdANSI
  3
"Amdt_StdImp|Product Description: AutoCAD Mechanical|Company: Autodesk, Inc."
 90
    33792
280
     0
281
     0
  0
CLASS
  1
ACMNOTESTANDARDANSI
  2
AmdtNoteStdANSI
  3
"Amdt_StdImp|Product Description: AutoCAD Mechanical|Company: Autodesk, Inc."
 90
    33792
280
     0
281
     0
  0
CLASS
  1
ACMTAPERSTANDARDANSI
  2
AcmTaperStdANSI
  3
"Amdt_StdImp|Product Description: AutoCAD Mechanical|Company: Autodesk, Inc."
 90
    33792
280
     0
281
     0
  0
CLASS
  1
ACMANOOTATIONVIEWSTANDARDANSI
  2
AmdtAnViewStdANSI
  3
"Amdt_StdImp|Product Description: AutoCAD Mechanical|Company: Autodesk, Inc."
 90
    33792
280
     0
281
     0
  0
CLASS
  1
ACAMGHOLECHARTSTDANSI
  2
AcAmgHoleChartStdANSI
  3
AmgDim|Product Description: AutoCAD Mechanical|Company: Autodesk, Inc.
 90
    33792
280
     0
281
     0
  0
CLASS
  1
ACDBPLACEHOLDER
  2
AcDbPlaceHolder
  3
ObjectDBX Classes
 90
        0
280
     0
281
     0
  0
CLASS
  1
LAYOUT
  2
AcDbLayout
  3
ObjectDBX Classes
 90
        0
280
     0
281
     0
  0
CLASS
  1
DIMASSOC
  2
AcDbDimAssoc
  3
"AcDbDimAssoc|Product Desc:     AcDim ARX App For Dimension|Company:          Autodesk, Inc.|WEB Address:      www.autodesk.com"
 90
        0
280
     0
281
     0
  0
ENDSEC
  0
SECTION
  2
TABLES
  0
TABLE
  2
VPORT
  5
8
330
0
100
AcDbSymbolTable
 70
     1
  0
VPORT
  5
5F
330
8
100
AcDbSymbolTableRecord
100
AcDbViewportTableRecord
  2
*Active
 70
     0
 10
0.0
 20
0.0
 11
1.0
 21
1.0
 12
37.43465140039615
 22
192.023999485847
 13
0.0
 23
0.0
 14
2.5
 24
2.5
 15
10.0
 25
10.0
 16
0.0
 26
0.0
 36
1.0
 17
0.0
 27
0.0
 37
0.0
 40
420.984262729516
 41
1.54381443298969
 42
50.0
 43
0.0
 44
0.0
 50
0.0
 51
0.0
 71
     0
 72
  1000
 73
     1
 74
     3
 75
     0
 76
     0
 77
     0
 78
     0
281
     0
 65
     0
110
0.0
120
0.0
130
0.0
111
1.0
121
0.0
131
0.0
112
0.0
122
1.0
132
0.0
 79
     0
146
0.0
  0
ENDTAB
  0
TABLE
  2
LTYPE
  5
5
330
0
100
AcDbSymbolTable
 70
    19
  0
LTYPE
  5
63
330
5
100
AcDbSymbolTableRecord
100
AcDbLinetypeTableRecord
  2
ByBlock
 70
     0
  3

 72
    65
 73
     0
 40
0.0
  0
LTYPE
  5
64
330
5
100
AcDbSymbolTableRecord
100
AcDbLinetypeTableRecord
  2
ByLayer
 70
     0
  3

 72
    65
 73
     0
 40
0.0
  0
LTYPE
  5
65
330
5
100
AcDbSymbolTableRecord
100
AcDbLinetypeTableRecord
  2
Continuous
 70
     0
  3
Solid line
 72
    65
 73
     0
 40
0.0
  0
LTYPE
  5
B3
330
5
100
AcDbSymbolTableRecord
100
AcDbLinetypeTableRecord
  2
HIDDEN
 70
     0
  3
Hidden __ __ __ __ __ __ __ __ __ __ __ __ __ _
 72
    65
 73
     2
 40
9.524999999999996
 49
6.349999999999997
 74
     0
 49
-3.174999999999998
 74
     0
  0
LTYPE
  5
B4
330
5
100
AcDbSymbolTableRecord
100
AcDbLinetypeTableRecord
  2
PHANTOM2
 70
     0
  3
Phantom (.5x) ___ _ _ ___ _ _ ___ _ _ ___ _ _
 72
    65
 73
     6
 40
31.75
 49
15.875
 74
     0
 49
-3.174999999999998
 74
     0
 49
3.174999999999998
 74
     0
 49
-3.174999999999998
 74
     0
 49
3.174999999999998
 74
     0
 49
-3.174999999999998
 74
     0
  0
LTYPE
  5
B5
330
5
100
AcDbSymbolTableRecord
100
AcDbLinetypeTableRecord
  2
CENTER
 70
     0
  3
Center ____ _ ____ _ ____ _ ____ _ ____ _ ____
 72
    65
 73
     4
 40
50.8
 49
31.75
 74
     0
 49
-6.349999999999997
 74
     0
 49
6.349999999999997
 74
     0
 49
-6.349999999999997
 74
     0
  0
LTYPE
  5
F1
330
5
100
AcDbSymbolTableRecord
100
AcDbLinetypeTableRecord
  2
ACISOWELD
 70
     0
  3
_ _ _ _ _
 72
    65
 73
     2
 40
2.0
 49
2.0
 74
     0
 49
-1.0
 74
     0
  0
LTYPE
  5
F2
330
5
100
AcDbSymbolTableRecord
100
AcDbLinetypeTableRecord
  2
ACISOTGB
 70
     0
  3
__ . . __ . .
 72
    65
 73
     6
 40
9.0
 49
4.0
 74
     0
 49
-1.0
 74
     0
 49
1.0
 74
     0
 49
-1.0
 74
     0
 49
1.0
 74
     0
 49
-1.0
 74
     0
  0
LTYPE
  5
F3
330
5
100
AcDbSymbolTableRecord
100
AcDbLinetypeTableRecord
  2
ACISOTGL
 70
     0
  3
_ _ _ _ _
 72
    65
 73
     2
 40
3.0
 49
2.0
 74
     0
 49
-1.0
 74
     0
  0
LTYPE
  5
185
330
5
100
AcDbSymbolTableRecord
100
AcDbLinetypeTableRecord
  2
CENTER2
 70
     0
  3
Center (.5x) ___ _ ___ _ ___ _ ___ _ ___ _ ___
 72
    65
 73
     4
 40
1.125
 49
0.75
 74
     0
 49
-0.125
 74
     0
 49
0.125
 74
     0
 49
-0.125
 74
     0
  0
LTYPE
  5
186
330
5
100
AcDbSymbolTableRecord
100
AcDbLinetypeTableRecord
  2
HIDDEN2
 70
     0
  3
Hidden (.5x) _ _ _ _ _ _ _ _ _ _ _ _ _ _ _ _ _
 72
    65
 73
     2
 40
0.1875
 49
0.125
 74
     0
 49
-0.0625
 74
     0
  0
LTYPE
  5
187
330
5
100
AcDbSymbolTableRecord
100
AcDbLinetypeTableRecord
  2
ACANSTGBM
 70
     0
  3
__ . . __ . .
 72
    65
 73
     6
 40
9.0
 49
4.0
 74
     0
 49
-1.0
 74
     0
 49
1.0
 74
     0
 49
-1.0
 74
     0
 49
1.0
 74
     0
 49
-1.0
 74
     0
  0
LTYPE
  5
188
330
5
100
AcDbSymbolTableRecord
100
AcDbLinetypeTableRecord
  2
ACANSTGLM
 70
     0
  3
_ _ _ _ _
 72
    65
 73
     2
 40
3.0
 49
2.0
 74
     0
 49
-1.0
 74
     0
  0
LTYPE
  5
2DB
330
5
100
AcDbSymbolTableRecord
100
AcDbLinetypeTableRecord
  2
AI9-LType1
 70
     0
  3
Illustrator Dash Style No.1
 72
    65
 73
     4
 40
6.433429
 49
3.821834999999998
 74
     0
 49
-1.146555999999999
 74
     0
 49
0.318482
 74
     0
 49
-1.146555999999999
 74
     0
  0
LTYPE
  5
2DC
330
5
100
AcDbSymbolTableRecord
100
AcDbLinetypeTableRecord
  2
AI9-LType2
 70
     0
  3
Illustrator Dash Style No.2
 72
    65
 73
     2
 40
0.9727769999999999
 49
0.729589
 74
     0
 49
-0.243187
 74
     0
  0
LTYPE
  5
2DD
330
5
100
AcDbSymbolTableRecord
100
AcDbLinetypeTableRecord
  2
AI9-LType3
 70
     0
  3
Illustrator Dash Style No.3
 72
    65
 73
     2
 40
0.9753619999999999
 49
0.731514
 74
     0
 49
-0.243847
 74
     0
  0
LTYPE
  5
2DE
330
5
100
AcDbSymbolTableRecord
100
AcDbLinetypeTableRecord
  2
AI9-LType4
 70
     0
  3
Illustrator Dash Style No.4
 72
    65
 73
     2
 40
0.9526939999999999
 49
0.714514
 74
     0
 49
-0.23818
 74
     0
  0
LTYPE
  5
2DF
330
5
100
AcDbSymbolTableRecord
100
AcDbLinetypeTableRecord
  2
AI9-LType5
 70
     0
  3
Illustrator Dash Style No.5
 72
    65
 73
     4
 40
6.446247
 49
3.829455
 74
     0
 49
-1.148838999999999
 74
     0
 49
0.319114
 74
     0
 49
-1.148838999999999
 74
     0
  0
LTYPE
  5
2E0
330
5
100
AcDbSymbolTableRecord
100
AcDbLinetypeTableRecord
  2
ACANSTGB
 70
     0
  3
__ . . __ . .
 72
    65
 73
     6
 40
0.35433070866
 49
0.15748031496
 74
     0
 49
-0.03937007874
 74
     0
 49
0.03937007874
 74
     0
 49
-0.03937007874
 74
     0
 49
0.03937007874
 74
     0
 49
-0.03937007874
 74
     0
  0
LTYPE
  5
2E1
330
5
100
AcDbSymbolTableRecord
100
AcDbLinetypeTableRecord
  2
ACANSTGL
 70
     0
  3
_ _ _ _ _
 72
    65
 73
     2
 40
0.11811023622
 49
0.07874015748
 74
     0
 49
-0.03937007874
 74
     0
  0
ENDTAB
  0
TABLE
  2
LAYER
  5
2
102
{ACAD_XDICTIONARY
360
12A
102
}
330
0
100
AcDbSymbolTable
 70
     9
  0
LAYER
  5
5C
102
{ACAD_XDICTIONARY
360
158
102
}
330
2
100
AcDbSymbolTableRecord
100
AcDbLayerTableRecord
  2
0
 70
     0
 62
     7
  6
Continuous
370
    -3
390
F
  0
LAYER
  5
119
102
{ACAD_XDICTIONARY
360
11A
102
}
330
2
100
AcDbSymbolTableRecord
100
AcDbLayerTableRecord
  2
外形線
 70
     0
 62
     7
  6
Continuous
370
    40
390
F
  0
LAYER
  5
11B
102
{ACAD_XDICTIONARY
360
11C
102
}
330
2
100
AcDbSymbolTableRecord
100
AcDbLayerTableRecord
  2
枠
 70
     0
 62
   130
  6
CENTER
370
    50
390
F
1001
AcAecLayerStandard
1000

1000

  0
LAYER
  5
11D
102
{ACAD_XDICTIONARY
360
15C
102
}
330
2
100
AcDbSymbolTableRecord
100
AcDbLayerTableRecord
  2
レイヤー_1_0
 70
     0
 62
   160
  6
Continuous
370
    -3
390
F
  0
LAYER
  5
189
330
2
100
AcDbSymbolTableRecord
100
AcDbLayerTableRecord
  2
AM_0
 70
     0
 62
     7
  6
Continuous
370
    50
390
F
1001
AcAecLayerStandard
1000

1000

  0
LAYER
  5
1B8
330
2
100
AcDbSymbolTableRecord
100
AcDbLayerTableRecord
  2
AM_5
 70
     0
 62
     3
  6
Continuous
370
    25
390
F
1001
AcAecLayerStandard
1000

1000

  0
LAYER
  5
703
330
2
100
AcDbSymbolTableRecord
100
AcDbLayerTableRecord
  2
Defpoints
 70
     0
 62
     7
  6
Continuous
290
     0
370
    -3
390
F
  0
LAYER
  5
9BE
330
2
100
AcDbSymbolTableRecord
100
AcDbLayerTableRecord
  2
レイヤー_1
 70
     0
 62
   160
  6
Continuous
370
    -3
390
F
  0
LAYER
  5
1291
330
2
100
AcDbSymbolTableRecord
100
AcDbLayerTableRecord
  2
AM_CL
 70
     0
 62
     1
  6
Continuous
370
    25
390
F
1001
AcAecLayerStandard
1000

1000

  0
ENDTAB
  0
TABLE
  2
STYLE
  5
3
330
0
100
AcDbSymbolTable
 70
    11
  0
STYLE
  5
5D
330
3
100
AcDbSymbolTableRecord
100
AcDbTextStyleTableRecord
  2
STANDARD
 70
     0
 40
0.0
 41
0.8
 50
0.0
 71
     0
 42
2.5
  3
romans.shx
  4
bigfont.shx
  0
STYLE
  5
62
330
3
100
AcDbSymbolTableRecord
100
AcDbTextStyleTableRecord
  2
Annotative
 70
     0
 40
0.0
 41
1.0
 50
0.0
 71
     0
 42
0.2
  3

  4

1001
AcadAnnotative
1000
AnnotativeData
1002
{
1070
     1
1070
     1
1002
}
  0
STYLE
  5
E1
330
3
100
AcDbSymbolTableRecord
100
AcDbTextStyleTableRecord
  2
ACISOTS
 70
     0
 40
1.0
 41
1.0
 50
0.0
 71
     0
 42
2.5
  3
isocp.shx
  4
extfont.shx
  0
STYLE
  5
F0
330
3
100
AcDbSymbolTableRecord
100
AcDbTextStyleTableRecord
  2
ACISOGDT
 70
     0
 40
0.0
 41
1.0
 50
0.0
 71
     0
 42
2.5
  3
amgdt.shx
  4

  0
STYLE
  5
115
330
3
100
AcDbSymbolTableRecord
100
AcDbTextStyleTableRecord
  2
USER1
 70
     0
 40
0.0
 41
1.0
 50
0.0
 71
     0
 42
2.5
  3
TXT.SHX
  4

  0
STYLE
  5
116
330
3
100
AcDbSymbolTableRecord
100
AcDbTextStyleTableRecord
  2
USER2
 70
     0
 40
0.0
 41
1.0
 50
0.0
 71
     0
 42
2.5
  3
SIMPLEX.SHX
  4

  0
STYLE
  5
117
330
3
100
AcDbSymbolTableRecord
100
AcDbTextStyleTableRecord
  2
USER3
 70
     0
 40
0.0
 41
1.0
 50
0.0
 71
     0
 42
2.5
  3
ITALIC.SHX
  4

  0
STYLE
  5
11E
330
3
100
AcDbSymbolTableRecord
100
AcDbTextStyleTableRecord
  2
KANJISTD
 70
     0
 40
0.0
 41
1.0
 50
0.0
 71
     0
 42
0.0
  3
txt
  4
extfont
  0
STYLE
  5
18A
330
3
100
AcDbSymbolTableRecord
100
AcDbTextStyleTableRecord
  2
ACANSTS
 70
     0
 40
1.0
 41
1.0
 50
0.0
 71
     0
 42
0.2
  3
romans.shx
  4
extfont.shx
  0
STYLE
  5
18B
330
3
100
AcDbSymbolTableRecord
100
AcDbTextStyleTableRecord
  2
ACANSGDT
 70
     0
 40
0.0
 41
1.0
 50
0.0
 71
     0
 42
0.2
  3
amgdt.shx
  4

  0
STYLE
  5
2E2
330
3
100
AcDbSymbolTableRecord
100
AcDbTextStyleTableRecord
  2
STD
 70
     0
 40
0.0
 41
1.0
 50
0.0
 71
     0
 42
0.0
  3
txt
  4

  0
ENDTAB
  0
TABLE
  2
VIEW
  5
6
330
0
100
AcDbSymbolTable
 70
     0
  0
ENDTAB
  0
TABLE
  2
UCS
  5
7
330
0
100
AcDbSymbolTable
 70
     0
  0
ENDTAB
  0
TABLE
  2
APPID
  5
9
330
0
100
AcDbSymbolTable
 70
    27
  0
APPID
  5
5E
330
9
100
AcDbSymbolTableRecord
100
AcDbRegAppTableRecord
  2
ACAD
 70
     0
  0
APPID
  5
66
330
9
100
AcDbSymbolTableRecord
100
AcDbRegAppTableRecord
  2
AcadAnnotative
 70
     0
  0
APPID
  5
70
330
9
100
AcDbSymbolTableRecord
100
AcDbRegAppTableRecord
  2
ACAD_MLEADERVER
 70
     0
  0
APPID
  5
84
330
9
100
AcDbSymbolTableRecord
100
AcDbRegAppTableRecord
  2
MCAD_NO_VIS
 70
     0
  0
APPID
  5
85
330
9
100
AcDbSymbolTableRecord
100
AcDbRegAppTableRecord
  2
ACAD_TEMP_GRAPHIC
 70
     0
  0
APPID
  5
B7
330
9
100
AcDbSymbolTableRecord
100
AcDbRegAppTableRecord
  2
AD_DRAW
 70
     0
  0
APPID
  5
BA
330
9
100
AcDbSymbolTableRecord
100
AcDbRegAppTableRecord
  2
ACATTRIBSERVICES
 70
     0
  0
APPID
  5
DB
330
9
100
AcDbSymbolTableRecord
100
AcDbRegAppTableRecord
  2
DESIGNERASSEMBLIES
 70
     0
  0
APPID
  5
10F
330
9
100
AcDbSymbolTableRecord
100
AcDbRegAppTableRecord
  2
ACADM_DIM_EDIT
 70
     0
  0
APPID
  5
110
330
9
100
AcDbSymbolTableRecord
100
AcDbRegAppTableRecord
  2
AMDT_DM_ADJ
 70
     0
  0
APPID
  5
121
330
9
100
AcDbSymbolTableRecord
100
AcDbRegAppTableRecord
  2
ACAD_PSEXT
 70
     0
  0
APPID
  5
122
330
9
100
AcDbSymbolTableRecord
100
AcDbRegAppTableRecord
  2
AcAecLayerStandard
 70
     0
  0
APPID
  5
123
330
9
100
AcDbSymbolTableRecord
100
AcDbRegAppTableRecord
  2
GENIUS_GENODEF_13
 70
     0
  0
APPID
  5
124
330
9
100
AcDbSymbolTableRecord
100
AcDbRegAppTableRecord
  2
GENIUS_GENREC_14
 70
     0
  0
APPID
  5
125
330
9
100
AcDbSymbolTableRecord
100
AcDbRegAppTableRecord
  2
GENIUS_GENOBJ-N-REC_13
 70
     0
  0
APPID
  5
126
330
9
100
AcDbSymbolTableRecord
100
AcDbRegAppTableRecord
  2
ACAD_DSTYLE_DIMJAG
 70
     0
  0
APPID
  5
127
330
9
100
AcDbSymbolTableRecord
100
AcDbRegAppTableRecord
  2
ACAD_DSTYLE_DIMTALN
 70
     0
  0
APPID
  5
128
330
9
100
AcDbSymbolTableRecord
100
AcDbRegAppTableRecord
  2
ACAD_DSTYLE_DIMBREAK
 70
     0
  0
APPID
  5
129
330
9
100
AcDbSymbolTableRecord
100
AcDbRegAppTableRecord
  2
DCO15
 70
     0
  0
APPID
  5
248
330
9
100
AcDbSymbolTableRecord
100
AcDbRegAppTableRecord
  2
ACAD_DSTYLE_DIMJOGGED_JOGANGLE_SYMBOL
 70
     0
  0
APPID
  5
250
330
9
100
AcDbSymbolTableRecord
100
AcDbRegAppTableRecord
  2
ACAD_DSTYLE_DIMARC_LENGTH_SYMBOL
 70
     0
  0
APPID
  5
719
330
9
100
AcDbSymbolTableRecord
100
AcDbRegAppTableRecord
  2
ACAD_DSTYLE_DIMINSPECT
 70
     0
  0
APPID
  5
72C
330
9
100
AcDbSymbolTableRecord
100
AcDbRegAppTableRecord
  2
GENIUS_GENDTOL_13
 70
     0
  0
APPID
  5
858
330
9
100
AcDbSymbolTableRecord
100
AcDbRegAppTableRecord
  2
AcadAnnoPO
 70
     0
  0
APPID
  5
85B
330
9
100
AcDbSymbolTableRecord
100
AcDbRegAppTableRecord
  2
ACAD_EXEMPT_FROM_CAD_STANDARDS
 70
     0
  0
APPID
  5
1000
330
9
100
AcDbSymbolTableRecord
100
AcDbRegAppTableRecord
  2
GENIUS_GENDIMSH_14
 70
     0
  0
APPID
  5
1328
330
9
100
AcDbSymbolTableRecord
100
AcDbRegAppTableRecord
  2
ACAD_DSTYLE_DIMRADIAL_EXTENSION
 70
     0
  0
ENDTAB
  0
TABLE
  2
DIMSTYLE
  5
A
330
0
100
AcDbSymbolTable
 70
    20
100
AcDbDimStyleTable
 71
     1
340
FF
  0
DIMSTYLE
105
60
330
A
100
AcDbSymbolTableRecord
100
AcDbDimStyleTableRecord
  2
ISO-25
 70
     0
 41
2.5
 42
0.625
 43
3.75
 44
1.25
 73
     0
 74
     0
 77
     1
 78
     8
140
2.5
141
2.5
143
0.03937007874016
147
0.625
171
     3
172
     1
271
     2
272
     2
274
     3
283
     0
284
     8
340
5D
1001
ACAD_DSTYLE_DIMJOGGED_JOGANGLE_SYMBOL
1070
   384
1040
1.570796326794896
  0
DIMSTYLE
105
61
330
A
100
AcDbSymbolTableRecord
100
AcDbDimStyleTableRecord
  2
Annotative
 70
     0
340
5D
1001
AcadAnnotative
1000
AnnotativeData
1002
{
1070
     1
1070
     1
1002
}
  0
DIMSTYLE
105
FF
330
A
100
AcDbSymbolTableRecord
100
AcDbDimStyleTableRecord
  2
AM_ISO
 70
     0
  4
"
 41
2.5
 42
1.0
 43
10.0
 44
1.0
 47
0.1
 48
0.1
 73
     0
 74
     0
 77
     1
 78
     8
 79
     2
140
3.0
141
0.0
143
0.0393701
146
0.71
147
1.0
172
     1
176
   256
177
   256
178
     2
271
     2
272
     2
283
     0
284
     8
340
5D
371
    -1
372
    -1
1001
ACAD_DSTYLE_DIMARC_LENGTH_SYMBOL
1070
   379
1070
     1
  0
DIMSTYLE
105
100
330
A
100
AcDbSymbolTableRecord
100
AcDbDimStyleTableRecord
  2
AM_ISO$3
 70
     0
  4
"
 41
2.5
 42
1.0
 43
10.0
 44
1.0
 47
0.1
 48
0.1
 73
     0
 77
     1
 78
     8
 79
     2
140
3.5
141
0.0
143
0.0393701
146
0.71
147
1.5
176
   256
177
   256
178
     2
271
     2
272
     3
274
     4
283
     0
284
     8
288
     1
289
     0
340
5D
371
    -1
372
    -1
1001
ACAD_DSTYLE_DIMARC_LENGTH_SYMBOL
1070
   379
1070
     1
  0
DIMSTYLE
105
101
330
A
100
AcDbSymbolTableRecord
100
AcDbDimStyleTableRecord
  2
AM_ISO$4
 70
     0
  4
"
 41
2.5
 42
1.0
 43
10.0
 44
1.0
 47
0.1
 48
0.1
 73
     0
 77
     1
 78
     8
 79
     2
140
3.5
141
0.0
143
0.0393701
146
0.71
147
1.5
176
   256
177
   256
178
     2
271
     2
272
     3
274
     4
283
     0
284
     8
288
     1
289
     0
340
5D
371
    -1
372
    -1
1001
ACAD_DSTYLE_DIMARC_LENGTH_SYMBOL
1070
   379
1070
     1
  0
DIMSTYLE
105
102
330
A
100
AcDbSymbolTableRecord
100
AcDbDimStyleTableRecord
  2
AM_ISO$6
 70
     0
  4
"
 41
2.5
 42
1.0
 43
10.0
 44
1.0
 47
0.1
 48
0.1
 73
     0
 74
     0
 78
     8
 79
     2
140
3.5
141
0.0
143
0.0393701
146
0.71
147
1.5
172
     1
176
   256
177
   256
178
     2
271
     2
272
     3
274
     4
283
     0
284
     8
340
5D
371
    -1
372
    -1
1001
ACAD_DSTYLE_DIMARC_LENGTH_SYMBOL
1070
   379
1070
     1
  0
DIMSTYLE
105
103
330
A
100
AcDbSymbolTableRecord
100
AcDbDimStyleTableRecord
  2
AM_ISO$7
 70
     0
  4
"
 41
2.5
 42
1.0
 43
10.0
 44
1.0
 47
0.1
 48
0.1
 73
     0
 74
     0
 77
     1
 78
     8
 79
     2
140
5.0
141
0.0
143
0.0393701
146
0.71
147
1.5
172
     1
176
   256
177
   256
178
     2
271
     2
272
     3
274
     4
283
     0
284
     8
340
5D
371
    -1
372
    -1
1001
ACAD_DSTYLE_DIMARC_LENGTH_SYMBOL
1070
   379
1070
     1
  0
DIMSTYLE
105
104
330
A
100
AcDbSymbolTableRecord
100
AcDbDimStyleTableRecord
  2
AM_ISO$SF
 70
     0
  4
"
 41
2.5
 42
1.0
 43
10.0
 44
1.0
 47
0.1
 48
0.1
 73
     0
 74
     0
 75
     1
 76
     1
 77
     1
 78
     8
 79
     2
140
3.5
141
0.0
143
0.0393701
146
0.71
147
1.5
172
     1
176
   256
177
   256
178
     2
271
     2
272
     3
274
     4
283
     0
284
     8
340
5D
371
    -1
372
    -1
1001
ACAD_DSTYLE_DIMARC_LENGTH_SYMBOL
1070
   379
1070
     1
  0
DIMSTYLE
105
109
330
A
100
AcDbSymbolTableRecord
100
AcDbDimStyleTableRecord
  2
AM_ISO$SH
 70
     0
  4
"
 41
2.5
 42
1.0
 43
10.0
 44
1.0
 47
0.1
 48
0.1
 73
     0
 74
     0
 75
     1
 76
     1
 77
     1
 78
     8
 79
     2
140
3.5
141
0.0
143
0.0393701
144
2.0
146
0.71
147
1.5
172
     1
173
     1
176
   256
177
   256
178
     2
271
     2
272
     3
274
     4
283
     0
284
     8
340
5D
343
105
371
    -1
372
    -1
1001
ACAD_DSTYLE_DIMARC_LENGTH_SYMBOL
1070
   379
1070
     1
  0
DIMSTYLE
105
11F
102
{ACAD_REACTORS
330
F65
330
1015
330
1046
330
1097
102
}
330
A
100
AcDbSymbolTableRecord
100
AcDbDimStyleTableRecord
  2
AM_ISO$0
 70
     0
  4
"
 41
2.5
 42
1.0
 43
10.0
 44
1.0
 47
0.1
 48
0.1
 73
     0
 74
     0
 77
     1
 78
     8
 79
     2
140
3.0
141
0.0
143
0.0393701
146
0.71
147
1.0
172
     1
176
   256
177
   256
178
     2
271
     2
272
     2
283
     0
284
     8
340
5D
371
    -1
372
    -1
1001
ACAD_DSTYLE_DIMJAG
1070
   388
1040
1.5
1001
ACAD_DSTYLE_DIMTALN
1070
   392
1070
     0
1001
ACAD_DSTYLE_DIMARC_LENGTH_SYMBOL
1070
   379
1070
     1
  0
DIMSTYLE
105
120
330
A
100
AcDbSymbolTableRecord
100
AcDbDimStyleTableRecord
  2
AM_ISO$2
 70
     0
  4
"
 41
2.5
 42
1.0
 43
10.0
 44
1.0
 47
0.1
 48
0.1
 73
     0
 74
     0
 77
     1
 78
     8
 79
     2
140
3.0
141
0.0
143
0.0393701
146
0.71
147
1.0
172
     1
176
   256
177
   256
178
     2
271
     2
272
     2
283
     0
284
     8
340
5D
371
    -1
372
    -1
1001
ACAD_DSTYLE_DIMJAG
1070
   388
1040
1.5
1001
ACAD_DSTYLE_DIMTALN
1070
   392
1070
     0
1001
ACAD_DSTYLE_DIMARC_LENGTH_SYMBOL
1070
   379
1070
     1
  0
DIMSTYLE
105
18C
330
A
100
AcDbSymbolTableRecord
100
AcDbDimStyleTableRecord
  2
Standard
 70
     0
289
     0
340
5D
  0
DIMSTYLE
105
18D
330
A
100
AcDbSymbolTableRecord
100
AcDbDimStyleTableRecord
  2
AM_ANSI
 70
     0
  4
"
 41
2.5
 42
1.0
 43
10.0
 44
1.0
 47
0.1
 48
0.1
 73
     0
 74
     0
 77
     1
 78
     8
 79
     2
140
3.0
141
0.0
143
0.0393701
146
0.71
147
1.0
176
   256
177
   256
178
     2
271
     2
272
     2
284
     8
340
5D
371
    -1
372
    -1
1001
ACAD_DSTYLE_DIMJAG
1070
   388
1040
1.5
1001
ACAD_DSTYLE_DIMTALN
1070
   392
1070
     0
1001
ACAD_DSTYLE_DIMARC_LENGTH_SYMBOL
1070
   379
1070
     1
  0
DIMSTYLE
105
18E
330
A
100
AcDbSymbolTableRecord
100
AcDbDimStyleTableRecord
  2
AM_ANSI$3
 70
     0
  4
"
 41
2.5
 42
1.0
 43
10.0
 44
1.0
 47
0.1
 48
0.1
 78
     8
 79
     2
140
3.5
141
0.0
143
0.0393701
146
0.71
147
1.5
176
   256
177
   256
178
     2
271
     2
272
     2
274
     4
284
     8
288
     1
289
     0
340
5D
371
    -1
372
    -1
1001
ACAD_DSTYLE_DIMARC_LENGTH_SYMBOL
1070
   379
1070
     1
  0
DIMSTYLE
105
18F
330
A
100
AcDbSymbolTableRecord
100
AcDbDimStyleTableRecord
  2
AM_ANSI$4
 70
     0
  4
"
 41
2.5
 42
1.0
 43
10.0
 44
1.0
 47
0.1
 48
0.1
 78
     8
 79
     2
140
3.5
141
0.0
143
0.0393701
146
0.71
147
1.5
176
   256
177
   256
178
     2
271
     2
272
     2
274
     4
284
     8
288
     1
289
     0
340
5D
371
    -1
372
    -1
1001
ACAD_DSTYLE_DIMARC_LENGTH_SYMBOL
1070
   379
1070
     1
  0
DIMSTYLE
105
190
330
A
100
AcDbSymbolTableRecord
100
AcDbDimStyleTableRecord
  2
AM_ANSI$7
 70
     0
  4
"
 41
2.5
 42
1.0
 43
10.0
 44
1.0
 47
0.1
 48
0.1
 78
     8
 79
     2
140
5.0
141
0.0
143
0.0393701
146
0.71
147
1.5
176
   256
177
   256
178
     2
271
     2
272
     2
274
     4
284
     8
340
5D
371
    -1
372
    -1
1001
ACAD_DSTYLE_DIMARC_LENGTH_SYMBOL
1070
   379
1070
     1
  0
DIMSTYLE
105
191
330
A
100
AcDbSymbolTableRecord
100
AcDbDimStyleTableRecord
  2
AM_ANSI$SF
 70
     0
  4
"
 41
2.5
 42
1.0
 43
10.0
 44
1.0
 47
0.1
 48
0.1
 75
     1
 76
     1
 78
     8
 79
     2
140
3.5
141
0.0
143
0.0393701
146
0.71
147
1.5
176
   256
177
   256
178
     2
271
     2
272
     3
274
     4
284
     8
340
5D
371
    -1
372
    -1
1001
ACAD_DSTYLE_DIMARC_LENGTH_SYMBOL
1070
   379
1070
     1
  0
DIMSTYLE
105
192
330
A
100
AcDbSymbolTableRecord
100
AcDbDimStyleTableRecord
  2
AM_ANSI$SH
 70
     0
  4
"
 41
2.5
 42
1.0
 43
10.0
 44
1.0
 47
0.1
 48
0.1
 75
     1
 76
     1
 78
     8
 79
     2
140
3.5
141
0.0
143
0.0393701
146
0.71
147
1.5
173
     1
176
   256
177
   256
178
     2
271
     2
272
     3
274
     4
284
     8
340
5D
343
105
371
    -1
372
    -1
1001
ACAD_DSTYLE_DIMARC_LENGTH_SYMBOL
1070
   379
1070
     1
  0
DIMSTYLE
105
193
330
A
100
AcDbSymbolTableRecord
100
AcDbDimStyleTableRecord
  2
AM_ANSI$0
 70
     0
  4
"
 41
2.5
 42
1.0
 43
10.0
 44
1.0
 47
0.1
 48
0.1
 73
     0
 74
     0
 77
     1
 78
     8
 79
     2
140
3.0
141
0.0
143
0.0393701
146
0.71
147
1.0
176
   256
177
   256
178
     2
271
     2
272
     2
284
     8
340
5D
371
    -1
372
    -1
1001
ACAD_DSTYLE_DIMJAG
1070
   388
1040
1.5
1001
ACAD_DSTYLE_DIMTALN
1070
   392
1070
     0
1001
ACAD_DSTYLE_DIMARC_LENGTH_SYMBOL
1070
   379
1070
     1
  0
ENDTAB
  0
TABLE
  2
BLOCK_RECORD
  5
1
330
0
100
AcDbSymbolTable
 70
    24
  0
BLOCK_RECORD
  5
75
102
{ACAD_XDICTIONARY
360
79F
102
}
330
1
100
AcDbSymbolTableRecord
100
AcDbBlockTableRecord
  2
*Model_Space
340
78
  0
BLOCK_RECORD
  5
71
330
1
100
AcDbSymbolTableRecord
100
AcDbBlockTableRecord
  2
*Paper_Space
340
74
  0
BLOCK_RECORD
  5
79
330
1
100
AcDbSymbolTableRecord
100
AcDbBlockTableRecord
  2
*Paper_Space0
340
7C
  0
BLOCK_RECORD
  5
105
330
1
100
AcDbSymbolTableRecord
100
AcDbBlockTableRecord
  2
GENAXEH
340
0
  0
BLOCK_RECORD
  5
1B9
330
1
100
AcDbSymbolTableRecord
100
AcDbBlockTableRecord
  2
GENDOT
340
0
  0
BLOCK_RECORD
  5
704
330
1
100
AcDbSymbolTableRecord
100
AcDbBlockTableRecord
  2
*D3
340
0
  0
BLOCK_RECORD
  5
737
330
1
100
AcDbSymbolTableRecord
100
AcDbBlockTableRecord
  2
*D4
340
0
  0
BLOCK_RECORD
  5
768
330
1
100
AcDbSymbolTableRecord
100
AcDbBlockTableRecord
  2
*D5
340
0
  0
BLOCK_RECORD
  5
917
330
1
100
AcDbSymbolTableRecord
100
AcDbBlockTableRecord
  2
AI9-BLK1
340
0
  0
BLOCK_RECORD
  5
922
330
1
100
AcDbSymbolTableRecord
100
AcDbBlockTableRecord
  2
AI9-BLK2
340
0
102
{BLKREFS
331
919
331
11B0
102
}
  0
BLOCK_RECORD
  5
931
330
1
100
AcDbSymbolTableRecord
100
AcDbBlockTableRecord
  2
AI9-BLK3
340
0
102
{BLKREFS
331
CA9
102
}
  0
BLOCK_RECORD
  5
959
330
1
100
AcDbSymbolTableRecord
100
AcDbBlockTableRecord
  2
AI9-BLK4
340
0
102
{BLKREFS
331
CAA
102
}
  0
BLOCK_RECORD
  5
981
330
1
100
AcDbSymbolTableRecord
100
AcDbBlockTableRecord
  2
AI9-BLK10
340
0
102
{BLKREFS
331
EC2
102
}
  0
BLOCK_RECORD
  5
98B
330
1
100
AcDbSymbolTableRecord
100
AcDbBlockTableRecord
  2
AI9-BLK11
340
0
  0
BLOCK_RECORD
  5
99C
330
1
100
AcDbSymbolTableRecord
100
AcDbBlockTableRecord
  2
AI9-BLK12
340
0
102
{BLKREFS
331
EC8
102
}
  0
BLOCK_RECORD
  5
9A0
330
1
100
AcDbSymbolTableRecord
100
AcDbBlockTableRecord
  2
AI9-BLK13
340
0
  0
BLOCK_RECORD
  5
9AF
330
1
100
AcDbSymbolTableRecord
100
AcDbBlockTableRecord
  2
AI9-BLK14
340
0
102
{BLKREFS
331
F45
102
}
  0
BLOCK_RECORD
  5
F66
330
1
100
AcDbSymbolTableRecord
100
AcDbBlockTableRecord
  2
*D15
340
0
  0
BLOCK_RECORD
  5
F97
330
1
100
AcDbSymbolTableRecord
100
AcDbBlockTableRecord
  2
*D16
340
0
  0
BLOCK_RECORD
  5
FD1
330
1
100
AcDbSymbolTableRecord
100
AcDbBlockTableRecord
  2
*D17
340
0
  0
BLOCK_RECORD
  5
FE7
330
1
100
AcDbSymbolTableRecord
100
AcDbBlockTableRecord
  2
*D18
340
0
  0
BLOCK_RECORD
  5
1016
330
1
100
AcDbSymbolTableRecord
100
AcDbBlockTableRecord
  2
*D19
340
0
  0
BLOCK_RECORD
  5
1047
330
1
100
AcDbSymbolTableRecord
100
AcDbBlockTableRecord
  2
*D20
340
0
  0
BLOCK_RECORD
  5
1098
330
1
100
AcDbSymbolTableRecord
100
AcDbBlockTableRecord
  2
*D21
340
0
  0
ENDTAB
  0
ENDSEC
  0
SECTION
  2
BLOCKS
  0
BLOCK
  5
76
330
75
100
AcDbEntity
  8
0
100
AcDbBlockBegin
  2
*Model_Space
 70
     0
 10
0.0
 20
0.0
 30
0.0
  3
*Model_Space
  1

  0
ENDBLK
  5
77
330
75
100
AcDbEntity
  8
0
100
AcDbBlockEnd
  0
BLOCK
  5
72
330
71
100
AcDbEntity
 67
     1
  8
0
100
AcDbBlockBegin
  2
*Paper_Space
 70
     0
 10
0.0
 20
0.0
 30
0.0
  3
*Paper_Space
  1

  0
ENDBLK
  5
73
330
71
100
AcDbEntity
 67
     1
  8
0
100
AcDbBlockEnd
  0
BLOCK
  5
7A
330
79
100
AcDbEntity
 67
     1
  8
0
100
AcDbBlockBegin
  2
*Paper_Space0
 70
     0
 10
0.0
 20
0.0
 30
0.0
  3
*Paper_Space0
  1

  0
ENDBLK
  5
7B
330
79
100
AcDbEntity
 67
     1
  8
0
100
AcDbBlockEnd
  0
BLOCK
  5
107
330
105
100
AcDbEntity
  8
0
100
AcDbBlockBegin
  2
GENAXEH
 70
     0
 10
0.0
 20
0.0
 30
0.0
  3
GENAXEH
  1

  0
LINE
  5
106
330
105
100
AcDbEntity
  8
0
100
AcDbLine
 10
-1.0
 20
0.0
 30
0.0
 11
1.0
 21
0.0
 31
0.0
  0
ENDBLK
  5
108
330
105
100
AcDbEntity
  8
0
100
AcDbBlockEnd
  0
BLOCK
  5
1BC
330
1B9
100
AcDbEntity
  8
0
100
AcDbBlockBegin
  2
GENDOT
 70
     0
 10
0.0
 20
0.0
 30
0.0
  3
GENDOT
  1

  0
LINE
  5
1BA
330
1B9
100
AcDbEntity
  8
0
100
AcDbLine
 10
0.0
 20
0.0
 30
0.0
 11
-1.0
 21
0.0
 31
0.0
  0
LWPOLYLINE
  5
1BB
330
1B9
100
AcDbEntity
  8
0
100
AcDbPolyline
 90
        2
 70
     1
 43
0.25
 10
-0.125
 20
0.0
 42
1.0
 10
0.125
 20
0.0
 42
1.0
  0
ENDBLK
  5
1BD
330
1B9
100
AcDbEntity
  8
0
100
AcDbBlockEnd
  0
BLOCK
  5
705
330
704
100
AcDbEntity
  8
0
100
AcDbBlockBegin
  2
*D3
 70
     1
 10
0.0
 20
0.0
 30
0.0
  3
*D3
  1

  0
LINE
  5
72D
330
704
100
AcDbEntity
  8
AM_5
100
AcDbLine
 10
75.42144480810634
 20
203.513643718715
 30
0.0
 11
75.42144480810634
 21
225.1844171106154
 31
0.0
  0
LINE
  5
72E
330
704
100
AcDbEntity
  8
AM_5
100
AcDbLine
 10
54.19857301670027
 20
197.7144221330526
 30
0.0
 11
54.19857301670027
 21
225.1844171106154
 31
0.0
  0
LINE
  5
72F
330
704
100
AcDbEntity
  8
AM_5
100
AcDbLine
 10
72.92144480810634
 20
224.1844171106154
 30
0.0
 11
56.69857301670027
 21
224.1844171106154
 31
0.0
  0
SOLID
  5
730
330
704
100
AcDbEntity
  8
AM_5
100
AcDbTrace
 10
72.92144480810634
 20
224.6010837772821
 30
0.0
 11
72.92144480810634
 21
223.7677504439488
 31
0.0
 12
75.42144480810634
 22
224.1844171106154
 32
0.0
 13
75.42144480810634
 23
224.1844171106154
 33
0.0
  0
SOLID
  5
731
330
704
100
AcDbEntity
  8
AM_5
100
AcDbTrace
 10
56.69857301670027
 20
224.6010837772821
 30
0.0
 11
56.69857301670027
 21
223.7677504439488
 31
0.0
 12
54.19857301670027
 22
224.1844171106154
 32
0.0
 13
54.19857301670027
 23
224.1844171106154
 33
0.0
  0
MTEXT
  5
732
330
704
100
AcDbEntity
  8
AM_5
 62
     2
100
AcDbMText
 10
64.81000891240332
 20
226.6844171106154
 30
0.0
 40
3.0
 41
0.0
 71
     5
 72
     1
  1
55
 73
     1
 44
1.0
1001
ACAD
1000
MTEXTBEGIN
1070
    73
1070
     1
1070
    44
1040
1.0
1070
    74
1070
     0
1000
MTEXTEND
  0
POINT
  5
733
330
704
100
AcDbEntity
  8
Defpoints
 62
     0
100
AcDbPoint
 10
75.42144480810634
 20
202.513643718715
 30
0.0
  0
POINT
  5
734
330
704
100
AcDbEntity
  8
Defpoints
 62
     0
100
AcDbPoint
 10
54.19857301670027
 20
196.7144221330526
 30
0.0
  0
POINT
  5
735
330
704
100
AcDbEntity
  8
Defpoints
 62
     0
100
AcDbPoint
 10
54.19857301670027
 20
224.1844171106154
 30
0.0
  0
ENDBLK
  5
706
330
704
100
AcDbEntity
  8
0
100
AcDbBlockEnd
  0
BLOCK
  5
738
330
737
100
AcDbEntity
  8
0
100
AcDbBlockBegin
  2
*D4
 70
     1
 10
0.0
 20
0.0
 30
0.0
  3
*D4
  1

  0
LINE
  5
75E
330
737
100
AcDbEntity
  8
AM_5
100
AcDbLine
 10
54.72539777332578
 20
202.3610324236401
 30
0.0
 11
28.15863649139238
 21
202.3610324236401
 31
0.0
  0
LINE
  5
75F
330
737
100
AcDbEntity
  8
AM_5
100
AcDbLine
 10
54.57271586613092
 20
124.8346032129602
 30
0.0
 11
28.15863649139237
 21
124.8346032129602
 31
0.0
  0
LINE
  5
760
330
737
100
AcDbEntity
  8
AM_5
100
AcDbLine
 10
29.15863649139238
 20
199.8610324236401
 30
0.0
 11
29.15863649139236
 21
127.3346032129602
 31
0.0
  0
SOLID
  5
761
330
737
100
AcDbEntity
  8
AM_5
100
AcDbTrace
 10
28.74196982472571
 20
199.8610324236401
 30
0.0
 11
29.57530315805905
 21
199.8610324236401
 31
0.0
 12
29.15863649139238
 22
202.3610324236401
 32
0.0
 13
29.15863649139238
 23
202.3610324236401
 33
0.0
  0
SOLID
  5
762
330
737
100
AcDbEntity
  8
AM_5
100
AcDbTrace
 10
28.7419698247257
 20
127.3346032129602
 30
0.0
 11
29.57530315805903
 21
127.3346032129602
 31
0.0
 12
29.15863649139236
 22
124.8346032129602
 32
0.0
 13
29.15863649139236
 23
124.8346032129602
 33
0.0
  0
MTEXT
  5
763
330
737
100
AcDbEntity
  8
AM_5
 62
     2
100
AcDbMText
 10
26.65834121580179
 20
163.5978178183002
 30
0.0
 40
3.0
 41
0.0
 71
     5
 72
     1
  1
203
 11
0.0000000000000001
 21
1.0
 31
0.0
 73
     1
 44
1.0
1001
ACAD
1000
MTEXTBEGIN
1070
    73
1070
     1
1070
    44
1040
1.0
1070
    74
1070
     0
1000
MTEXTEND
  0
POINT
  5
764
330
737
100
AcDbEntity
  8
Defpoints
 62
     0
100
AcDbPoint
 10
55.72539777332575
 20
202.3610324236401
 30
0.0
  0
POINT
  5
765
330
737
100
AcDbEntity
  8
Defpoints
 62
     0
100
AcDbPoint
 10
55.57271586613094
 20
124.8346032129602
 30
0.0
  0
POINT
  5
766
330
737
100
AcDbEntity
  8
Defpoints
 62
     0
100
AcDbPoint
 10
29.15863649139236
 20
124.8346032129602
 30
0.0
  0
ENDBLK
  5
739
330
737
100
AcDbEntity
  8
0
100
AcDbBlockEnd
  0
BLOCK
  5
769
330
768
100
AcDbEntity
  8
0
100
AcDbBlockBegin
  2
*D5
 70
     1
 10
0.0
 20
0.0
 30
0.0
  3
*D5
  1

  0
LINE
  5
78F
330
768
100
AcDbEntity
  8
AM_5
100
AcDbLine
 10
91.01218270050139
 20
122.4349651175623
 30
0.0
 11
91.01218270050139
 21
113.0040426152768
 31
0.0
  0
LINE
  5
790
330
768
100
AcDbEntity
  8
AM_5
100
AcDbLine
 10
171.6414366260562
 20
122.4349651175623
 30
0.0
 11
171.6414366260562
 21
113.0040426152768
 31
0.0
  0
LINE
  5
791
330
768
100
AcDbEntity
  8
AM_5
100
AcDbLine
 10
93.51218270050139
 20
114.0040426152768
 30
0.0
 11
169.1414366260562
 21
114.0040426152768
 31
0.0
  0
SOLID
  5
792
330
768
100
AcDbEntity
  8
AM_5
100
AcDbTrace
 10
93.51218270050139
 20
114.4207092819435
 30
0.0
 11
93.51218270050139
 21
113.5873759486101
 31
0.0
 12
91.01218270050139
 22
114.0040426152768
 32
0.0
 13
91.01218270050139
 23
114.0040426152768
 33
0.0
  0
SOLID
  5
793
330
768
100
AcDbEntity
  8
AM_5
100
AcDbTrace
 10
169.1414366260562
 20
114.4207092819435
 30
0.0
 11
169.1414366260562
 21
113.5873759486101
 31
0.0
 12
171.6414366260562
 22
114.0040426152768
 32
0.0
 13
171.6414366260562
 23
114.0040426152768
 33
0.0
  0
MTEXT
  5
794
330
768
100
AcDbEntity
  8
AM_5
 62
     2
100
AcDbMText
 10
131.3268096632788
 20
116.5043378908674
 30
0.0
 40
3.0
 41
0.0
 71
     5
 72
     1
  1
213
 73
     1
 44
1.0
1001
ACAD
1000
MTEXTBEGIN
1070
    73
1070
     1
1070
    44
1040
1.0
1070
    74
1070
     0
1000
MTEXTEND
  0
POINT
  5
795
330
768
100
AcDbEntity
  8
Defpoints
 62
     0
100
AcDbPoint
 10
91.01218270050139
 20
123.4349651175623
 30
0.0
  0
POINT
  5
796
330
768
100
AcDbEntity
  8
Defpoints
 62
     0
100
AcDbPoint
 10
171.6414366260562
 20
123.4349651175623
 30
0.0
  0
POINT
  5
797
330
768
100
AcDbEntity
  8
Defpoints
 62
     0
100
AcDbPoint
 10
171.6414366260562
 20
114.0040426152768
 30
0.0
  0
ENDBLK
  5
76A
330
768
100
AcDbEntity
  8
0
100
AcDbBlockEnd
  0
BLOCK
  5
918
330
917
100
AcDbEntity
  8
レイヤー_1
 62
     7
100
AcDbBlockBegin
  2
AI9-BLK1
 70
     0
 10
0.0
 20
0.0
 30
0.0
  3
AI9-BLK1
  1

  0
INSERT
  5
919
330
917
100
AcDbEntity
  8
レイヤー_1
 62
     7
100
AcDbBlockReference
  2
AI9-BLK2
 10
0.388865
 20
8.987822999999997
 30
0.0
  0
SPLINE
  5
91A
330
917
100
AcDbEntity
  8
レイヤー_1
 62
     7
100
AcDbSpline
210
0.0
220
0.0
230
1.0
 70
    11
 71
     3
 72
    29
 73
    25
 74
     0
 42
0.0000000001
 43
0.0000000001
 40
0.0
 40
0.0
 40
0.0
 40
0.0
 40
1.0
 40
1.0
 40
1.0
 40
2.0
 40
2.0
 40
2.0
 40
3.0
 40
3.0
 40
3.0
 40
4.0
 40
4.0
 40
4.0
 40
5.0
 40
5.0
 40
5.0
 40
6.0
 40
6.0
 40
6.0
 40
7.0
 40
7.0
 40
7.0
 40
8.0
 40
8.0
 40
8.0
 40
8.0
 10
-31.96841905381945
 20
6.460156928168403
 30
0.0
 10
-31.96841905381945
 20
7.320741780598957
 30
0.0
 10
-31.2694091796875
 20
8.019234890407981
 30
0.0
 10
-30.40882432725694
 20
8.019234890407981
 30
0.0
 10
-30.40882432725694
 20
8.019234890407981
 30
0.0
 10
30.40951334635416
 20
8.019234890407981
 30
0.0
 10
30.40951334635416
 20
8.019234890407981
 30
0.0
 10
31.27044270833333
 20
8.019234890407981
 30
0.0
 10
31.96841905381945
 20
7.320741780598957
 30
0.0
 10
31.96841905381945
 20
6.460156928168403
 30
0.0
 10
31.96841905381945
 20
6.460156928168403
 30
0.0
 10
31.96841905381945
 20
-8.354442681206592
 30
0.0
 10
31.96841905381945
 20
-8.354442681206592
 30
0.0
 10
31.96841905381945
 20
-9.21588880750868
 30
0.0
 10
31.27044270833333
 20
-9.914209662543401
 30
0.0
 10
30.40951334635416
 20
-9.914209662543401
 30
0.0
 10
30.40951334635416
 20
-9.914209662543401
 30
0.0
 10
-30.40882432725694
 20
-9.914209662543401
 30
0.0
 10
-30.40882432725694
 20
-9.914209662543401
 30
0.0
 10
-31.2694091796875
 20
-9.914209662543401
 30
0.0
 10
-31.96841905381945
 20
-9.21588880750868
 30
0.0
 10
-31.96841905381945
 20
-8.354442681206592
 30
0.0
 10
-31.96841905381945
 20
-8.354442681206592
 30
0.0
 10
-31.96841905381945
 20
6.460156928168403
 30
0.0
 10
-31.96841905381945
 20
6.460156928168403
 30
0.0
  0
MTEXT
  5
91B
330
917
100
AcDbEntity
  8
レイヤー_1
 62
     7
100
AcDbMText
 10
28.950515
 20
-0.035994
 30
0.0
 40
0.8186329999999999
 41
0.0
 71
     1
 72
     2
  1
\fSwis721 BT|b0|i0;AC 90~120V
  7
STD
 11
-1.0
 21
0.0
 31
0.0
 73
     1
 44
1.0
1001
ACAD
1000
MTEXTBEGIN
1070
    73
1070
     1
1070
    44
1040
1.0
1070
    74
1070
     0
1000
MTEXTEND
  0
MTEXT
  5
91C
330
917
100
AcDbEntity
  8
レイヤー_1
 62
     7
100
AcDbMText
 10
27.950404
 20
-1.588697999999999
 30
0.0
 40
0.8186329999999999
 41
0.0
 71
     1
 72
     2
  1
\fSwis721 BT|b0|i0;FUSE 2A
  7
STD
 11
-1.0
 21
0.0
 31
0.0
 73
     1
 44
1.0
1001
ACAD
1000
MTEXTBEGIN
1070
    73
1070
     1
1070
    44
1040
1.0
1070
    74
1070
     0
1000
MTEXTEND
  0
ELLIPSE
  5
91D
330
917
100
AcDbEntity
  8
レイヤー_1
 62
     7
100
AcDbEllipse
 10
25.719705
 20
4.126276999999999
 30
0.0
 11
-2.89009060329861
 21
0.0
 31
0.0
210
0.0
220
0.0
230
1.0
 40
0.966444
 41
0.0
 42
6.283185307179584
  0
ELLIPSE
  5
91E
330
917
100
AcDbEntity
  8
レイヤー_1
 62
     7
100
AcDbEllipse
 10
25.780339
 20
4.151253999999998
 30
0.0
 11
-2.02812771267361
 21
0.0
 31
0.0
210
0.0
220
0.0
230
1.0
 40
0.9568549999999998
 41
0.0
 42
6.283185307179584
  0
ELLIPSE
  5
91F
330
917
100
AcDbEntity
  8
レイヤー_1
 62
     7
100
AcDbEllipse
 10
25.702996
 20
-5.300366
 30
0.0
 11
-3.323655870225693
 21
0.0
 31
0.0
210
0.0
220
0.0
230
1.0
 40
0.966468
 41
0.0
 42
6.283185307179584
  0
ELLIPSE
  5
920
330
917
100
AcDbEntity
  8
レイヤー_1
 62
     7
100
AcDbEllipse
 10
25.772587
 20
-5.270737999999997
 30
0.0
 11
-2.332157389322916
 21
0.0
 31
0.0
210
0.0
220
0.0
230
1.0
 40
0.956792
 41
0.0
 42
6.283185307179584
  0
ENDBLK
  5
921
330
917
100
AcDbEntity
  8
レイヤー_1
100
AcDbBlockEnd
  0
BLOCK
  5
923
330
922
100
AcDbEntity
  8
レイヤー_1
 62
     7
100
AcDbBlockBegin
  2
AI9-BLK2
 70
     0
 10
0.0
 20
0.0
 30
0.0
  3
AI9-BLK2
  1

  0
POLYLINE
  5
924
330
922
100
AcDbEntity
  8
レイヤー_1
 62
     7
100
AcDb2dPolyline
 66
     1
 10
0.0
 20
0.0
 30
0.0
 70
     1
  0
VERTEX
  5
925
330
924
100
AcDbEntity
  8
レイヤー_1
 62
     7
100
AcDbVertex
100
AcDb2dVertex
 10
-25.530138
 20
1.001317
 30
0.0
  0
VERTEX
  5
926
330
924
100
AcDbEntity
  8
レイヤー_1
 62
     7
100
AcDbVertex
100
AcDb2dVertex
 10
-21.38121
 20
1.001317
 30
0.0
  0
VERTEX
  5
927
330
924
100
AcDbEntity
  8
レイヤー_1
 62
     7
100
AcDbVertex
100
AcDb2dVertex
 10
-20.603307
 20
-0.8893509999999999
 30
0.0
  0
VERTEX
  5
928
330
924
100
AcDbEntity
  8
レイヤー_1
 62
     7
100
AcDbVertex
100
AcDb2dVertex
 10
-26.3263
 20
-0.8893509999999999
 30
0.0
  0
SEQEND
  5
929
330
924
100
AcDbEntity
  8
レイヤー_1
 62
     7
  0
POLYLINE
  5
92A
330
922
100
AcDbEntity
  8
レイヤー_1
 62
     7
100
AcDb2dPolyline
 66
     1
 10
0.0
 20
0.0
 30
0.0
 70
     1
  0
VERTEX
  5
92B
330
92A
100
AcDbEntity
  8
レイヤー_1
 62
     7
100
AcDbVertex
100
AcDb2dVertex
 10
21.399297
 20
0.889868
 30
0.0
  0
VERTEX
  5
92C
330
92A
100
AcDbEntity
  8
レイヤー_1
 62
     7
100
AcDbVertex
100
AcDb2dVertex
 10
25.546158
 20
0.889868
 30
0.0
  0
VERTEX
  5
92D
330
92A
100
AcDbEntity
  8
レイヤー_1
 62
     7
100
AcDbVertex
100
AcDb2dVertex
 10
26.327161
 20
-1.001317
 30
0.0
  0
VERTEX
  5
92E
330
92A
100
AcDbEntity
  8
レイヤー_1
 62
     7
100
AcDbVertex
100
AcDb2dVertex
 10
20.604513
 20
-1.001317
 30
0.0
  0
SEQEND
  5
92F
330
92A
100
AcDbEntity
  8
レイヤー_1
 62
     7
  0
ENDBLK
  5
930
330
922
100
AcDbEntity
  8
レイヤー_1
100
AcDbBlockEnd
  0
BLOCK
  5
932
330
931
100
AcDbEntity
  8
レイヤー_1
 62
     7
100
AcDbBlockBegin
  2
AI9-BLK3
 70
     0
 10
0.0
 20
0.0
 30
0.0
  3
AI9-BLK3
  1

  0
POLYLINE
  5
933
330
931
100
AcDbEntity
  8
レイヤー_1
 62
     7
100
AcDb2dPolyline
 66
     1
 10
0.0
 20
0.0
 30
0.0
 70
     1
  0
VERTEX
  5
934
330
933
100
AcDbEntity
  8
レイヤー_1
 62
     7
100
AcDbVertex
100
AcDb2dVertex
 10
-0.653448
 20
-0.002498
 30
0.0
  0
VERTEX
  5
935
330
933
100
AcDbEntity
  8
レイヤー_1
 62
     7
100
AcDbVertex
100
AcDb2dVertex
 10
-0.63829
 20
-0.128071
 30
0.0
  0
VERTEX
  5
936
330
933
100
AcDbEntity
  8
レイヤー_1
 62
     7
100
AcDbVertex
100
AcDb2dVertex
 10
-0.60315
 20
-0.249511
 30
0.0
  0
VERTEX
  5
937
330
933
100
AcDbEntity
  8
レイヤー_1
 62
     7
100
AcDbVertex
100
AcDb2dVertex
 10
-0.5428609999999999
 20
-0.360099
 30
0.0
  0
VERTEX
  5
938
330
933
100
AcDbEntity
  8
レイヤー_1
 62
     7
100
AcDbVertex
100
AcDb2dVertex
 10
-0.4622460000000002
 20
-0.461384
 30
0.0
  0
VERTEX
  5
939
330
933
100
AcDbEntity
  8
レイヤー_1
 62
     7
100
AcDbVertex
100
AcDb2dVertex
 10
-0.360615
 20
-0.5418270000000001
 30
0.0
  0
VERTEX
  5
93A
330
933
100
AcDbEntity
  8
レイヤー_1
 62
     7
100
AcDbVertex
100
AcDb2dVertex
 10
-0.250028
 20
-0.602461
 30
0.0
  0
VERTEX
  5
93B
330
933
100
AcDbEntity
  8
レイヤー_1
 62
     7
100
AcDbVertex
100
AcDb2dVertex
 10
-0.123248
 20
-0.637946
 30
0.0
  0
VERTEX
  5
93C
330
933
100
AcDbEntity
  8
レイヤー_1
 62
     7
100
AcDbVertex
100
AcDb2dVertex
 10
0.002153
 20
-0.652932
 30
0.0
  0
VERTEX
  5
93D
330
933
100
AcDbEntity
  8
レイヤー_1
 62
     7
100
AcDbVertex
100
AcDb2dVertex
 10
0.128588
 20
-0.637946
 30
0.0
  0
VERTEX
  5
93E
330
933
100
AcDbEntity
  8
レイヤー_1
 62
     7
100
AcDbVertex
100
AcDb2dVertex
 10
0.249511
 20
-0.602461
 30
0.0
  0
VERTEX
  5
93F
330
933
100
AcDbEntity
  8
レイヤー_1
 62
     7
100
AcDbVertex
100
AcDb2dVertex
 10
0.365955
 20
-0.5418270000000001
 30
0.0
  0
VERTEX
  5
940
330
933
100
AcDbEntity
  8
レイヤー_1
 62
     7
100
AcDbVertex
100
AcDb2dVertex
 10
0.461384
 20
-0.461384
 30
0.0
  0
VERTEX
  5
941
330
933
100
AcDbEntity
  8
レイヤー_1
 62
     7
100
AcDbVertex
100
AcDb2dVertex
 10
0.542
 20
-0.360099
 30
0.0
  0
VERTEX
  5
942
330
933
100
AcDbEntity
  8
レイヤー_1
 62
     7
100
AcDbVertex
100
AcDb2dVertex
 10
0.602633
 20
-0.249511
 30
0.0
  0
VERTEX
  5
943
330
933
100
AcDbEntity
  8
レイヤー_1
 62
     7
100
AcDbVertex
100
AcDb2dVertex
 10
0.6425960000000001
 20
-0.128071
 30
0.0
  0
VERTEX
  5
944
330
933
100
AcDbEntity
  8
レイヤー_1
 62
     7
100
AcDbVertex
100
AcDb2dVertex
 10
0.6536210000000003
 20
-0.002498
 30
0.0
  0
VERTEX
  5
945
330
933
100
AcDbEntity
  8
レイヤー_1
 62
     7
100
AcDbVertex
100
AcDb2dVertex
 10
0.6425960000000001
 20
0.12876
 30
0.0
  0
VERTEX
  5
946
330
933
100
AcDbEntity
  8
レイヤー_1
 62
     7
100
AcDbVertex
100
AcDb2dVertex
 10
0.602633
 20
0.2502
 30
0.0
  0
VERTEX
  5
947
330
933
100
AcDbEntity
  8
レイヤー_1
 62
     7
100
AcDbVertex
100
AcDb2dVertex
 10
0.542
 20
0.361132
 30
0.0
  0
VERTEX
  5
948
330
933
100
AcDbEntity
  8
レイヤー_1
 62
     7
100
AcDbVertex
100
AcDb2dVertex
 10
0.461384
 20
0.461729
 30
0.0
  0
VERTEX
  5
949
330
933
100
AcDbEntity
  8
レイヤー_1
 62
     7
100
AcDbVertex
100
AcDb2dVertex
 10
0.365955
 20
0.542516
 30
0.0
  0
VERTEX
  5
94A
330
933
100
AcDbEntity
  8
レイヤー_1
 62
     7
100
AcDbVertex
100
AcDb2dVertex
 10
0.249511
 20
0.602461
 30
0.0
  0
VERTEX
  5
94B
330
933
100
AcDbEntity
  8
レイヤー_1
 62
     7
100
AcDbVertex
100
AcDb2dVertex
 10
0.128588
 20
0.637946
 30
0.0
  0
VERTEX
  5
94C
330
933
100
AcDbEntity
  8
レイヤー_1
 62
     7
100
AcDbVertex
100
AcDb2dVertex
 10
0.002153
 20
0.652932
 30
0.0
  0
VERTEX
  5
94D
330
933
100
AcDbEntity
  8
レイヤー_1
 62
     7
100
AcDbVertex
100
AcDb2dVertex
 10
-0.123248
 20
0.637946
 30
0.0
  0
VERTEX
  5
94E
330
933
100
AcDbEntity
  8
レイヤー_1
 62
     7
100
AcDbVertex
100
AcDb2dVertex
 10
-0.250028
 20
0.602461
 30
0.0
  0
VERTEX
  5
94F
330
933
100
AcDbEntity
  8
レイヤー_1
 62
     7
100
AcDbVertex
100
AcDb2dVertex
 10
-0.360615
 20
0.542516
 30
0.0
  0
VERTEX
  5
950
330
933
100
AcDbEntity
  8
レイヤー_1
 62
     7
100
AcDbVertex
100
AcDb2dVertex
 10
-0.4622460000000002
 20
0.461729
 30
0.0
  0
VERTEX
  5
951
330
933
100
AcDbEntity
  8
レイヤー_1
 62
     7
100
AcDbVertex
100
AcDb2dVertex
 10
-0.5428609999999999
 20
0.361132
 30
0.0
  0
VERTEX
  5
952
330
933
100
AcDbEntity
  8
レイヤー_1
 62
     7
100
AcDbVertex
100
AcDb2dVertex
 10
-0.60315
 20
0.2502
 30
0.0
  0
VERTEX
  5
953
330
933
100
AcDbEntity
  8
レイヤー_1
 62
     7
100
AcDbVertex
100
AcDb2dVertex
 10
-0.63829
 20
0.12876
 30
0.0
  0
VERTEX
  5
954
330
933
100
AcDbEntity
  8
レイヤー_1
 62
     7
100
AcDbVertex
100
AcDb2dVertex
 10
-0.653448
 20
-0.002498
 30
0.0
  0
SEQEND
  5
955
330
933
100
AcDbEntity
  8
レイヤー_1
 62
     7
  0
LINE
  5
956
330
931
100
AcDbEntity
  8
レイヤー_1
 62
     7
100
AcDbLine
 10
0.593676
 20
-0.002498
 30
0.0
 11
-0.5979820000000001
 21
-0.002498
 31
0.0
  0
LINE
  5
957
330
931
100
AcDbEntity
  8
レイヤー_1
 62
     7
100
AcDbLine
 10
0.002153
 20
-0.610729
 30
0.0
 11
0.002153
 21
0.5947100000000001
 31
0.0
  0
ENDBLK
  5
958
330
931
100
AcDbEntity
  8
レイヤー_1
100
AcDbBlockEnd
  0
BLOCK
  5
95A
330
959
100
AcDbEntity
  8
レイヤー_1
 62
     7
100
AcDbBlockBegin
  2
AI9-BLK4
 70
     0
 10
0.0
 20
0.0
 30
0.0
  3
AI9-BLK4
  1

  0
POLYLINE
  5
95B
330
959
100
AcDbEntity
  8
レイヤー_1
 62
     7
100
AcDb2dPolyline
 66
     1
 10
0.0
 20
0.0
 30
0.0
 70
     1
  0
VERTEX
  5
95C
330
95B
100
AcDbEntity
  8
レイヤー_1
 62
     7
100
AcDbVertex
100
AcDb2dVertex
 10
-0.6536210000000003
 20
-0.002239
 30
0.0
  0
VERTEX
  5
95D
330
95B
100
AcDbEntity
  8
レイヤー_1
 62
     7
100
AcDbVertex
100
AcDb2dVertex
 10
-0.6381180000000001
 20
-0.12833
 30
0.0
  0
VERTEX
  5
95E
330
95B
100
AcDbEntity
  8
レイヤー_1
 62
     7
100
AcDbVertex
100
AcDb2dVertex
 10
-0.6029780000000003
 20
-0.249425
 30
0.0
  0
VERTEX
  5
95F
330
95B
100
AcDbEntity
  8
レイヤー_1
 62
     7
100
AcDbVertex
100
AcDb2dVertex
 10
-0.5426890000000001
 20
-0.360012
 30
0.0
  0
VERTEX
  5
960
330
95B
100
AcDbEntity
  8
レイヤー_1
 62
     7
100
AcDbVertex
100
AcDb2dVertex
 10
-0.461729
 20
-0.461298
 30
0.0
  0
VERTEX
  5
961
330
95B
100
AcDbEntity
  8
レイヤー_1
 62
     7
100
AcDbVertex
100
AcDb2dVertex
 10
-0.360788
 20
-0.5419140000000003
 30
0.0
  0
VERTEX
  5
962
330
95B
100
AcDbEntity
  8
レイヤー_1
 62
     7
100
AcDbVertex
100
AcDb2dVertex
 10
-0.249856
 20
-0.6025470000000001
 30
0.0
  0
VERTEX
  5
963
330
95B
100
AcDbEntity
  8
レイヤー_1
 62
     7
100
AcDbVertex
100
AcDb2dVertex
 10
-0.123421
 20
-0.6378590000000001
 30
0.0
  0
VERTEX
  5
964
330
95B
100
AcDbEntity
  8
レイヤー_1
 62
     7
100
AcDbVertex
100
AcDb2dVertex
 10
0.002325
 20
-0.653018
 30
0.0
  0
VERTEX
  5
965
330
95B
100
AcDbEntity
  8
レイヤー_1
 62
     7
100
AcDbVertex
100
AcDb2dVertex
 10
0.129105
 20
-0.6378590000000001
 30
0.0
  0
VERTEX
  5
966
330
95B
100
AcDbEntity
  8
レイヤー_1
 62
     7
100
AcDbVertex
100
AcDb2dVertex
 10
0.250028
 20
-0.6025470000000001
 30
0.0
  0
VERTEX
  5
967
330
95B
100
AcDbEntity
  8
レイヤー_1
 62
     7
100
AcDbVertex
100
AcDb2dVertex
 10
0.365439
 20
-0.5419140000000003
 30
0.0
  0
VERTEX
  5
968
330
95B
100
AcDbEntity
  8
レイヤー_1
 62
     7
100
AcDbVertex
100
AcDb2dVertex
 10
0.461557
 20
-0.461298
 30
0.0
  0
VERTEX
  5
969
330
95B
100
AcDbEntity
  8
レイヤー_1
 62
     7
100
AcDbVertex
100
AcDb2dVertex
 10
0.542172
 20
-0.360012
 30
0.0
  0
VERTEX
  5
96A
330
95B
100
AcDbEntity
  8
レイヤー_1
 62
     7
100
AcDbVertex
100
AcDb2dVertex
 10
0.60315
 20
-0.249425
 30
0.0
  0
VERTEX
  5
96B
330
95B
100
AcDbEntity
  8
レイヤー_1
 62
     7
100
AcDbVertex
100
AcDb2dVertex
 10
0.6431130000000001
 20
-0.12833
 30
0.0
  0
VERTEX
  5
96C
330
95B
100
AcDbEntity
  8
レイヤー_1
 62
     7
100
AcDbVertex
100
AcDb2dVertex
 10
0.6537930000000002
 20
-0.002239
 30
0.0
  0
VERTEX
  5
96D
330
95B
100
AcDbEntity
  8
レイヤー_1
 62
     7
100
AcDbVertex
100
AcDb2dVertex
 10
0.6431130000000001
 20
0.128847
 30
0.0
  0
VERTEX
  5
96E
330
95B
100
AcDbEntity
  8
レイヤー_1
 62
     7
100
AcDbVertex
100
AcDb2dVertex
 10
0.60315
 20
0.250114
 30
0.0
  0
VERTEX
  5
96F
330
95B
100
AcDbEntity
  8
レイヤー_1
 62
     7
100
AcDbVertex
100
AcDb2dVertex
 10
0.542172
 20
0.361046
 30
0.0
  0
VERTEX
  5
970
330
95B
100
AcDbEntity
  8
レイヤー_1
 62
     7
100
AcDbVertex
100
AcDb2dVertex
 10
0.461557
 20
0.461987
 30
0.0
  0
VERTEX
  5
971
330
95B
100
AcDbEntity
  8
レイヤー_1
 62
     7
100
AcDbVertex
100
AcDb2dVertex
 10
0.365439
 20
0.5426029999999999
 30
0.0
  0
VERTEX
  5
972
330
95B
100
AcDbEntity
  8
レイヤー_1
 62
     7
100
AcDbVertex
100
AcDb2dVertex
 10
0.250028
 20
0.602892
 30
0.0
  0
VERTEX
  5
973
330
95B
100
AcDbEntity
  8
レイヤー_1
 62
     7
100
AcDbVertex
100
AcDb2dVertex
 10
0.129105
 20
0.6378590000000001
 30
0.0
  0
VERTEX
  5
974
330
95B
100
AcDbEntity
  8
レイヤー_1
 62
     7
100
AcDbVertex
100
AcDb2dVertex
 10
0.002325
 20
0.653018
 30
0.0
  0
VERTEX
  5
975
330
95B
100
AcDbEntity
  8
レイヤー_1
 62
     7
100
AcDbVertex
100
AcDb2dVertex
 10
-0.123421
 20
0.6378590000000001
 30
0.0
  0
VERTEX
  5
976
330
95B
100
AcDbEntity
  8
レイヤー_1
 62
     7
100
AcDbVertex
100
AcDb2dVertex
 10
-0.249856
 20
0.602892
 30
0.0
  0
VERTEX
  5
977
330
95B
100
AcDbEntity
  8
レイヤー_1
 62
     7
100
AcDbVertex
100
AcDb2dVertex
 10
-0.360788
 20
0.5426029999999999
 30
0.0
  0
VERTEX
  5
978
330
95B
100
AcDbEntity
  8
レイヤー_1
 62
     7
100
AcDbVertex
100
AcDb2dVertex
 10
-0.461729
 20
0.461987
 30
0.0
  0
VERTEX
  5
979
330
95B
100
AcDbEntity
  8
レイヤー_1
 62
     7
100
AcDbVertex
100
AcDb2dVertex
 10
-0.5426890000000001
 20
0.361046
 30
0.0
  0
VERTEX
  5
97A
330
95B
100
AcDbEntity
  8
レイヤー_1
 62
     7
100
AcDbVertex
100
AcDb2dVertex
 10
-0.6029780000000003
 20
0.250114
 30
0.0
  0
VERTEX
  5
97B
330
95B
100
AcDbEntity
  8
レイヤー_1
 62
     7
100
AcDbVertex
100
AcDb2dVertex
 10
-0.6381180000000001
 20
0.128847
 30
0.0
  0
VERTEX
  5
97C
330
95B
100
AcDbEntity
  8
レイヤー_1
 62
     7
100
AcDbVertex
100
AcDb2dVertex
 10
-0.6536210000000003
 20
-0.002239
 30
0.0
  0
SEQEND
  5
97D
330
95B
100
AcDbEntity
  8
レイヤー_1
 62
     7
  0
LINE
  5
97E
330
959
100
AcDbEntity
  8
レイヤー_1
 62
     7
100
AcDbLine
 10
0.5714550000000001
 20
-0.002239
 30
0.0
 11
-0.5602590000000001
 21
-0.002239
 31
0.0
  0
LINE
  5
97F
330
959
100
AcDbEntity
  8
レイヤー_1
 62
     7
100
AcDbLine
 10
0.002325
 20
-0.573781
 30
0.0
 11
0.002325
 21
0.558278
 31
0.0
  0
ENDBLK
  5
980
330
959
100
AcDbEntity
  8
レイヤー_1
100
AcDbBlockEnd
  0
BLOCK
  5
982
330
981
100
AcDbEntity
  8
レイヤー_1
 62
     7
100
AcDbBlockBegin
  2
AI9-BLK10
 70
     0
 10
0.0
 20
0.0
 30
0.0
  3
AI9-BLK10
  1

  0
POLYLINE
  5
983
330
981
100
AcDbEntity
  8
レイヤー_1
 62
     7
100
AcDb2dPolyline
 66
     1
 10
0.0
 20
0.0
 30
0.0
 70
     1
  0
VERTEX
  5
984
330
983
100
AcDbEntity
  8
レイヤー_1
 62
     7
100
AcDbVertex
100
AcDb2dVertex
 10
-26.779244
 20
1.740375999999999
 30
0.0
  0
VERTEX
  5
985
330
983
100
AcDbEntity
  8
レイヤー_1
 62
     7
100
AcDbVertex
100
AcDb2dVertex
 10
-28.312656
 20
1.740375999999999
 30
0.0
  0
VERTEX
  5
986
330
983
100
AcDbEntity
  8
レイヤー_1
 62
     7
100
AcDbVertex
100
AcDb2dVertex
 10
-28.312656
 20
-1.714538
 30
0.0
  0
VERTEX
  5
987
330
983
100
AcDbEntity
  8
レイヤー_1
 62
     7
100
AcDbVertex
100
AcDb2dVertex
 10
-26.779244
 20
-1.714538
 30
0.0
  0
VERTEX
  5
988
330
983
100
AcDbEntity
  8
レイヤー_1
 62
     7
100
AcDbVertex
100
AcDb2dVertex
 10
-26.779244
 20
1.740375999999999
 30
0.0
  0
SEQEND
  5
989
330
983
100
AcDbEntity
  8
レイヤー_1
 62
     7
  0
ENDBLK
  5
98A
330
981
100
AcDbEntity
  8
レイヤー_1
100
AcDbBlockEnd
  0
BLOCK
  5
98C
330
98B
100
AcDbEntity
  8
レイヤー_1
 62
     7
100
AcDbBlockBegin
  2
AI9-BLK11
 70
     0
 10
0.0
 20
0.0
 30
0.0
  3
AI9-BLK11
  1

  0
POLYLINE
  5
98D
330
98B
100
AcDbEntity
  8
レイヤー_1
 62
     7
100
AcDb2dPolyline
 66
     1
 10
0.0
 20
0.0
 30
0.0
 70
     1
  0
VERTEX
  5
98E
330
98D
100
AcDbEntity
  8
レイヤー_1
 62
     7
100
AcDbVertex
100
AcDb2dVertex
 10
-26.834021
 20
0.4514800000000001
 30
0.0
  0
VERTEX
  5
98F
330
98D
100
AcDbEntity
  8
レイヤー_1
 62
     7
100
AcDbVertex
100
AcDb2dVertex
 10
-28.25719
 20
0.4514800000000001
 30
0.0
  0
VERTEX
  5
990
330
98D
100
AcDbEntity
  8
レイヤー_1
 62
     7
100
AcDbVertex
100
AcDb2dVertex
 10
-28.25719
 20
-1.661913999999999
 30
0.0
  0
VERTEX
  5
991
330
98D
100
AcDbEntity
  8
レイヤー_1
 62
     7
100
AcDbVertex
100
AcDb2dVertex
 10
-26.834021
 20
-1.661913999999999
 30
0.0
  0
VERTEX
  5
992
330
98D
100
AcDbEntity
  8
レイヤー_1
 62
     7
100
AcDbVertex
100
AcDb2dVertex
 10
-26.834021
 20
0.4514800000000001
 30
0.0
  0
SEQEND
  5
993
330
98D
100
AcDbEntity
  8
レイヤー_1
 62
     7
  0
POLYLINE
  5
994
330
98B
100
AcDbEntity
  8
レイヤー_1
 62
     7
100
AcDb2dPolyline
 66
     1
 10
0.0
 20
0.0
 30
0.0
 70
     1
  0
VERTEX
  5
995
330
994
100
AcDbEntity
  8
レイヤー_1
 62
     7
100
AcDbVertex
100
AcDb2dVertex
 10
31.47801
 20
-8.828746
 30
0.0
  0
VERTEX
  5
996
330
994
100
AcDbEntity
  8
レイヤー_1
 62
     7
100
AcDbVertex
100
AcDb2dVertex
 10
-31.47801
 20
-8.828746
 30
0.0
  0
VERTEX
  5
997
330
994
100
AcDbEntity
  8
レイヤー_1
 62
     7
100
AcDbVertex
100
AcDb2dVertex
 10
-31.47801
 20
8.828746
 30
0.0
  0
VERTEX
  5
998
330
994
100
AcDbEntity
  8
レイヤー_1
 62
     7
100
AcDbVertex
100
AcDb2dVertex
 10
31.47801
 20
8.828746
 30
0.0
  0
VERTEX
  5
999
330
994
100
AcDbEntity
  8
レイヤー_1
 62
     7
100
AcDbVertex
100
AcDb2dVertex
 10
31.47801
 20
-8.828746
 30
0.0
  0
SEQEND
  5
99A
330
994
100
AcDbEntity
  8
レイヤー_1
 62
     7
  0
ENDBLK
  5
99B
330
98B
100
AcDbEntity
  8
レイヤー_1
100
AcDbBlockEnd
  0
BLOCK
  5
99D
330
99C
100
AcDbEntity
  8
レイヤー_1
 62
     7
100
AcDbBlockBegin
  2
AI9-BLK12
 70
     0
 10
0.0
 20
0.0
 30
0.0
  3
AI9-BLK12
  1

  0
MTEXT
  5
99E
330
99C
100
AcDbEntity
  8
レイヤー_1
 62
     7
100
AcDbMText
 10
1.219046999999997
 20
-0.4320120000000001
 30
0.0
 40
0.74362
 41
0.0
 71
     1
 72
     2
  1
\W1.22;\fArial|b1|i0;CH1
  7
STD
 11
-1.0
 21
0.0
 31
0.0
 73
     1
 44
1.0
1001
ACAD
1000
MTEXTBEGIN
1070
    73
1070
     1
1070
    44
1040
1.0
1070
    74
1070
     0
1000
MTEXTEND
  0
ENDBLK
  5
99F
330
99C
100
AcDbEntity
  8
レイヤー_1
100
AcDbBlockEnd
  0
BLOCK
  5
9A1
330
9A0
100
AcDbEntity
  8
レイヤー_1
 62
     7
100
AcDbBlockBegin
  2
AI9-BLK13
 70
     0
 10
0.0
 20
0.0
 30
0.0
  3
AI9-BLK13
  1

  0
POLYLINE
  5
9A2
330
9A0
100
AcDbEntity
  8
レイヤー_1
 62
     7
100
AcDb2dPolyline
 66
     1
 10
0.0
 20
0.0
 30
0.0
 70
     1
  0
VERTEX
  5
9A3
330
9A2
100
AcDbEntity
  8
レイヤー_1
 62
     7
100
AcDbVertex
100
AcDb2dVertex
 10
1.024226999999998
 20
27.830601
 30
0.0
  0
VERTEX
  5
9A4
330
9A2
100
AcDbEntity
  8
レイヤー_1
 62
     7
100
AcDbVertex
100
AcDb2dVertex
 10
1.024226999999998
 20
23.586588
 30
0.0
  0
VERTEX
  5
9A5
330
9A2
100
AcDbEntity
  8
レイヤー_1
 62
     7
100
AcDbVertex
100
AcDb2dVertex
 10
-0.9084719999999999
 20
22.790771
 30
0.0
  0
VERTEX
  5
9A6
330
9A2
100
AcDbEntity
  8
レイヤー_1
 62
     7
100
AcDbVertex
100
AcDb2dVertex
 10
-0.9084719999999999
 20
28.644677
 30
0.0
  0
SEQEND
  5
9A7
330
9A2
100
AcDbEntity
  8
レイヤー_1
 62
     7
  0
POLYLINE
  5
9A8
330
9A0
100
AcDbEntity
  8
レイヤー_1
 62
     7
100
AcDb2dPolyline
 66
     1
 10
0.0
 20
0.0
 30
0.0
 70
     1
  0
VERTEX
  5
9A9
330
9A8
100
AcDbEntity
  8
レイヤー_1
 62
     7
100
AcDbVertex
100
AcDb2dVertex
 10
0.911228
 20
-23.607431
 30
0.0
  0
VERTEX
  5
9AA
330
9A8
100
AcDbEntity
  8
レイヤー_1
 62
     7
100
AcDbVertex
100
AcDb2dVertex
 10
0.911228
 20
-27.849721
 30
0.0
  0
VERTEX
  5
9AB
330
9A8
100
AcDbEntity
  8
レイヤー_1
 62
     7
100
AcDbVertex
100
AcDb2dVertex
 10
-1.024226999999998
 20
-28.646916
 30
0.0
  0
VERTEX
  5
9AC
330
9A8
100
AcDbEntity
  8
レイヤー_1
 62
     7
100
AcDbVertex
100
AcDb2dVertex
 10
-1.024226999999998
 20
-22.794044
 30
0.0
  0
SEQEND
  5
9AD
330
9A8
100
AcDbEntity
  8
レイヤー_1
 62
     7
  0
ENDBLK
  5
9AE
330
9A0
100
AcDbEntity
  8
レイヤー_1
100
AcDbBlockEnd
  0
BLOCK
  5
9B0
330
9AF
100
AcDbEntity
  8
レイヤー_1
 62
     7
100
AcDbBlockBegin
  2
AI9-BLK14
 70
     0
 10
0.0
 20
0.0
 30
0.0
  3
AI9-BLK14
  1

  0
POLYLINE
  5
9B1
330
9AF
100
AcDbEntity
  8
レイヤー_1
 62
     7
100
AcDb2dPolyline
 66
     1
 10
0.0
 20
0.0
 30
0.0
 70
     1
  0
VERTEX
  5
9B2
330
9B1
100
AcDbEntity
  8
レイヤー_1
 62
     7
100
AcDbVertex
100
AcDb2dVertex
 10
29.237836
 20
-0.9069209999999998
 30
0.0
  0
VERTEX
  5
9B3
330
9B1
100
AcDbEntity
  8
レイヤー_1
 62
     7
100
AcDbVertex
100
AcDb2dVertex
 10
24.968674
 20
-0.9069209999999998
 30
0.0
  0
VERTEX
  5
9B4
330
9B1
100
AcDbEntity
  8
レイヤー_1
 62
     7
100
AcDbVertex
100
AcDb2dVertex
 10
24.168034
 20
1.038179999999997
 30
0.0
  0
VERTEX
  5
9B5
330
9B1
100
AcDbEntity
  8
レイヤー_1
 62
     7
100
AcDbVertex
100
AcDb2dVertex
 10
30.055702
 20
1.038179999999997
 30
0.0
  0
SEQEND
  5
9B6
330
9B1
100
AcDbEntity
  8
レイヤー_1
 62
     7
  0
POLYLINE
  5
9B7
330
9AF
100
AcDbEntity
  8
レイヤー_1
 62
     7
100
AcDb2dPolyline
 66
     1
 10
0.0
 20
0.0
 30
0.0
 70
     1
  0
VERTEX
  5
9B8
330
9B7
100
AcDbEntity
  8
レイヤー_1
 62
     7
100
AcDbVertex
100
AcDb2dVertex
 10
-24.988311
 20
-1.038179999999997
 30
0.0
  0
VERTEX
  5
9B9
330
9B7
100
AcDbEntity
  8
レイヤー_1
 62
     7
100
AcDbVertex
100
AcDb2dVertex
 10
-29.254717
 20
-1.038179999999997
 30
0.0
  0
VERTEX
  5
9BA
330
9B7
100
AcDbEntity
  8
レイヤー_1
 62
     7
100
AcDbVertex
100
AcDb2dVertex
 10
-30.057769
 20
0.9082989999999997
 30
0.0
  0
VERTEX
  5
9BB
330
9B7
100
AcDbEntity
  8
レイヤー_1
 62
     7
100
AcDbVertex
100
AcDb2dVertex
 10
-24.169756
 20
0.9082989999999997
 30
0.0
  0
SEQEND
  5
9BC
330
9B7
100
AcDbEntity
  8
レイヤー_1
 62
     7
  0
ENDBLK
  5
9BD
330
9AF
100
AcDbEntity
  8
レイヤー_1
100
AcDbBlockEnd
  0
BLOCK
  5
F67
330
F66
100
AcDbEntity
  8
0
100
AcDbBlockBegin
  2
*D15
 70
     1
 10
0.0
 20
0.0
 30
0.0
  3
*D15
  1

  0
LINE
  5
10D5
330
F66
100
AcDbEntity
  8
AM_5
100
AcDbLine
 10
111.346052722321
 20
87.80717537732959
 30
0.0
 11
111.346052722321
 21
70.65295348652013
 31
0.0
  0
LINE
  5
10D6
330
F66
100
AcDbEntity
  8
AM_5
100
AcDbLine
 10
25.93426626124392
 20
87.80717537732959
 30
0.0
 11
25.93426626124392
 21
70.65295348652013
 31
0.0
  0
LINE
  5
10D7
330
F66
100
AcDbEntity
  8
AM_5
100
AcDbLine
 10
108.846052722321
 20
71.65295348652013
 30
0.0
 11
28.43426626124392
 21
71.65295348652013
 31
0.0
  0
SOLID
  5
10D8
330
F66
100
AcDbEntity
  8
AM_5
100
AcDbTrace
 10
108.846052722321
 20
72.0696201531868
 30
0.0
 11
108.846052722321
 21
71.23628681985343
 31
0.0
 12
111.346052722321
 22
71.65295348652013
 32
0.0
 13
111.346052722321
 23
71.65295348652013
 33
0.0
  0
SOLID
  5
10D9
330
F66
100
AcDbEntity
  8
AM_5
100
AcDbTrace
 10
28.43426626124392
 20
72.0696201531868
 30
0.0
 11
28.43426626124392
 21
71.23628681985343
 31
0.0
 12
25.93426626124392
 22
71.65295348652013
 32
0.0
 13
25.93426626124392
 23
71.65295348652013
 33
0.0
  0
MTEXT
  5
10DA
330
F66
100
AcDbEntity
  8
AM_5
 62
     2
100
AcDbMText
 10
68.64015949178247
 20
74.15295348652013
 30
0.0
 40
3.0
 41
0.0
 71
     5
 72
     1
  1
167
 73
     1
 44
1.0
1001
ACAD
1000
MTEXTBEGIN
1070
    73
1070
     1
1070
    44
1040
1.0
1070
    74
1070
     0
1000
MTEXTEND
  0
POINT
  5
10DB
330
F66
100
AcDbEntity
  8
Defpoints
 62
     0
100
AcDbPoint
 10
111.346052722321
 20
88.80717537732961
 30
0.0
  0
POINT
  5
10DC
330
F66
100
AcDbEntity
  8
Defpoints
 62
     0
100
AcDbPoint
 10
25.93426626124392
 20
88.80717537732961
 30
0.0
  0
POINT
  5
10DD
330
F66
100
AcDbEntity
  8
Defpoints
 62
     0
100
AcDbPoint
 10
25.93426626124392
 20
71.65295348652013
 30
0.0
  0
ENDBLK
  5
F68
330
F66
100
AcDbEntity
  8
0
100
AcDbBlockEnd
  0
BLOCK
  5
F98
330
F97
100
AcDbEntity
  8
0
100
AcDbBlockBegin
  2
*D16
 70
     1
 10
0.0
 20
0.0
 30
0.0
  3
*D16
  1

  0
LINE
  5
FC7
330
F97
100
AcDbEntity
  8
AM_5
100
AcDbLine
 10
110.3934619133551
 20
110.7218571068707
 30
0.0
 11
141.9443382087058
 21
110.7218571068707
 31
0.0
  0
LINE
  5
FC8
330
F97
100
AcDbEntity
  8
AM_5
100
AcDbLine
 10
110.3934619133551
 20
84.3336178590715
 30
0.0
 11
141.9443382087058
 21
84.3336178590715
 31
0.0
  0
LINE
  5
FC9
330
F97
100
AcDbEntity
  8
AM_5
100
AcDbLine
 10
140.9443382087058
 20
108.2218571068707
 30
0.0
 11
140.9443382087058
 21
86.83361785907152
 31
0.0
  0
SOLID
  5
FCA
330
F97
100
AcDbEntity
  8
AM_5
100
AcDbTrace
 10
140.5276715420392
 20
108.2218571068707
 30
0.0
 11
141.3610048753725
 21
108.2218571068707
 31
0.0
 12
140.9443382087058
 22
110.7218571068707
 32
0.0
 13
140.9443382087058
 23
110.7218571068707
 33
0.0
  0
SOLID
  5
FCB
330
F97
100
AcDbEntity
  8
AM_5
100
AcDbTrace
 10
140.5276715420392
 20
86.83361785907152
 30
0.0
 11
141.3610048753725
 21
86.83361785907152
 31
0.0
 12
140.9443382087058
 22
84.3336178590715
 32
0.0
 13
140.9443382087058
 23
84.3336178590715
 33
0.0
  0
MTEXT
  5
FCC
330
F97
100
AcDbEntity
  8
AM_5
 62
     2
100
AcDbMText
 10
138.4443382087058
 20
97.52773748297116
 30
0.0
 40
3.0
 41
0.0
 71
     5
 72
     1
  1
50
 11
0.0000000000000001
 21
1.0
 31
0.0
 73
     1
 44
1.0
1001
ACAD
1000
MTEXTBEGIN
1070
    73
1070
     1
1070
    44
1040
1.0
1070
    74
1070
     0
1000
MTEXTEND
  0
POINT
  5
FCD
330
F97
100
AcDbEntity
  8
Defpoints
 62
     0
100
AcDbPoint
 10
109.3934619133551
 20
110.7218571068707
 30
0.0
  0
POINT
  5
FCE
330
F97
100
AcDbEntity
  8
Defpoints
 62
     0
100
AcDbPoint
 10
109.3934619133551
 20
84.3336178590715
 30
0.0
  0
POINT
  5
FCF
330
F97
100
AcDbEntity
  8
Defpoints
 62
     0
100
AcDbPoint
 10
140.9443382087058
 20
84.3336178590715
 30
0.0
  0
ENDBLK
  5
F99
330
F97
100
AcDbEntity
  8
0
100
AcDbBlockEnd
  0
BLOCK
  5
FD2
330
FD1
100
AcDbEntity
  8
0
100
AcDbBlockBegin
  2
*D17
 70
     1
 10
0.0
 20
0.0
 30
0.0
  3
*D17
  1

  0
LINE
  5
1001
330
FD1
100
AcDbEntity
  8
AM_5
100
AcDbLine
 10
109.0733414089827
 20
86.70855956108288
 30
0.0
 11
141.9443382087058
 21
86.70855956108288
 31
0.0
  0
LINE
  5
1002
330
FD1
100
AcDbEntity
  8
AM_5
100
AcDbLine
 10
110.3934619133551
 20
110.7218571068707
 30
0.0
 11
141.9443382087058
 21
110.7218571068707
 31
0.0
  0
LINE
  5
1003
330
FD1
100
AcDbEntity
  8
AM_5
100
AcDbLine
 10
140.9443382087058
 20
89.20855956108288
 30
0.0
 11
140.9443382087058
 21
108.2218571068707
 31
0.0
  0
SOLID
  5
1004
330
FD1
100
AcDbEntity
  8
AM_5
100
AcDbTrace
 10
140.5276715420392
 20
89.20855956108288
 30
0.0
 11
141.3610048753725
 21
89.20855956108288
 31
0.0
 12
140.9443382087058
 22
86.70855956108288
 32
0.0
 13
140.9443382087058
 23
86.70855956108288
 33
0.0
  0
SOLID
  5
1005
330
FD1
100
AcDbEntity
  8
AM_5
100
AcDbTrace
 10
140.5276715420392
 20
108.2218571068707
 30
0.0
 11
141.3610048753725
 21
108.2218571068707
 31
0.0
 12
140.9443382087058
 22
110.7218571068707
 32
0.0
 13
140.9443382087058
 23
110.7218571068707
 33
0.0
  0
MTEXT
  5
1006
330
FD1
100
AcDbEntity
  8
AM_5
 62
     2
100
AcDbMText
 10
138.4443382087058
 20
98.71520833397685
 30
0.0
 40
3.0
 41
0.0
 71
     5
 72
     1
  1
24.01
 11
0.0000000000000001
 21
1.0
 31
0.0
 73
     1
 44
1.0
1001
ACAD
1000
MTEXTBEGIN
1070
    73
1070
     1
1070
    44
1040
1.0
1070
    74
1070
     0
1000
MTEXTEND
  0
POINT
  5
1007
330
FD1
100
AcDbEntity
  8
Defpoints
 62
     0
100
AcDbPoint
 10
108.0733414089827
 20
86.70855956108288
 30
0.0
  0
POINT
  5
1008
330
FD1
100
AcDbEntity
  8
Defpoints
 62
     0
100
AcDbPoint
 10
109.3934619133551
 20
110.7218571068707
 30
0.0
  0
POINT
  5
1009
330
FD1
100
AcDbEntity
  8
Defpoints
 62
     0
100
AcDbPoint
 10
140.9443382087058
 20
110.7218571068707
 30
0.0
  0
ENDBLK
  5
FD3
330
FD1
100
AcDbEntity
  8
0
100
AcDbBlockEnd
  0
BLOCK
  5
FE8
330
FE7
100
AcDbEntity
  8
0
100
AcDbBlockBegin
  2
*D18
 70
     1
 10
0.0
 20
0.0
 30
0.0
  3
*D18
  1

  0
LINE
  5
100A
330
FE7
100
AcDbEntity
  8
AM_5
100
AcDbLine
 10
110.3934619133551
 20
84.3336178590715
 30
0.0
 11
141.9443382087058
 21
84.3336178590715
 31
0.0
  0
LINE
  5
100B
330
FE7
100
AcDbEntity
  8
AM_5
100
AcDbLine
 10
109.0733414089827
 20
86.70855956108288
 30
0.0
 11
141.9443382087058
 21
86.70855956108288
 31
0.0
  0
LINE
  5
100C
330
FE7
100
AcDbEntity
  8
AM_5
100
AcDbLine
 10
140.9443382087058
 20
81.8336178590715
 30
0.0
 11
140.9443382087058
 21
79.33361785907151
 31
0.0
  0
LINE
  5
100D
330
FE7
100
AcDbEntity
  8
AM_5
100
AcDbLine
 10
140.9443382087058
 20
89.20855956108288
 30
0.0
 11
140.9443382087058
 21
91.70855956108288
 31
0.0
  0
LINE
  5
100E
330
FE7
100
AcDbEntity
  8
AM_5
100
AcDbLine
 10
140.9443382087058
 20
84.3336178590715
 30
0.0
 11
140.9443382087058
 21
86.70855956108288
 31
0.0
  0
SOLID
  5
100F
330
FE7
100
AcDbEntity
  8
AM_5
100
AcDbTrace
 10
140.5276715420392
 20
81.8336178590715
 30
0.0
 11
141.3610048753725
 21
81.8336178590715
 31
0.0
 12
140.9443382087058
 22
84.3336178590715
 32
0.0
 13
140.9443382087058
 23
84.3336178590715
 33
0.0
  0
SOLID
  5
1010
330
FE7
100
AcDbEntity
  8
AM_5
100
AcDbTrace
 10
140.5276715420392
 20
89.20855956108288
 30
0.0
 11
141.3610048753725
 21
89.20855956108288
 31
0.0
 12
140.9443382087058
 22
86.70855956108288
 32
0.0
 13
140.9443382087058
 23
86.70855956108288
 33
0.0
  0
MTEXT
  5
1011
330
FE7
100
AcDbEntity
  8
AM_5
 62
     2
100
AcDbMText
 10
138.4443382087058
 20
85.52108871007723
 30
0.0
 40
3.0
 41
0.0
 71
     5
 72
     1
  1
2.37
 11
0.0000000000000001
 21
1.0
 31
0.0
 73
     1
 44
1.0
1001
ACAD
1000
MTEXTBEGIN
1070
    73
1070
     1
1070
    44
1040
1.0
1070
    74
1070
     0
1000
MTEXTEND
  0
POINT
  5
1012
330
FE7
100
AcDbEntity
  8
Defpoints
 62
     0
100
AcDbPoint
 10
109.3934619133551
 20
84.3336178590715
 30
0.0
  0
POINT
  5
1013
330
FE7
100
AcDbEntity
  8
Defpoints
 62
     0
100
AcDbPoint
 10
108.0733414089827
 20
86.70855956108288
 30
0.0
  0
POINT
  5
1014
330
FE7
100
AcDbEntity
  8
Defpoints
 62
     0
100
AcDbPoint
 10
140.9443382087058
 20
86.70855956108288
 30
0.0
  0
ENDBLK
  5
FE9
330
FE7
100
AcDbEntity
  8
0
100
AcDbBlockEnd
  0
BLOCK
  5
1017
330
1016
100
AcDbEntity
  8
0
100
AcDbBlockBegin
  2
*D19
 70
     1
 10
0.0
 20
0.0
 30
0.0
  3
*D19
  1

  0
LINE
  5
103D
330
1016
100
AcDbEntity
  8
AM_5
100
AcDbLine
 10
107.8852333973006
 20
84.3336178590715
 30
0.0
 11
145.5086633493847
 21
84.3336178590715
 31
0.0
  0
LINE
  5
103E
330
1016
100
AcDbEntity
  8
AM_5
100
AcDbLine
 10
107.8852333973006
 20
110.5899164904724
 30
0.0
 11
145.5086633493847
 21
110.5899164904724
 31
0.0
  0
LINE
  5
103F
330
1016
100
AcDbEntity
  8
AM_5
100
AcDbLine
 10
144.5086633493847
 20
86.83361785907152
 30
0.0
 11
144.5086633493847
 21
108.0899164904724
 31
0.0
  0
SOLID
  5
1040
330
1016
100
AcDbEntity
  8
AM_5
100
AcDbTrace
 10
144.0919966827181
 20
86.83361785907152
 30
0.0
 11
144.9253300160514
 21
86.83361785907152
 31
0.0
 12
144.5086633493847
 22
84.3336178590715
 32
0.0
 13
144.5086633493847
 23
84.3336178590715
 33
0.0
  0
SOLID
  5
1041
330
1016
100
AcDbEntity
  8
AM_5
100
AcDbTrace
 10
144.0919966827181
 20
108.0899164904724
 30
0.0
 11
144.9253300160514
 21
108.0899164904724
 31
0.0
 12
144.5086633493847
 22
110.5899164904724
 32
0.0
 13
144.5086633493847
 23
110.5899164904724
 33
0.0
  0
MTEXT
  5
1042
330
1016
100
AcDbEntity
  8
AM_5
 62
     2
100
AcDbMText
 10
142.0086633493847
 20
97.46176717477199
 30
0.0
 40
3.0
 41
0.0
 71
     5
 72
     1
  1
50
 11
0.0000000000000001
 21
1.0
 31
0.0
 73
     1
 44
1.0
1001
ACAD
1000
MTEXTBEGIN
1070
    73
1070
     1
1070
    44
1040
1.0
1070
    74
1070
     0
1000
MTEXTEND
  0
POINT
  5
1043
330
1016
100
AcDbEntity
  8
Defpoints
 62
     0
100
AcDbPoint
 10
106.8852333973007
 20
84.3336178590715
 30
0.0
  0
POINT
  5
1044
330
1016
100
AcDbEntity
  8
Defpoints
 62
     0
100
AcDbPoint
 10
106.8852333973007
 20
110.5899164904724
 30
0.0
  0
POINT
  5
1045
330
1016
100
AcDbEntity
  8
Defpoints
 62
     0
100
AcDbPoint
 10
144.5086633493847
 20
110.5899164904724
 30
0.0
  0
ENDBLK
  5
1018
330
1016
100
AcDbEntity
  8
0
100
AcDbBlockEnd
  0
BLOCK
  5
1048
330
1047
100
AcDbEntity
  8
0
100
AcDbBlockBegin
  2
*D20
 70
     1
 10
0.0
 20
0.0
 30
0.0
  3
*D20
  1

  0
LINE
  5
108C
330
1047
100
AcDbEntity
  8
AM_5
100
AcDbLine
 10
107.8852333973006
 20
84.3336178590715
 30
0.0
 11
122.5385692268226
 21
84.3336178590715
 31
0.0
  0
LINE
  5
108D
330
1047
100
AcDbEntity
  8
AM_5
100
AcDbLine
 10
108.941330021925
 20
86.70855956108288
 30
0.0
 11
122.5385692268226
 21
86.70855956108288
 31
0.0
  0
LINE
  5
108E
330
1047
100
AcDbEntity
  8
AM_5
100
AcDbLine
 10
121.5385692268226
 20
81.8336178590715
 30
0.0
 11
121.5385692268226
 21
79.33361785907151
 31
0.0
  0
LINE
  5
108F
330
1047
100
AcDbEntity
  8
AM_5
100
AcDbLine
 10
121.5385692268226
 20
89.20855956108288
 30
0.0
 11
121.5385692268226
 21
97.25141670394005
 31
0.0
  0
LINE
  5
1090
330
1047
100
AcDbEntity
  8
AM_5
100
AcDbLine
 10
121.5385692268226
 20
84.3336178590715
 30
0.0
 11
121.5385692268226
 21
86.70855956108288
 31
0.0
  0
SOLID
  5
1091
330
1047
100
AcDbEntity
  8
AM_5
100
AcDbTrace
 10
121.1219025601559
 20
81.8336178590715
 30
0.0
 11
121.9552358934892
 21
81.8336178590715
 31
0.0
 12
121.5385692268226
 22
84.3336178590715
 32
0.0
 13
121.5385692268226
 23
84.3336178590715
 33
0.0
  0
SOLID
  5
1092
330
1047
100
AcDbEntity
  8
AM_5
100
AcDbTrace
 10
121.1219025601559
 20
89.20855956108288
 30
0.0
 11
121.9552358934892
 21
89.20855956108288
 31
0.0
 12
121.5385692268226
 22
86.70855956108288
 32
0.0
 13
121.5385692268226
 23
86.70855956108288
 33
0.0
  0
MTEXT
  5
1093
330
1047
100
AcDbEntity
  8
AM_5
 62
     2
100
AcDbMText
 10
119.0385692268225
 20
94.47998813251148
 30
0.0
 40
3.0
 41
0.0
 71
     5
 72
     1
  1
10
 11
0.0000000000000001
 21
1.0
 31
0.0
 73
     1
 44
1.0
1001
ACAD
1000
MTEXTBEGIN
1070
    73
1070
     1
1070
    44
1040
1.0
1070
    74
1070
     0
1000
MTEXTEND
  0
POINT
  5
1094
330
1047
100
AcDbEntity
  8
Defpoints
 62
     0
100
AcDbPoint
 10
106.8852333973007
 20
84.3336178590715
 30
0.0
  0
POINT
  5
1095
330
1047
100
AcDbEntity
  8
Defpoints
 62
     0
100
AcDbPoint
 10
107.941330021925
 20
86.70855956108288
 30
0.0
  0
POINT
  5
1096
330
1047
100
AcDbEntity
  8
Defpoints
 62
     0
100
AcDbPoint
 10
121.5385692268226
 20
86.70855956108288
 30
0.0
  0
ENDBLK
  5
1049
330
1047
100
AcDbEntity
  8
0
100
AcDbBlockEnd
  0
BLOCK
  5
1099
330
1098
100
AcDbEntity
  8
0
100
AcDbBlockBegin
  2
*D21
 70
     1
 10
0.0
 20
0.0
 30
0.0
  3
*D21
  1

  0
LINE
  5
12EE
330
1098
100
AcDbEntity
  8
AM_5
100
AcDbLine
 10
172.1312711591456
 20
195.3924584172916
 30
0.0
 11
187.0715506253123
 21
195.3924584172916
 31
0.0
  0
LINE
  5
12EF
330
1098
100
AcDbEntity
  8
AM_5
100
AcDbLine
 10
172.1312711591456
 20
128.4613630690658
 30
0.0
 11
187.0715506253123
 21
128.4613630690658
 31
0.0
  0
LINE
  5
12F0
330
1098
100
AcDbEntity
  8
AM_5
100
AcDbLine
 10
186.0715506253123
 20
192.8924584172916
 30
0.0
 11
186.0715506253123
 21
130.9613630690658
 31
0.0
  0
SOLID
  5
12F1
330
1098
100
AcDbEntity
  8
AM_5
100
AcDbTrace
 10
185.6548839586457
 20
192.8924584172916
 30
0.0
 11
186.488217291979
 21
192.8924584172916
 31
0.0
 12
186.0715506253123
 22
195.3924584172916
 32
0.0
 13
186.0715506253123
 23
195.3924584172916
 33
0.0
  0
SOLID
  5
12F2
330
1098
100
AcDbEntity
  8
AM_5
100
AcDbTrace
 10
185.6548839586457
 20
130.9613630690658
 30
0.0
 11
186.488217291979
 21
130.9613630690658
 31
0.0
 12
186.0715506253123
 22
128.4613630690658
 32
0.0
 13
186.0715506253123
 23
128.4613630690658
 33
0.0
  0
MTEXT
  5
12F3
330
1098
100
AcDbEntity
  8
AM_5
 62
     2
100
AcDbMText
 10
183.5715506253123
 20
160.5610469048799
 30
0.0
 40
3.0
 41
0.0
 71
     5
 72
     1
  1
157
 11
0.0000000000000001
 21
1.0
 31
0.0
 73
     1
 44
1.0
1001
ACAD
1000
MTEXTBEGIN
1070
    73
1070
     1
1070
    44
1040
1.0
1070
    74
1070
     0
1000
MTEXTEND
  0
POINT
  5
12F4
330
1098
100
AcDbEntity
  8
Defpoints
 62
     0
100
AcDbPoint
 10
171.1312711591456
 20
195.3924584172916
 30
0.0
  0
POINT
  5
12F5
330
1098
100
AcDbEntity
  8
Defpoints
 62
     0
100
AcDbPoint
 10
171.1312711591456
 20
128.4613630690658
 30
0.0
  0
POINT
  5
12F6
330
1098
100
AcDbEntity
  8
Defpoints
 62
     0
100
AcDbPoint
 10
186.0715506253123
 20
128.4613630690658
 30
0.0
  0
ENDBLK
  5
109A
330
1098
100
AcDbEntity
  8
0
100
AcDbBlockEnd
  0
ENDSEC
  0
SECTION
  2
ENTITIES
  0
MTEXT
  5
143
330
75
100
AcDbEntity
  8
レイヤー_1_0
 62
     7
100
AcDbMText
 10
70.25728882530639
 20
16.70127221824583
 30
0.0
 40
4.390912999999998
 41
0.0
 71
     1
 72
     2
  1
\fMS PGothic|b0|i0|c128;株式会社 ダイワインダストリ
  7
KANJISTD
 73
     1
 44
1.0
1001
ACAD
1000
MTEXTBEGIN
1070
    73
1070
     1
1070
    44
1040
1.0
1070
    74
1070
     0
1000
MTEXTEND
  0
LWPOLYLINE
  5
144
330
75
100
AcDbEntity
  8
枠
  6
Continuous
100
AcDbPolyline
 90
        4
 70
     1
 43
0.0
 10
0.0000005962378964
 20
0.0000004583823738
 10
210.0000005962379
 20
0.0000004583823738
 10
210.0000005962379
 20
297.0000004583824
 10
0.0000005962379248
 20
297.0000004583824
1001
GENIUS_GENREC_14
1002
{
1000
PYDIR
1011
0.0000005962379146
1021
297.0000004583824
1031
0.0
1002
}
1002
{
1000
PXDIR
1011
210.0000005962379
1021
0.0000004583823738
1031
0.0
1002
}
1002
{
1000
PORI
1011
0.0000005962378964
1021
0.0000004583823738
1031
0.0
1002
}
1002
{
1000
PINS
1011
0.0000005962378964
1021
0.0000004583823738
1031
0.0
1002
}
1002
{
1000
PINS2
1011
210.0000005962379
1021
297.0000004583824
1031
0.0
1002
}
1002
{
1000
C
1070
     1
1002
}
1001
GENIUS_GENOBJ-N-REC_13
1002
{
1000
OWNER
1000
GEN
1002
}
1001
GENIUS_GENODEF_13
1002
{
1000
HIER
1070
     0
1002
}
1002
{
1000
MANEDIT
1070
     0
1002
}
1002
{
1000
NOSEL
1070
     0
1002
}
1002
{
1000
BEHIND
1070
     0
1002
}
1002
{
1000
OTHER
1070
     0
1002
}
1002
{
1000
REACTOR
1002
}
  0
LWPOLYLINE
  5
145
330
75
100
AcDbEntity
  8
外形線
  6
Continuous
100
AcDbPolyline
 90
        4
 70
     1
 43
0.0
 10
11.60259079470369
 20
280.2064268369188
 10
196.3427498015165
 20
280.2064268369188
 10
196.3427498015165
 20
24.16351391153563
 10
11.60259079470367
 20
24.16351391153565
1001
GENIUS_GENREC_14
1002
{
1000
PYDIR
1011
11.60259079470368
1021
24.16351391153563
1031
0.0
1002
}
1002
{
1000
PXDIR
1011
196.3427498015165
1021
280.2064268369188
1031
0.0
1002
}
1002
{
1000
PORI
1011
11.60259079470369
1021
280.2064268369188
1031
0.0
1002
}
1002
{
1000
PINS
1011
11.60259079470369
1021
280.2064268369188
1031
0.0
1002
}
1002
{
1000
PINS2
1011
196.3427498015165
1021
24.16351391153563
1031
0.0
1002
}
1002
{
1000
C
1070
     1
1002
}
1001
GENIUS_GENODEF_13
1002
{
1000
HIER
1070
     0
1002
}
1002
{
1000
MANEDIT
1070
     0
1002
}
1002
{
1000
NOSEL
1070
     0
1002
}
1002
{
1000
BEHIND
1070
     0
1002
}
1002
{
1000
OTHER
1070
     0
1002
}
1002
{
1000
REACTOR
1002
}
1001
GENIUS_GENOBJ-N-REC_13
1002
{
1000
OWNER
1000
GEN
1002
}
  0
MTEXT
  5
146
330
75
100
AcDbEntity
  8
外形線
  6
Continuous
100
AcDbMText
 10
13.91068452073341
 20
31.00153342264298
 30
0.0
 40
4.0
 41
92.45465203837387
 71
     1
 72
     5
  1
{\fMS PGothic|b0|i0|c128|p50;\W1;品名：\H0.875x;ドライブユニット(重畳配線用電源)}
 73
     1
 44
1.0
1001
ACAD
1000
MTEXTBEGIN
1070
    73
1070
     1
1070
    44
1040
1.0
1070
    74
1070
     0
1000
MTEXTEND
1000
ACAD_MTEXT_DEFINED_HEIGHT_BEGIN
1070
    46
1040
10.33309109091124
1000
ACAD_MTEXT_DEFINED_HEIGHT_END
  0
MTEXT
  5
147
330
75
100
AcDbEntity
  8
外形線
  6
Continuous
100
AcDbMText
 10
101.7136921777195
 20
30.65536822327544
 30
0.0
 40
4.0
 41
62.79417921438346
 71
     1
 72
     5
  1
{\fMS PGothic|b0|i0|c128|p50;\W0.9;品番：CCU-201A}
 73
     1
 44
1.0
1001
ACAD
1000
MTEXTBEGIN
1070
    73
1070
     1
1070
    44
1040
1.0
1070
    74
1070
     0
1000
MTEXTEND
1000
ACAD_MTEXT_DEFINED_HEIGHT_BEGIN
1070
    46
1040
5.173549736409313
1000
ACAD_MTEXT_DEFINED_HEIGHT_END
  0
MTEXT
  5
148
330
75
100
AcDbEntity
  8
外形線
  6
Continuous
100
AcDbMText
 10
168.3287606251567
 20
29.84595850511801
 30
0.0
 40
3.5
 41
25.04345815552802
 71
     1
 72
     5
  1
{\fMS PGothic|b0|i0|c128|p50;\W1;No.：1/1}
 73
     1
 44
1.0
1001
ACAD
1000
MTEXTBEGIN
1070
    73
1070
     1
1070
    44
1040
1.0
1070
    74
1070
     0
1000
MTEXTEND
1000
ACAD_MTEXT_DEFINED_HEIGHT_BEGIN
1070
    46
1040
4.957403205357532
1000
ACAD_MTEXT_DEFINED_HEIGHT_END
  0
MTEXT
  5
154
330
75
100
AcDbEntity
  8
レイヤー_1_0
 62
     7
100
AcDbMText
 10
18.18553122906851
 20
271.3098666133168
 30
0.0
 40
2.744320999999998
 41
0.0
 71
     1
 72
     2
  1
\fMS PGothic|b0|i0|c128;■ 外形図
  7
KANJISTD
 73
     1
 44
1.0
1001
ACAD
1000
MTEXTBEGIN
1070
    73
1070
     1
1070
    44
1040
1.0
1070
    74
1070
     0
1000
MTEXTEND
  0
LINE
  5
155
330
75
100
AcDbEntity
  8
外形線
  6
Continuous
100
AcDbLine
 10
11.65926085451633
 20
32.1199291769567
 30
0.0
 11
196.3435303386709
 21
32.1199291769567
 31
0.0
  0
MTEXT
  5
156
330
75
100
AcDbEntity
  8
枠
  6
Continuous
100
AcDbMText
 10
178.9060871603465
 20
42.63997074936265
 30
0.0
 40
3.0
 41
18.0892528424788
 71
     1
 72
     5
  1
(mm)
 73
     1
 44
1.0
1001
ACAD
1000
MTEXTBEGIN
1070
    73
1070
     1
1070
    44
1040
1.0
1070
    74
1070
     0
1000
MTEXTEND
  0
LINE
  5
1B5
330
75
100
AcDbEntity
  8
外形線
  6
Continuous
100
AcDbLine
 10
100.1244175688603
 20
32.1042682801114
 30
0.0
 11
100.1244175688603
 21
24.16625294823945
 31
0.0
  0
LINE
  5
1B6
330
75
100
AcDbEntity
  8
外形線
  6
Continuous
100
AcDbLine
 10
166.2523584809159
 20
32.1178433227995
 30
0.0
 11
166.2523584809159
 21
24.17761320759633
 31
0.0
  0
HATCH
  5
CA0
330
75
100
AcDbEntity
  8
レイヤー_1
 62
     7
100
AcDbHatch
 10
0.0
 20
0.0
 30
0.0
210
0.0
220
0.0
230
1.0
  2
SOLID
 70
     1
 71
     0
 91
        1
 92
        3
 72
     0
 73
     1
 93
        7
 10
44.33260413750724
 20
240.389723667909
 10
43.92706472235967
 20
240.389723667909
 10
43.92706472235967
 20
240.198486417475
 10
43.43150496216003
 20
240.6264189532824
 10
43.92706472235967
 20
241.0543514890896
 10
43.92706472235967
 20
240.8626663762424
 10
44.33260413750724
 20
240.8626663762424
 97
        0
 75
     0
 76
     1
 98
        1
 10
-44.42476890936774
 20
-83.7399491836534
  0
HATCH
  5
CA1
330
75
100
AcDbEntity
  8
レイヤー_1
 62
     7
100
AcDbHatch
 10
0.0
 20
0.0
 30
0.0
210
0.0
220
0.0
230
1.0
  2
SOLID
 70
     1
 71
     0
 91
        1
 92
        3
 72
     0
 73
     1
 93
        7
 10
44.33260413750724
 20
230.1677119491591
 10
43.92706472235967
 20
230.1677119491591
 10
43.92706472235967
 20
229.9762507675184
 10
43.43150496216003
 20
230.4041833033258
 10
43.92706472235967
 20
230.8323397703397
 10
43.92706472235967
 20
230.6404307262858
 10
44.33260413750724
 20
230.6404307262858
 97
        0
 75
     0
 76
     1
 98
        1
 10
-44.42476890936774
 20
-83.7399491836534
  0
MTEXT
  5
CA2
330
75
100
AcDbEntity
  8
レイヤー_1
 62
     7
100
AcDbMText
 10
51.80854749063225
 20
241.0334600169538
 30
0.0
 40
0.9387195999999999
 41
0.0
 71
     1
 72
     2
  1
\fArial|b1|i0;VIDEO OUT
  7
STD
 11
-1.0
 21
0.0
 31
0.0
 73
     1
 44
1.0
1001
ACAD
1000
MTEXTBEGIN
1070
    73
1070
     1
1070
    44
1040
1.0
1070
    74
1070
     0
1000
MTEXTEND
  0
MTEXT
  5
CA3
330
75
100
AcDbEntity
  8
レイヤー_1
 62
     7
100
AcDbMText
 10
51.10719489063225
 20
230.8410509357945
 30
0.0
 40
0.9387195999999999
 41
0.0
 71
     1
 72
     2
  1
\fArial|b1|i0;CAMERA
  7
STD
 11
-1.0
 21
0.0
 31
0.0
 73
     1
 44
1.0
1001
ACAD
1000
MTEXTBEGIN
1070
    73
1070
     1
1070
    44
1040
1.0
1070
    74
1070
     0
1000
MTEXTEND
  0
SPLINE
  5
CA4
330
75
100
AcDbEntity
  8
レイヤー_1
 62
     7
100
AcDbSpline
210
0.0
220
0.0
230
1.0
 70
    11
 71
     3
 72
    26
 73
    22
 74
     0
 42
0.0000000001
 43
0.0000000001
 40
0.0
 40
0.0
 40
0.0
 40
0.0
 40
1.0
 40
1.0
 40
1.0
 40
2.0
 40
2.0
 40
2.0
 40
3.0
 40
3.0
 40
3.0
 40
4.0
 40
4.0
 40
4.0
 40
5.0
 40
5.0
 40
5.0
 40
6.0
 40
6.0
 40
6.0
 40
7.0
 40
7.0
 40
7.0
 40
7.0
 10
52.66060571085794
 20
235.3306698484646
 30
0.0
 10
52.66060571085794
 20
235.3306698484646
 30
0.0
 10
28.79782454223816
 20
235.3306698484646
 30
0.0
 10
28.79782454223816
 20
235.3306698484646
 30
0.0
 10
28.79782454223816
 20
235.3306698484646
 30
0.0
 10
28.79782454223816
 20
244.4540750676487
 30
0.0
 10
28.79782454223816
 20
244.4540750676487
 30
0.0
 10
28.79782454223816
 20
244.9744911917806
 30
0.0
 10
29.25486813490309
 20
245.3961536538032
 30
0.0
 10
29.8193987067347
 20
245.3961536538032
 30
0.0
 10
29.8193987067347
 20
245.3961536538032
 30
0.0
 10
51.39606618720343
 20
245.3961536538032
 30
0.0
 10
51.39606618720343
 20
245.3961536538032
 30
0.0
 10
51.39606618720343
 20
245.3961536538032
 30
0.0
 10
51.63880761515483
 20
245.3961536538032
 30
0.0
 10
51.63880761515483
 20
245.3961536538032
 30
0.0
 10
52.20311425577984
 20
245.3961536538032
 30
0.0
 10
52.66060571085794
 20
244.9744911917806
 30
0.0
 10
52.66060571085794
 20
244.4540750676487
 30
0.0
 10
52.66060571085794
 20
244.4540750676487
 30
0.0
 10
52.66060571085794
 20
235.3306698484646
 30
0.0
 10
52.66060571085794
 20
235.3306698484646
 30
0.0
  0
SPLINE
  5
CA5
330
75
100
AcDbEntity
  8
レイヤー_1
 62
     7
100
AcDbSpline
210
0.0
220
0.0
230
1.0
 70
    11
 71
     3
 72
    26
 73
    22
 74
     0
 42
0.0000000001
 43
0.0000000001
 40
0.0
 40
0.0
 40
0.0
 40
0.0
 40
1.0
 40
1.0
 40
1.0
 40
2.0
 40
2.0
 40
2.0
 40
3.0
 40
3.0
 40
3.0
 40
4.0
 40
4.0
 40
4.0
 40
5.0
 40
5.0
 40
5.0
 40
6.0
 40
6.0
 40
6.0
 40
7.0
 40
7.0
 40
7.0
 40
7.0
 10
52.74256453247249
 20
235.5257139294108
 30
0.0
 10
52.74256453247249
 20
235.5257139294108
 30
0.0
 10
28.70735633477288
 20
235.5257139294108
 30
0.0
 10
28.70735633477288
 20
235.5257139294108
 30
0.0
 10
28.70735633477288
 20
235.5257139294108
 30
0.0
 10
28.70735633477288
 20
226.4347787351834
 30
0.0
 10
28.70735633477288
 20
226.4347787351834
 30
0.0
 10
28.70735633477288
 20
225.9145865422581
 30
0.0
 10
29.164847789851
 20
225.4927001490289
 30
0.0
 10
29.729154430476
 20
225.4927001490289
 30
0.0
 10
29.729154430476
 20
225.4927001490289
 30
0.0
 10
51.39606618720343
 20
225.4927001490289
 30
0.0
 10
51.39606618720343
 20
225.4927001490289
 30
0.0
 10
51.39606618720343
 20
225.4927001490289
 30
0.0
 10
51.72054250556278
 20
225.4927001490289
 30
0.0
 10
51.72054250556278
 20
225.4927001490289
 30
0.0
 10
52.2850730773944
 20
225.4927001490289
 30
0.0
 10
52.74256453247249
 20
225.9145865422581
 30
0.0
 10
52.74256453247249
 20
226.4347787351834
 30
0.0
 10
52.74256453247249
 20
226.4347787351834
 30
0.0
 10
52.74256453247249
 20
235.5257139294108
 30
0.0
 10
52.74256453247249
 20
235.5257139294108
 30
0.0
  0
HATCH
  5
CA8
330
75
100
AcDbEntity
  8
レイヤー_1
 62
     7
100
AcDbHatch
 10
0.0
 20
0.0
 30
0.0
210
0.0
220
0.0
230
1.0
  2
SOLID
 70
     1
 71
     0
 91
        1
 92
        1
 93
        1
 72
     4
 94
        3
 73
     0
 74
     0
 95
       17
 96
       13
 40
0.0
 40
0.0
 40
0.0
 40
0.0
 40
1.0
 40
1.0
 40
1.0
 40
2.0
 40
2.0
 40
2.0
 40
3.0
 40
3.0
 40
3.0
 40
4.0
 40
4.0
 40
4.0
 40
4.0
 10
39.00393714531976
 20
244.6632268146104
 10
39.00393714531976
 20
244.8011684378743
 10
39.11500702379195
 20
244.9126861787598
 10
39.25339650946907
 20
244.9126861787598
 10
39.39178599514615
 20
244.9126861787598
 10
39.50240801120516
 20
244.8011684378743
 10
39.50240801120516
 20
244.6632268146104
 10
39.50240801120516
 20
244.5255091225531
 10
39.39178599514615
 20
244.4137674504612
 10
39.25339650946907
 20
244.4137674504612
 10
39.11500702379195
 20
244.4137674504612
 10
39.00393714531976
 20
244.5255091225531
 10
39.00393714531976
 20
244.6632268146104
 97
        0
 75
     0
 76
     1
 98
        1
 10
-44.42476890936774
 20
-83.7399491836534
  0
INSERT
  5
CA9
330
75
100
AcDbEntity
  8
レイヤー_1
 62
     7
100
AcDbBlockReference
  2
AI9-BLK3
 10
33.25327179063226
 20
240.5414368163466
 30
0.0
 41
1.3
 42
1.299999999999995
 43
1.3
  0
INSERT
  5
CAA
330
75
100
AcDbEntity
  8
レイヤー_1
 62
     7
100
AcDbBlockReference
  2
AI9-BLK4
 10
33.27499349063226
 20
231.1003857163466
 30
0.0
 41
1.3
 42
1.299999999999995
 43
1.3
  0
POLYLINE
  5
CAB
330
75
100
AcDbEntity
  8
レイヤー_1
 62
   252
100
AcDb2dPolyline
 66
     1
 10
0.0
 20
0.0
 30
0.0
 70
     1
  0
VERTEX
  5
CAC
330
CAB
100
AcDbEntity
  8
レイヤー_1
 62
   252
100
AcDbVertex
100
AcDb2dVertex
 10
35.55853189063228
 20
197.1541467093891
 30
0.0
  0
VERTEX
  5
CAD
330
CAB
100
AcDbEntity
  8
レイヤー_1
 62
   252
100
AcDbVertex
100
AcDb2dVertex
 10
33.72722189063227
 20
197.1541467093891
 30
0.0
  0
VERTEX
  5
CAE
330
CAB
100
AcDbEntity
  8
レイヤー_1
 62
   252
100
AcDbVertex
100
AcDb2dVertex
 10
33.72722189063227
 20
195.8096633093891
 30
0.0
  0
VERTEX
  5
CAF
330
CAB
100
AcDbEntity
  8
レイヤー_1
 62
   252
100
AcDbVertex
100
AcDb2dVertex
 10
35.55853189063228
 20
195.8096633093891
 30
0.0
  0
VERTEX
  5
CB0
330
CAB
100
AcDbEntity
  8
レイヤー_1
 62
   252
100
AcDbVertex
100
AcDb2dVertex
 10
35.55853189063228
 20
197.1541467093891
 30
0.0
  0
SEQEND
  5
CB1
330
CAB
100
AcDbEntity
  8
レイヤー_1
 62
   252
  0
HATCH
  5
CB2
330
75
100
AcDbEntity
  8
レイヤー_1
 62
   252
100
AcDbHatch
 10
0.0
 20
0.0
 30
0.0
210
0.0
220
0.0
230
1.0
  2
SOLID
 70
     1
 71
     0
 91
        1
 92
        3
 72
     0
 73
     1
 93
        5
 10
34.18269826728155
 20
236.3748610648275
 10
32.35138885972946
 20
236.3748610648275
 10
32.35138885972946
 20
233.6545447670845
 10
34.18269826728155
 20
233.6545447670845
 10
34.18269826728155
 20
236.3748610648275
 97
        0
 75
     0
 76
     1
 98
        1
 10
-44.42476890936774
 20
-83.7399491836534
  0
POLYLINE
  5
CB3
330
75
100
AcDbEntity
  8
レイヤー_1
 62
     7
100
AcDb2dPolyline
 66
     1
 10
0.0
 20
0.0
 30
0.0
 70
     1
  0
VERTEX
  5
CB4
330
CB3
100
AcDbEntity
  8
レイヤー_1
 62
     7
100
AcDbVertex
100
AcDb2dVertex
 10
34.18269769063225
 20
236.3748614163466
 30
0.0
  0
VERTEX
  5
CB5
330
CB3
100
AcDbEntity
  8
レイヤー_1
 62
     7
100
AcDbVertex
100
AcDb2dVertex
 10
32.35138899063226
 20
236.3748614163466
 30
0.0
  0
VERTEX
  5
CB6
330
CB3
100
AcDbEntity
  8
レイヤー_1
 62
     7
100
AcDbVertex
100
AcDb2dVertex
 10
32.35138899063226
 20
233.6545451163466
 30
0.0
  0
VERTEX
  5
CB7
330
CB3
100
AcDbEntity
  8
レイヤー_1
 62
     7
100
AcDbVertex
100
AcDb2dVertex
 10
34.18269769063225
 20
233.6545451163466
 30
0.0
  0
VERTEX
  5
CB8
330
CB3
100
AcDbEntity
  8
レイヤー_1
 62
     7
100
AcDbVertex
100
AcDb2dVertex
 10
34.18269769063225
 20
236.3748614163466
 30
0.0
  0
SEQEND
  5
CB9
330
CB3
100
AcDbEntity
  8
レイヤー_1
 62
     7
  0
POLYLINE
  5
CBA
330
75
100
AcDbEntity
  8
レイヤー_1
 62
     7
100
AcDb2dPolyline
 66
     1
 10
0.0
 20
0.0
 30
0.0
 70
     1
  0
VERTEX
  5
CBB
330
CBA
100
AcDbEntity
  8
レイヤー_1
 62
     7
100
AcDbVertex
100
AcDb2dVertex
 10
38.92824889063227
 20
240.8111621163466
 30
0.0
  0
VERTEX
  5
CBC
330
CBA
100
AcDbEntity
  8
レイヤー_1
 62
     7
100
AcDbVertex
100
AcDb2dVertex
 10
38.94750709063226
 20
240.7189024163466
 30
0.0
  0
VERTEX
  5
CBD
330
CBA
100
AcDbEntity
  8
レイヤー_1
 62
     7
100
AcDbVertex
100
AcDb2dVertex
 10
38.98647069063226
 20
240.6338083163466
 30
0.0
  0
VERTEX
  5
CBE
330
CBA
100
AcDbEntity
  8
レイヤー_1
 62
     7
100
AcDbVertex
100
AcDb2dVertex
 10
39.05947219063227
 20
240.5617025163466
 30
0.0
  0
VERTEX
  5
CBF
330
CBA
100
AcDbEntity
  8
レイヤー_1
 62
     7
100
AcDbVertex
100
AcDb2dVertex
 10
39.14456629063226
 20
240.5155733163466
 30
0.0
  0
VERTEX
  5
CC0
330
CBA
100
AcDbEntity
  8
レイヤー_1
 62
     7
100
AcDbVertex
100
AcDb2dVertex
 10
39.24220019063226
 20
240.5030322163466
 30
0.0
  0
VERTEX
  5
CC1
330
CBA
100
AcDbEntity
  8
レイヤー_1
 62
     7
100
AcDbVertex
100
AcDb2dVertex
 10
39.33401139063227
 20
240.5155733163466
 30
0.0
  0
VERTEX
  5
CC2
330
CBA
100
AcDbEntity
  8
レイヤー_1
 62
     7
100
AcDbVertex
100
AcDb2dVertex
 10
39.42000119063225
 20
240.5617025163466
 30
0.0
  0
VERTEX
  5
CC3
330
CBA
100
AcDbEntity
  8
レイヤー_1
 62
     7
100
AcDbVertex
100
AcDb2dVertex
 10
39.49300269063228
 20
240.6338083163466
 30
0.0
  0
VERTEX
  5
CC4
330
CBA
100
AcDbEntity
  8
レイヤー_1
 62
     7
100
AcDbVertex
100
AcDb2dVertex
 10
39.53778899063225
 20
240.7189024163466
 30
0.0
  0
VERTEX
  5
CC5
330
CBA
100
AcDbEntity
  8
レイヤー_1
 62
     7
100
AcDbVertex
100
AcDb2dVertex
 10
39.55032879063227
 20
240.8111621163466
 30
0.0
  0
VERTEX
  5
CC6
330
CBA
100
AcDbEntity
  8
レイヤー_1
 62
     7
100
AcDbVertex
100
AcDb2dVertex
 10
39.53778899063225
 20
240.9096917163466
 30
0.0
  0
VERTEX
  5
CC7
330
CBA
100
AcDbEntity
  8
レイヤー_1
 62
     7
100
AcDbVertex
100
AcDb2dVertex
 10
39.49300269063228
 20
240.9947858163466
 30
0.0
  0
VERTEX
  5
CC8
330
CBA
100
AcDbEntity
  8
レイヤー_1
 62
     7
100
AcDbVertex
100
AcDb2dVertex
 10
39.42000119063225
 20
241.0666680163466
 30
0.0
  0
VERTEX
  5
CC9
330
CBA
100
AcDbEntity
  8
レイヤー_1
 62
     7
100
AcDbVertex
100
AcDb2dVertex
 10
39.33401139063227
 20
241.1060801163466
 30
0.0
  0
VERTEX
  5
CCA
330
CBA
100
AcDbEntity
  8
レイヤー_1
 62
     7
100
AcDbVertex
100
AcDb2dVertex
 10
39.24220019063226
 20
241.1257855163466
 30
0.0
  0
VERTEX
  5
CCB
330
CBA
100
AcDbEntity
  8
レイヤー_1
 62
     7
100
AcDbVertex
100
AcDb2dVertex
 10
39.14456629063226
 20
241.1060801163466
 30
0.0
  0
VERTEX
  5
CCC
330
CBA
100
AcDbEntity
  8
レイヤー_1
 62
     7
100
AcDbVertex
100
AcDb2dVertex
 10
39.05947219063227
 20
241.0666680163466
 30
0.0
  0
VERTEX
  5
CCD
330
CBA
100
AcDbEntity
  8
レイヤー_1
 62
     7
100
AcDbVertex
100
AcDb2dVertex
 10
38.98647069063226
 20
240.9947858163466
 30
0.0
  0
VERTEX
  5
CCE
330
CBA
100
AcDbEntity
  8
レイヤー_1
 62
     7
100
AcDbVertex
100
AcDb2dVertex
 10
38.94750709063226
 20
240.9096917163466
 30
0.0
  0
VERTEX
  5
CCF
330
CBA
100
AcDbEntity
  8
レイヤー_1
 62
     7
100
AcDbVertex
100
AcDb2dVertex
 10
38.92824889063227
 20
240.8111621163466
 30
0.0
  0
SEQEND
  5
CD0
330
CBA
100
AcDbEntity
  8
レイヤー_1
 62
     7
  0
POLYLINE
  5
CD1
330
75
100
AcDbEntity
  8
レイヤー_1
 62
     7
100
AcDb2dPolyline
 66
     1
 10
0.0
 20
0.0
 30
0.0
 70
     1
  0
VERTEX
  5
CD2
330
CD1
100
AcDbEntity
  8
レイヤー_1
 62
     7
100
AcDbVertex
100
AcDb2dVertex
 10
38.38947039063226
 20
240.8111621163466
 30
0.0
  0
VERTEX
  5
CD3
330
CD1
100
AcDbEntity
  8
レイヤー_1
 62
     7
100
AcDbVertex
100
AcDb2dVertex
 10
38.40917579063225
 20
240.6467966163467
 30
0.0
  0
VERTEX
  5
CD4
330
CD1
100
AcDbEntity
  8
レイヤー_1
 62
     7
100
AcDbVertex
100
AcDb2dVertex
 10
38.45530629063226
 20
240.4895967163466
 30
0.0
  0
VERTEX
  5
CD5
330
CD1
100
AcDbEntity
  8
レイヤー_1
 62
     7
100
AcDbVertex
100
AcDb2dVertex
 10
38.53457769063226
 20
240.3388916163466
 30
0.0
  0
VERTEX
  5
CD6
330
CD1
100
AcDbEntity
  8
レイヤー_1
 62
     7
100
AcDbVertex
100
AcDb2dVertex
 10
38.63982439063227
 20
240.2139382163466
 30
0.0
  0
VERTEX
  5
CD7
330
CD1
100
AcDbEntity
  8
レイヤー_1
 62
     7
100
AcDbVertex
100
AcDb2dVertex
 10
38.77060049063226
 20
240.1093623163466
 30
0.0
  0
VERTEX
  5
CD8
330
CD1
100
AcDbEntity
  8
レイヤー_1
 62
     7
100
AcDbVertex
100
AcDb2dVertex
 10
38.91526059063226
 20
240.0307617163466
 30
0.0
  0
VERTEX
  5
CD9
330
CD1
100
AcDbEntity
  8
レイヤー_1
 62
     7
100
AcDbVertex
100
AcDb2dVertex
 10
39.07156479063225
 20
239.9781377163466
 30
0.0
  0
VERTEX
  5
CDA
330
CD1
100
AcDbEntity
  8
レイヤー_1
 62
     7
100
AcDbVertex
100
AcDb2dVertex
 10
39.24220019063226
 20
239.9651507163466
 30
0.0
  0
VERTEX
  5
CDB
330
CD1
100
AcDbEntity
  8
レイヤー_1
 62
     7
100
AcDbVertex
100
AcDb2dVertex
 10
39.40701289063226
 20
239.9781377163466
 30
0.0
  0
VERTEX
  5
CDC
330
CD1
100
AcDbEntity
  8
レイヤー_1
 62
     7
100
AcDbVertex
100
AcDb2dVertex
 10
39.56466129063226
 20
240.0307617163466
 30
0.0
  0
VERTEX
  5
CDD
330
CD1
100
AcDbEntity
  8
レイヤー_1
 62
     7
100
AcDbVertex
100
AcDb2dVertex
 10
39.71514279063224
 20
240.1093623163466
 30
0.0
  0
VERTEX
  5
CDE
330
CD1
100
AcDbEntity
  8
レイヤー_1
 62
     7
100
AcDbVertex
100
AcDb2dVertex
 10
39.83920049063227
 20
240.2139382163466
 30
0.0
  0
VERTEX
  5
CDF
330
CD1
100
AcDbEntity
  8
レイヤー_1
 62
     7
100
AcDbVertex
100
AcDb2dVertex
 10
39.94489569063226
 20
240.3388916163466
 30
0.0
  0
VERTEX
  5
CE0
330
CD1
100
AcDbEntity
  8
レイヤー_1
 62
     7
100
AcDbVertex
100
AcDb2dVertex
 10
40.02327139063226
 20
240.4895967163466
 30
0.0
  0
VERTEX
  5
CE1
330
CD1
100
AcDbEntity
  8
レイヤー_1
 62
     7
100
AcDbVertex
100
AcDb2dVertex
 10
40.07612029063224
 20
240.6467966163467
 30
0.0
  0
VERTEX
  5
CE2
330
CD1
100
AcDbEntity
  8
レイヤー_1
 62
     7
100
AcDbVertex
100
AcDb2dVertex
 10
40.08910729063225
 20
240.8111621163466
 30
0.0
  0
VERTEX
  5
CE3
330
CD1
100
AcDbEntity
  8
レイヤー_1
 62
     7
100
AcDbVertex
100
AcDb2dVertex
 10
40.07612029063224
 20
240.9813503163466
 30
0.0
  0
VERTEX
  5
CE4
330
CD1
100
AcDbEntity
  8
レイヤー_1
 62
     7
100
AcDbVertex
100
AcDb2dVertex
 10
40.02327139063226
 20
241.1389974163466
 30
0.0
  0
VERTEX
  5
CE5
330
CD1
100
AcDbEntity
  8
レイヤー_1
 62
     7
100
AcDbVertex
100
AcDb2dVertex
 10
39.94489569063226
 20
241.2825369163467
 30
0.0
  0
VERTEX
  5
CE6
330
CD1
100
AcDbEntity
  8
レイヤー_1
 62
     7
100
AcDbVertex
100
AcDb2dVertex
 10
39.83920049063227
 20
241.4137615163467
 30
0.0
  0
VERTEX
  5
CE7
330
CD1
100
AcDbEntity
  8
レイヤー_1
 62
     7
100
AcDbVertex
100
AcDb2dVertex
 10
39.71514279063224
 20
241.5190082163466
 30
0.0
  0
VERTEX
  5
CE8
330
CD1
100
AcDbEntity
  8
レイヤー_1
 62
     7
100
AcDbVertex
100
AcDb2dVertex
 10
39.56466129063226
 20
241.5971603163466
 30
0.0
  0
VERTEX
  5
CE9
330
CD1
100
AcDbEntity
  8
レイヤー_1
 62
     7
100
AcDbVertex
100
AcDb2dVertex
 10
39.40701289063226
 20
241.6502328163466
 30
0.0
  0
VERTEX
  5
CEA
330
CD1
100
AcDbEntity
  8
レイヤー_1
 62
     7
100
AcDbVertex
100
AcDb2dVertex
 10
39.24220019063226
 20
241.6627726163465
 30
0.0
  0
VERTEX
  5
CEB
330
CD1
100
AcDbEntity
  8
レイヤー_1
 62
     7
100
AcDbVertex
100
AcDb2dVertex
 10
39.07156479063225
 20
241.6502328163466
 30
0.0
  0
VERTEX
  5
CEC
330
CD1
100
AcDbEntity
  8
レイヤー_1
 62
     7
100
AcDbVertex
100
AcDb2dVertex
 10
38.91526059063226
 20
241.5971603163466
 30
0.0
  0
VERTEX
  5
CED
330
CD1
100
AcDbEntity
  8
レイヤー_1
 62
     7
100
AcDbVertex
100
AcDb2dVertex
 10
38.77060049063226
 20
241.5190082163466
 30
0.0
  0
VERTEX
  5
CEE
330
CD1
100
AcDbEntity
  8
レイヤー_1
 62
     7
100
AcDbVertex
100
AcDb2dVertex
 10
38.63982439063227
 20
241.4137615163467
 30
0.0
  0
VERTEX
  5
CEF
330
CD1
100
AcDbEntity
  8
レイヤー_1
 62
     7
100
AcDbVertex
100
AcDb2dVertex
 10
38.53457769063226
 20
241.2825369163467
 30
0.0
  0
VERTEX
  5
CF0
330
CD1
100
AcDbEntity
  8
レイヤー_1
 62
     7
100
AcDbVertex
100
AcDb2dVertex
 10
38.45530629063226
 20
241.1389974163466
 30
0.0
  0
VERTEX
  5
CF1
330
CD1
100
AcDbEntity
  8
レイヤー_1
 62
     7
100
AcDbVertex
100
AcDb2dVertex
 10
38.40917579063225
 20
240.9813503163466
 30
0.0
  0
VERTEX
  5
CF2
330
CD1
100
AcDbEntity
  8
レイヤー_1
 62
     7
100
AcDbVertex
100
AcDb2dVertex
 10
38.38947039063226
 20
240.8111621163466
 30
0.0
  0
SEQEND
  5
CF3
330
CD1
100
AcDbEntity
  8
レイヤー_1
 62
     7
  0
POLYLINE
  5
CF4
330
75
100
AcDbEntity
  8
レイヤー_1
 62
     7
100
AcDb2dPolyline
 66
     1
 10
0.0
 20
0.0
 30
0.0
 70
     1
  0
VERTEX
  5
CF5
330
CF4
100
AcDbEntity
  8
レイヤー_1
 62
     7
100
AcDbVertex
100
AcDb2dVertex
 10
37.14396509063226
 20
240.8111621163466
 30
0.0
  0
VERTEX
  5
CF6
330
CF4
100
AcDbEntity
  8
レイヤー_1
 62
     7
100
AcDbVertex
100
AcDb2dVertex
 10
37.16322199063228
 20
240.5617025163466
 30
0.0
  0
VERTEX
  5
CF7
330
CF4
100
AcDbEntity
  8
レイヤー_1
 62
     7
100
AcDbVertex
100
AcDb2dVertex
 10
37.20218689063226
 20
240.3124678163466
 30
0.0
  0
VERTEX
  5
CF8
330
CF4
100
AcDbEntity
  8
レイヤー_1
 62
     7
100
AcDbVertex
100
AcDb2dVertex
 10
37.28190679063227
 20
240.0699502163466
 30
0.0
  0
VERTEX
  5
CF9
330
CF4
100
AcDbEntity
  8
レイヤー_1
 62
     7
100
AcDbVertex
100
AcDb2dVertex
 10
37.38670629063225
 20
239.8406445163466
 30
0.0
  0
VERTEX
  5
CFA
330
CF4
100
AcDbEntity
  8
レイヤー_1
 62
     7
100
AcDbVertex
100
AcDb2dVertex
 10
37.51792959063225
 20
239.6238786163467
 30
0.0
  0
VERTEX
  5
CFB
330
CF4
100
AcDbEntity
  8
レイヤー_1
 62
     7
100
AcDbVertex
100
AcDb2dVertex
 10
37.67512949063227
 20
239.4272679163466
 30
0.0
  0
VERTEX
  5
CFC
330
CF4
100
AcDbEntity
  8
レイヤー_1
 62
     7
100
AcDbVertex
100
AcDb2dVertex
 10
37.85158759063226
 20
239.2434193163467
 30
0.0
  0
VERTEX
  5
CFD
330
CF4
100
AcDbEntity
  8
レイヤー_1
 62
     7
100
AcDbVertex
100
AcDb2dVertex
 10
38.04819829063226
 20
239.0859958163466
 30
0.0
  0
VERTEX
  5
CFE
330
CF4
100
AcDbEntity
  8
レイヤー_1
 62
     7
100
AcDbVertex
100
AcDb2dVertex
 10
38.26541139063227
 20
238.9549961163466
 30
0.0
  0
VERTEX
  5
CFF
330
CF4
100
AcDbEntity
  8
レイヤー_1
 62
     7
100
AcDbVertex
100
AcDb2dVertex
 10
38.49516559063225
 20
238.8566901163466
 30
0.0
  0
VERTEX
  5
D00
330
CF4
100
AcDbEntity
  8
レイヤー_1
 62
     7
100
AcDbVertex
100
AcDb2dVertex
 10
38.73790679063225
 20
238.7778672163466
 30
0.0
  0
VERTEX
  5
D01
330
CF4
100
AcDbEntity
  8
レイヤー_1
 62
     7
100
AcDbVertex
100
AcDb2dVertex
 10
38.98647069063226
 20
238.7321852163466
 30
0.0
  0
VERTEX
  5
D02
330
CF4
100
AcDbEntity
  8
レイヤー_1
 62
     7
100
AcDbVertex
100
AcDb2dVertex
 10
39.24220019063226
 20
238.7187484163466
 30
0.0
  0
VERTEX
  5
D03
330
CF4
100
AcDbEntity
  8
レイヤー_1
 62
     7
100
AcDbVertex
100
AcDb2dVertex
 10
39.49300269063228
 20
238.7321852163466
 30
0.0
  0
VERTEX
  5
D04
330
CF4
100
AcDbEntity
  8
レイヤー_1
 62
     7
100
AcDbVertex
100
AcDb2dVertex
 10
39.74156659063226
 20
238.7778672163466
 30
0.0
  0
VERTEX
  5
D05
330
CF4
100
AcDbEntity
  8
レイヤー_1
 62
     7
100
AcDbVertex
100
AcDb2dVertex
 10
39.98430779063226
 20
238.8566901163466
 30
0.0
  0
VERTEX
  5
D06
330
CF4
100
AcDbEntity
  8
レイヤー_1
 62
     7
100
AcDbVertex
100
AcDb2dVertex
 10
40.21316629063226
 20
238.9549961163466
 30
0.0
  0
VERTEX
  5
D07
330
CF4
100
AcDbEntity
  8
レイヤー_1
 62
     7
100
AcDbVertex
100
AcDb2dVertex
 10
40.43037939063224
 20
239.0859958163466
 30
0.0
  0
VERTEX
  5
D08
330
CF4
100
AcDbEntity
  8
レイヤー_1
 62
     7
100
AcDbVertex
100
AcDb2dVertex
 10
40.63415569063224
 20
239.2434193163467
 30
0.0
  0
VERTEX
  5
D09
330
CF4
100
AcDbEntity
  8
レイヤー_1
 62
     7
100
AcDbVertex
100
AcDb2dVertex
 10
40.81150949063228
 20
239.4272679163466
 30
0.0
  0
VERTEX
  5
D0A
330
CF4
100
AcDbEntity
  8
レイヤー_1
 62
     7
100
AcDbVertex
100
AcDb2dVertex
 10
40.96781369063227
 20
239.6238786163467
 30
0.0
  0
VERTEX
  5
D0B
330
CF4
100
AcDbEntity
  8
レイヤー_1
 62
     7
100
AcDbVertex
100
AcDb2dVertex
 10
41.09903699063226
 20
239.8406445163466
 30
0.0
  0
VERTEX
  5
D0C
330
CF4
100
AcDbEntity
  8
レイヤー_1
 62
     7
100
AcDbVertex
100
AcDb2dVertex
 10
41.19756789063226
 20
240.0699502163466
 30
0.0
  0
VERTEX
  5
D0D
330
CF4
100
AcDbEntity
  8
レイヤー_1
 62
     7
100
AcDbVertex
100
AcDb2dVertex
 10
41.27639079063224
 20
240.3124678163466
 30
0.0
  0
VERTEX
  5
D0E
330
CF4
100
AcDbEntity
  8
レイヤー_1
 62
     7
100
AcDbVertex
100
AcDb2dVertex
 10
41.32252129063227
 20
240.5617025163466
 30
0.0
  0
VERTEX
  5
D0F
330
CF4
100
AcDbEntity
  8
レイヤー_1
 62
     7
100
AcDbVertex
100
AcDb2dVertex
 10
41.33550829063223
 20
240.8111621163466
 30
0.0
  0
VERTEX
  5
D10
330
CF4
100
AcDbEntity
  8
レイヤー_1
 62
     7
100
AcDbVertex
100
AcDb2dVertex
 10
41.32252129063227
 20
241.0666680163466
 30
0.0
  0
VERTEX
  5
D11
330
CF4
100
AcDbEntity
  8
レイヤー_1
 62
     7
100
AcDbVertex
100
AcDb2dVertex
 10
41.27639079063224
 20
241.3152319163466
 30
0.0
  0
VERTEX
  5
D12
330
CF4
100
AcDbEntity
  8
レイヤー_1
 62
     7
100
AcDbVertex
100
AcDb2dVertex
 10
41.19756789063226
 20
241.5579731163466
 30
0.0
  0
VERTEX
  5
D13
330
CF4
100
AcDbEntity
  8
レイヤー_1
 62
     7
100
AcDbVertex
100
AcDb2dVertex
 10
41.09903699063226
 20
241.7879496163466
 30
0.0
  0
VERTEX
  5
D14
330
CF4
100
AcDbEntity
  8
レイヤー_1
 62
     7
100
AcDbVertex
100
AcDb2dVertex
 10
40.96781369063227
 20
242.0038198163466
 30
0.0
  0
VERTEX
  5
D15
330
CF4
100
AcDbEntity
  8
レイヤー_1
 62
     7
100
AcDbVertex
100
AcDb2dVertex
 10
40.81150949063228
 20
242.2006554163466
 30
0.0
  0
VERTEX
  5
D16
330
CF4
100
AcDbEntity
  8
レイヤー_1
 62
     7
100
AcDbVertex
100
AcDb2dVertex
 10
40.63415569063224
 20
242.3842791163466
 30
0.0
  0
VERTEX
  5
D17
330
CF4
100
AcDbEntity
  8
レイヤー_1
 62
     7
100
AcDbVertex
100
AcDb2dVertex
 10
40.43037939063224
 20
242.5354327163466
 30
0.0
  0
VERTEX
  5
D18
330
CF4
100
AcDbEntity
  8
レイヤー_1
 62
     7
100
AcDbVertex
100
AcDb2dVertex
 10
40.21316629063226
 20
242.6659839163467
 30
0.0
  0
VERTEX
  5
D19
330
CF4
100
AcDbEntity
  8
レイヤー_1
 62
     7
100
AcDbVertex
100
AcDb2dVertex
 10
39.98430779063226
 20
242.7712319163467
 30
0.0
  0
VERTEX
  5
D1A
330
CF4
100
AcDbEntity
  8
レイヤー_1
 62
     7
100
AcDbVertex
100
AcDb2dVertex
 10
39.74156659063226
 20
242.8498325163466
 30
0.0
  0
VERTEX
  5
D1B
330
CF4
100
AcDbEntity
  8
レイヤー_1
 62
     7
100
AcDbVertex
100
AcDb2dVertex
 10
39.49300269063228
 20
242.8959617163466
 30
0.0
  0
VERTEX
  5
D1C
330
CF4
100
AcDbEntity
  8
レイヤー_1
 62
     7
100
AcDbVertex
100
AcDb2dVertex
 10
39.24220019063226
 20
242.9089500163466
 30
0.0
  0
VERTEX
  5
D1D
330
CF4
100
AcDbEntity
  8
レイヤー_1
 62
     7
100
AcDbVertex
100
AcDb2dVertex
 10
38.98647069063226
 20
242.8959617163466
 30
0.0
  0
VERTEX
  5
D1E
330
CF4
100
AcDbEntity
  8
レイヤー_1
 62
     7
100
AcDbVertex
100
AcDb2dVertex
 10
38.73790679063225
 20
242.8498325163466
 30
0.0
  0
VERTEX
  5
D1F
330
CF4
100
AcDbEntity
  8
レイヤー_1
 62
     7
100
AcDbVertex
100
AcDb2dVertex
 10
38.49516559063225
 20
242.7712319163467
 30
0.0
  0
VERTEX
  5
D20
330
CF4
100
AcDbEntity
  8
レイヤー_1
 62
     7
100
AcDbVertex
100
AcDb2dVertex
 10
38.26541139063227
 20
242.6659839163467
 30
0.0
  0
VERTEX
  5
D21
330
CF4
100
AcDbEntity
  8
レイヤー_1
 62
     7
100
AcDbVertex
100
AcDb2dVertex
 10
38.04819829063226
 20
242.5354327163466
 30
0.0
  0
VERTEX
  5
D22
330
CF4
100
AcDbEntity
  8
レイヤー_1
 62
     7
100
AcDbVertex
100
AcDb2dVertex
 10
37.85158759063226
 20
242.3842791163466
 30
0.0
  0
VERTEX
  5
D23
330
CF4
100
AcDbEntity
  8
レイヤー_1
 62
     7
100
AcDbVertex
100
AcDb2dVertex
 10
37.67512949063227
 20
242.2006554163466
 30
0.0
  0
VERTEX
  5
D24
330
CF4
100
AcDbEntity
  8
レイヤー_1
 62
     7
100
AcDbVertex
100
AcDb2dVertex
 10
37.51792959063225
 20
242.0038198163466
 30
0.0
  0
VERTEX
  5
D25
330
CF4
100
AcDbEntity
  8
レイヤー_1
 62
     7
100
AcDbVertex
100
AcDb2dVertex
 10
37.38670629063225
 20
241.7879496163466
 30
0.0
  0
VERTEX
  5
D26
330
CF4
100
AcDbEntity
  8
レイヤー_1
 62
     7
100
AcDbVertex
100
AcDb2dVertex
 10
37.28190679063227
 20
241.5579731163466
 30
0.0
  0
VERTEX
  5
D27
330
CF4
100
AcDbEntity
  8
レイヤー_1
 62
     7
100
AcDbVertex
100
AcDb2dVertex
 10
37.20218689063226
 20
241.3152319163466
 30
0.0
  0
VERTEX
  5
D28
330
CF4
100
AcDbEntity
  8
レイヤー_1
 62
     7
100
AcDbVertex
100
AcDb2dVertex
 10
37.16322199063228
 20
241.0666680163466
 30
0.0
  0
VERTEX
  5
D29
330
CF4
100
AcDbEntity
  8
レイヤー_1
 62
     7
100
AcDbVertex
100
AcDb2dVertex
 10
37.14396509063226
 20
240.8111621163466
 30
0.0
  0
SEQEND
  5
D2A
330
CF4
100
AcDbEntity
  8
レイヤー_1
 62
     7
  0
POLYLINE
  5
D2B
330
75
100
AcDbEntity
  8
レイヤー_1
 62
     7
100
AcDb2dPolyline
 66
     1
 10
0.0
 20
0.0
 30
0.0
 70
     1
  0
VERTEX
  5
D2C
330
D2B
100
AcDbEntity
  8
レイヤー_1
 62
     7
100
AcDbVertex
100
AcDb2dVertex
 10
39.42627109063226
 20
243.6038078163466
 30
0.0
  0
VERTEX
  5
D2D
330
D2B
100
AcDbEntity
  8
レイヤー_1
 62
     7
100
AcDbVertex
100
AcDb2dVertex
 10
39.07156479063225
 20
243.6038078163466
 30
0.0
  0
VERTEX
  5
D2E
330
D2B
100
AcDbEntity
  8
レイヤー_1
 62
     7
100
AcDbVertex
100
AcDb2dVertex
 10
39.07156479063225
 20
243.1778914163467
 30
0.0
  0
VERTEX
  5
D2F
330
D2B
100
AcDbEntity
  8
レイヤー_1
 62
     7
100
AcDbVertex
100
AcDb2dVertex
 10
39.42627109063226
 20
243.1778914163467
 30
0.0
  0
VERTEX
  5
D30
330
D2B
100
AcDbEntity
  8
レイヤー_1
 62
     7
100
AcDbVertex
100
AcDb2dVertex
 10
39.42627109063226
 20
243.6038078163466
 30
0.0
  0
SEQEND
  5
D31
330
D2B
100
AcDbEntity
  8
レイヤー_1
 62
     7
  0
POLYLINE
  5
D32
330
75
100
AcDbEntity
  8
レイヤー_1
 62
     7
100
AcDb2dPolyline
 66
     1
 10
0.0
 20
0.0
 30
0.0
 70
     1
  0
VERTEX
  5
D33
330
D32
100
AcDbEntity
  8
レイヤー_1
 62
     7
100
AcDbVertex
100
AcDb2dVertex
 10
39.42627109063226
 20
238.4439856163467
 30
0.0
  0
VERTEX
  5
D34
330
D32
100
AcDbEntity
  8
レイヤー_1
 62
     7
100
AcDbVertex
100
AcDb2dVertex
 10
39.06619059063226
 20
238.4439856163467
 30
0.0
  0
VERTEX
  5
D35
330
D32
100
AcDbEntity
  8
レイヤー_1
 62
     7
100
AcDbVertex
100
AcDb2dVertex
 10
39.06619059063226
 20
238.0178443163466
 30
0.0
  0
VERTEX
  5
D36
330
D32
100
AcDbEntity
  8
レイヤー_1
 62
     7
100
AcDbVertex
100
AcDb2dVertex
 10
39.42627109063226
 20
238.0178443163466
 30
0.0
  0
VERTEX
  5
D37
330
D32
100
AcDbEntity
  8
レイヤー_1
 62
     7
100
AcDbVertex
100
AcDb2dVertex
 10
39.42627109063226
 20
238.4439856163467
 30
0.0
  0
SEQEND
  5
D38
330
D32
100
AcDbEntity
  8
レイヤー_1
 62
     7
  0
POLYLINE
  5
D39
330
75
100
AcDbEntity
  8
レイヤー_1
 62
     7
100
AcDb2dPolyline
 66
     1
 10
0.0
 20
0.0
 30
0.0
 70
     1
  0
VERTEX
  5
D3A
330
D39
100
AcDbEntity
  8
レイヤー_1
 62
     7
100
AcDbVertex
100
AcDb2dVertex
 10
36.86808169063225
 20
240.8111621163466
 30
0.0
  0
VERTEX
  5
D3B
330
D39
100
AcDbEntity
  8
レイヤー_1
 62
     7
100
AcDbVertex
100
AcDb2dVertex
 10
36.88778709063226
 20
240.5487142163466
 30
0.0
  0
VERTEX
  5
D3C
330
D39
100
AcDbEntity
  8
レイヤー_1
 62
     7
100
AcDbVertex
100
AcDb2dVertex
 10
36.92764639063226
 20
240.2867148163466
 30
0.0
  0
VERTEX
  5
D3D
330
D39
100
AcDbEntity
  8
レイヤー_1
 62
     7
100
AcDbVertex
100
AcDb2dVertex
 10
37.00602339063225
 20
240.0307617163466
 30
0.0
  0
VERTEX
  5
D3E
330
D39
100
AcDbEntity
  8
レイヤー_1
 62
     7
100
AcDbVertex
100
AcDb2dVertex
 10
37.10500019063225
 20
239.7877969163466
 30
0.0
  0
VERTEX
  5
D3F
330
D39
100
AcDbEntity
  8
レイヤー_1
 62
     7
100
AcDbVertex
100
AcDb2dVertex
 10
37.23622479063225
 20
239.5515492163466
 30
0.0
  0
VERTEX
  5
D40
330
D39
100
AcDbEntity
  8
レイヤー_1
 62
     7
100
AcDbVertex
100
AcDb2dVertex
 10
37.38670629063225
 20
239.3352318163466
 30
0.0
  0
VERTEX
  5
D41
330
D39
100
AcDbEntity
  8
レイヤー_1
 62
     7
100
AcDbVertex
100
AcDb2dVertex
 10
37.56406009063228
 20
239.1383962163466
 30
0.0
  0
VERTEX
  5
D42
330
D39
100
AcDbEntity
  8
レイヤー_1
 62
     7
100
AcDbVertex
100
AcDb2dVertex
 10
37.76022359063226
 20
238.9614909163466
 30
0.0
  0
VERTEX
  5
D43
330
D39
100
AcDbEntity
  8
レイヤー_1
 62
     7
100
AcDbVertex
100
AcDb2dVertex
 10
37.97654099063226
 20
238.8047382163466
 30
0.0
  0
VERTEX
  5
D44
330
D39
100
AcDbEntity
  8
レイヤー_1
 62
     7
100
AcDbVertex
100
AcDb2dVertex
 10
38.21345949063226
 20
238.6793376163466
 30
0.0
  0
VERTEX
  5
D45
330
D39
100
AcDbEntity
  8
レイヤー_1
 62
     7
100
AcDbVertex
100
AcDb2dVertex
 10
38.45530629063226
 20
238.5747617163466
 30
0.0
  0
VERTEX
  5
D46
330
D39
100
AcDbEntity
  8
レイヤー_1
 62
     7
100
AcDbVertex
100
AcDb2dVertex
 10
38.71148299063225
 20
238.5033267163466
 30
0.0
  0
VERTEX
  5
D47
330
D39
100
AcDbEntity
  8
レイヤー_1
 62
     7
100
AcDbVertex
100
AcDb2dVertex
 10
38.97437809063227
 20
238.4574211163466
 30
0.0
  0
VERTEX
  5
D48
330
D39
100
AcDbEntity
  8
レイヤー_1
 62
     7
100
AcDbVertex
100
AcDb2dVertex
 10
39.24220019063226
 20
238.4439856163467
 30
0.0
  0
VERTEX
  5
D49
330
D39
100
AcDbEntity
  8
レイヤー_1
 62
     7
100
AcDbVertex
100
AcDb2dVertex
 10
39.50509529063225
 20
238.4574211163466
 30
0.0
  0
VERTEX
  5
D4A
330
D39
100
AcDbEntity
  8
レイヤー_1
 62
     7
100
AcDbVertex
100
AcDb2dVertex
 10
39.76754319063227
 20
238.5033267163466
 30
0.0
  0
VERTEX
  5
D4B
330
D39
100
AcDbEntity
  8
レイヤー_1
 62
     7
100
AcDbVertex
100
AcDb2dVertex
 10
40.02327139063226
 20
238.5747617163466
 30
0.0
  0
VERTEX
  5
D4C
330
D39
100
AcDbEntity
  8
レイヤー_1
 62
     7
100
AcDbVertex
100
AcDb2dVertex
 10
40.26601389063228
 20
238.6793376163466
 30
0.0
  0
VERTEX
  5
D4D
330
D39
100
AcDbEntity
  8
レイヤー_1
 62
     7
100
AcDbVertex
100
AcDb2dVertex
 10
40.50293239063226
 20
238.8047382163466
 30
0.0
  0
VERTEX
  5
D4E
330
D39
100
AcDbEntity
  8
レイヤー_1
 62
     7
100
AcDbVertex
100
AcDb2dVertex
 10
40.71924979063225
 20
238.9614909163466
 30
0.0
  0
VERTEX
  5
D4F
330
D39
100
AcDbEntity
  8
レイヤー_1
 62
     7
100
AcDbVertex
100
AcDb2dVertex
 10
40.91586179063225
 20
239.1383962163466
 30
0.0
  0
VERTEX
  5
D50
330
D39
100
AcDbEntity
  8
レイヤー_1
 62
     7
100
AcDbVertex
100
AcDb2dVertex
 10
41.09321559063227
 20
239.3352318163466
 30
0.0
  0
VERTEX
  5
D51
330
D39
100
AcDbEntity
  8
レイヤー_1
 62
     7
100
AcDbVertex
100
AcDb2dVertex
 10
41.24951979063225
 20
239.5515492163466
 30
0.0
  0
VERTEX
  5
D52
330
D39
100
AcDbEntity
  8
レイヤー_1
 62
     7
100
AcDbVertex
100
AcDb2dVertex
 10
41.37447319063227
 20
239.7877969163466
 30
0.0
  0
VERTEX
  5
D53
330
D39
100
AcDbEntity
  8
レイヤー_1
 62
     7
100
AcDbVertex
100
AcDb2dVertex
 10
41.47972119063225
 20
240.0307617163466
 30
0.0
  0
VERTEX
  5
D54
330
D39
100
AcDbEntity
  8
レイヤー_1
 62
     7
100
AcDbVertex
100
AcDb2dVertex
 10
41.55093129063224
 20
240.2867148163466
 30
0.0
  0
VERTEX
  5
D55
330
D39
100
AcDbEntity
  8
レイヤー_1
 62
     7
100
AcDbVertex
100
AcDb2dVertex
 10
41.59706049063226
 20
240.5487142163466
 30
0.0
  0
VERTEX
  5
D56
330
D39
100
AcDbEntity
  8
レイヤー_1
 62
     7
100
AcDbVertex
100
AcDb2dVertex
 10
41.61049599063225
 20
240.8111621163466
 30
0.0
  0
VERTEX
  5
D57
330
D39
100
AcDbEntity
  8
レイヤー_1
 62
     7
100
AcDbVertex
100
AcDb2dVertex
 10
41.59706049063226
 20
241.0796563163466
 30
0.0
  0
VERTEX
  5
D58
330
D39
100
AcDbEntity
  8
レイヤー_1
 62
     7
100
AcDbVertex
100
AcDb2dVertex
 10
41.55093129063224
 20
241.3418793163466
 30
0.0
  0
VERTEX
  5
D59
330
D39
100
AcDbEntity
  8
レイヤー_1
 62
     7
100
AcDbVertex
100
AcDb2dVertex
 10
41.47972119063225
 20
241.5971603163466
 30
0.0
  0
VERTEX
  5
D5A
330
D39
100
AcDbEntity
  8
レイヤー_1
 62
     7
100
AcDbVertex
100
AcDb2dVertex
 10
41.37447319063227
 20
241.8399015163466
 30
0.0
  0
VERTEX
  5
D5B
330
D39
100
AcDbEntity
  8
レイヤー_1
 62
     7
100
AcDbVertex
100
AcDb2dVertex
 10
41.24951979063225
 20
242.0763741163467
 30
0.0
  0
VERTEX
  5
D5C
330
D39
100
AcDbEntity
  8
レイヤー_1
 62
     7
100
AcDbVertex
100
AcDb2dVertex
 10
41.09321559063227
 20
242.2926915163466
 30
0.0
  0
VERTEX
  5
D5D
330
D39
100
AcDbEntity
  8
レイヤー_1
 62
     7
100
AcDbVertex
100
AcDb2dVertex
 10
40.91586179063225
 20
242.4893022163466
 30
0.0
  0
VERTEX
  5
D5E
330
D39
100
AcDbEntity
  8
レイヤー_1
 62
     7
100
AcDbVertex
100
AcDb2dVertex
 10
40.71924979063225
 20
242.6659839163467
 30
0.0
  0
VERTEX
  5
D5F
330
D39
100
AcDbEntity
  8
レイヤー_1
 62
     7
100
AcDbVertex
100
AcDb2dVertex
 10
40.50293239063226
 20
242.8243031163467
 30
0.0
  0
VERTEX
  5
D60
330
D39
100
AcDbEntity
  8
レイヤー_1
 62
     7
100
AcDbVertex
100
AcDb2dVertex
 10
40.26601389063228
 20
242.9483621163466
 30
0.0
  0
VERTEX
  5
D61
330
D39
100
AcDbEntity
  8
レイヤー_1
 62
     7
100
AcDbVertex
100
AcDb2dVertex
 10
40.02327139063226
 20
243.0536088163466
 30
0.0
  0
VERTEX
  5
D62
330
D39
100
AcDbEntity
  8
レイヤー_1
 62
     7
100
AcDbVertex
100
AcDb2dVertex
 10
39.76754319063227
 20
243.1254910163466
 30
0.0
  0
VERTEX
  5
D63
330
D39
100
AcDbEntity
  8
レイヤー_1
 62
     7
100
AcDbVertex
100
AcDb2dVertex
 10
39.50509529063225
 20
243.1709494163467
 30
0.0
  0
VERTEX
  5
D64
330
D39
100
AcDbEntity
  8
レイヤー_1
 62
     7
100
AcDbVertex
100
AcDb2dVertex
 10
39.24220019063226
 20
243.1843849163466
 30
0.0
  0
VERTEX
  5
D65
330
D39
100
AcDbEntity
  8
レイヤー_1
 62
     7
100
AcDbVertex
100
AcDb2dVertex
 10
38.97437809063227
 20
243.1709494163467
 30
0.0
  0
VERTEX
  5
D66
330
D39
100
AcDbEntity
  8
レイヤー_1
 62
     7
100
AcDbVertex
100
AcDb2dVertex
 10
38.71148299063225
 20
243.1254910163466
 30
0.0
  0
VERTEX
  5
D67
330
D39
100
AcDbEntity
  8
レイヤー_1
 62
     7
100
AcDbVertex
100
AcDb2dVertex
 10
38.45530629063226
 20
243.0536088163466
 30
0.0
  0
VERTEX
  5
D68
330
D39
100
AcDbEntity
  8
レイヤー_1
 62
     7
100
AcDbVertex
100
AcDb2dVertex
 10
38.21345949063226
 20
242.9483621163466
 30
0.0
  0
VERTEX
  5
D69
330
D39
100
AcDbEntity
  8
レイヤー_1
 62
     7
100
AcDbVertex
100
AcDb2dVertex
 10
37.97654099063226
 20
242.8243031163467
 30
0.0
  0
VERTEX
  5
D6A
330
D39
100
AcDbEntity
  8
レイヤー_1
 62
     7
100
AcDbVertex
100
AcDb2dVertex
 10
37.76022359063226
 20
242.6659839163467
 30
0.0
  0
VERTEX
  5
D6B
330
D39
100
AcDbEntity
  8
レイヤー_1
 62
     7
100
AcDbVertex
100
AcDb2dVertex
 10
37.56406009063228
 20
242.4893022163466
 30
0.0
  0
VERTEX
  5
D6C
330
D39
100
AcDbEntity
  8
レイヤー_1
 62
     7
100
AcDbVertex
100
AcDb2dVertex
 10
37.38670629063225
 20
242.2926915163466
 30
0.0
  0
VERTEX
  5
D6D
330
D39
100
AcDbEntity
  8
レイヤー_1
 62
     7
100
AcDbVertex
100
AcDb2dVertex
 10
37.23622479063225
 20
242.0763741163467
 30
0.0
  0
VERTEX
  5
D6E
330
D39
100
AcDbEntity
  8
レイヤー_1
 62
     7
100
AcDbVertex
100
AcDb2dVertex
 10
37.10500019063225
 20
241.8399015163466
 30
0.0
  0
VERTEX
  5
D6F
330
D39
100
AcDbEntity
  8
レイヤー_1
 62
     7
100
AcDbVertex
100
AcDb2dVertex
 10
37.00602339063225
 20
241.5971603163466
 30
0.0
  0
VERTEX
  5
D70
330
D39
100
AcDbEntity
  8
レイヤー_1
 62
     7
100
AcDbVertex
100
AcDb2dVertex
 10
36.92764639063226
 20
241.3418793163466
 30
0.0
  0
VERTEX
  5
D71
330
D39
100
AcDbEntity
  8
レイヤー_1
 62
     7
100
AcDbVertex
100
AcDb2dVertex
 10
36.88778709063226
 20
241.0796563163466
 30
0.0
  0
VERTEX
  5
D72
330
D39
100
AcDbEntity
  8
レイヤー_1
 62
     7
100
AcDbVertex
100
AcDb2dVertex
 10
36.86808169063225
 20
240.8111621163466
 30
0.0
  0
SEQEND
  5
D73
330
D39
100
AcDbEntity
  8
レイヤー_1
 62
     7
  0
POLYLINE
  5
D74
330
75
100
AcDbEntity
  8
レイヤー_1
 62
     7
100
AcDb2dPolyline
 66
     1
 10
0.0
 20
0.0
 30
0.0
 70
     1
  0
VERTEX
  5
D75
330
D74
100
AcDbEntity
  8
レイヤー_1
 62
     7
100
AcDbVertex
100
AcDb2dVertex
 10
36.02923459063226
 20
240.8111621163466
 30
0.0
  0
VERTEX
  5
D76
330
D74
100
AcDbEntity
  8
レイヤー_1
 62
     7
100
AcDbVertex
100
AcDb2dVertex
 10
36.04759709063225
 20
240.5030322163466
 30
0.0
  0
VERTEX
  5
D77
330
D74
100
AcDbEntity
  8
レイヤー_1
 62
     7
100
AcDbVertex
100
AcDb2dVertex
 10
36.08745769063225
 20
240.2016220163467
 30
0.0
  0
VERTEX
  5
D78
330
D74
100
AcDbEntity
  8
レイヤー_1
 62
     7
100
AcDbVertex
100
AcDb2dVertex
 10
36.16717629063227
 20
239.8990899163466
 30
0.0
  0
VERTEX
  5
D79
330
D74
100
AcDbEntity
  8
レイヤー_1
 62
     7
100
AcDbVertex
100
AcDb2dVertex
 10
36.27197579063226
 20
239.6108903163466
 30
0.0
  0
VERTEX
  5
D7A
330
D74
100
AcDbEntity
  8
レイヤー_1
 62
     7
100
AcDbVertex
100
AcDb2dVertex
 10
36.40230469063225
 20
239.3289619163466
 30
0.0
  0
VERTEX
  5
D7B
330
D74
100
AcDbEntity
  8
レイヤー_1
 62
     7
100
AcDbVertex
100
AcDb2dVertex
 10
36.55950459063226
 20
239.0665140163466
 30
0.0
  0
VERTEX
  5
D7C
330
D74
100
AcDbEntity
  8
レイヤー_1
 62
     7
100
AcDbVertex
100
AcDb2dVertex
 10
36.74357549063226
 20
238.8175029163466
 30
0.0
  0
VERTEX
  5
D7D
330
D74
100
AcDbEntity
  8
レイヤー_1
 62
     7
100
AcDbVertex
100
AcDb2dVertex
 10
36.95317579063225
 20
238.5877487163467
 30
0.0
  0
VERTEX
  5
D7E
330
D74
100
AcDbEntity
  8
レイヤー_1
 62
     7
100
AcDbVertex
100
AcDb2dVertex
 10
37.17710599063226
 20
238.3853153163466
 30
0.0
  0
VERTEX
  5
D7F
330
D74
100
AcDbEntity
  8
レイヤー_1
 62
     7
100
AcDbVertex
100
AcDb2dVertex
 10
37.42566989063226
 20
238.2014680163466
 30
0.0
  0
VERTEX
  5
D80
330
D74
100
AcDbEntity
  8
レイヤー_1
 62
     7
100
AcDbVertex
100
AcDb2dVertex
 10
37.69528339063226
 20
238.0444917163466
 30
0.0
  0
VERTEX
  5
D81
330
D74
100
AcDbEntity
  8
レイヤー_1
 62
     7
100
AcDbVertex
100
AcDb2dVertex
 10
37.97071829063225
 20
237.9128212163466
 30
0.0
  0
VERTEX
  5
D82
330
D74
100
AcDbEntity
  8
レイヤー_1
 62
     7
100
AcDbVertex
100
AcDb2dVertex
 10
38.25869429063227
 20
237.8082453163466
 30
0.0
  0
VERTEX
  5
D83
330
D74
100
AcDbEntity
  8
レイヤー_1
 62
     7
100
AcDbVertex
100
AcDb2dVertex
 10
38.55965729063226
 20
237.7296447163466
 30
0.0
  0
VERTEX
  5
D84
330
D74
100
AcDbEntity
  8
レイヤー_1
 62
     7
100
AcDbVertex
100
AcDb2dVertex
 10
38.86913009063228
 20
237.6835155163466
 30
0.0
  0
VERTEX
  5
D85
330
D74
100
AcDbEntity
  8
レイヤー_1
 62
     7
100
AcDbVertex
100
AcDb2dVertex
 10
39.17770719063226
 20
237.6703036163466
 30
0.0
  0
VERTEX
  5
D86
330
D74
100
AcDbEntity
  8
レイヤー_1
 62
     7
100
AcDbVertex
100
AcDb2dVertex
 10
39.48494139063227
 20
237.6835155163466
 30
0.0
  0
VERTEX
  5
D87
330
D74
100
AcDbEntity
  8
レイヤー_1
 62
     7
100
AcDbVertex
100
AcDb2dVertex
 10
39.78724859063226
 20
237.7296447163466
 30
0.0
  0
VERTEX
  5
D88
330
D74
100
AcDbEntity
  8
レイヤー_1
 62
     7
100
AcDbVertex
100
AcDb2dVertex
 10
40.08910729063225
 20
237.8082453163466
 30
0.0
  0
VERTEX
  5
D89
330
D74
100
AcDbEntity
  8
レイヤー_1
 62
     7
100
AcDbVertex
100
AcDb2dVertex
 10
40.37797899063225
 20
237.9128212163466
 30
0.0
  0
VERTEX
  5
D8A
330
D74
100
AcDbEntity
  8
レイヤー_1
 62
     7
100
AcDbVertex
100
AcDb2dVertex
 10
40.65251819063226
 20
238.0444917163466
 30
0.0
  0
VERTEX
  5
D8B
330
D74
100
AcDbEntity
  8
レイヤー_1
 62
     7
100
AcDbVertex
100
AcDb2dVertex
 10
40.92168449063227
 20
238.2014680163466
 30
0.0
  0
VERTEX
  5
D8C
330
D74
100
AcDbEntity
  8
レイヤー_1
 62
     7
100
AcDbVertex
100
AcDb2dVertex
 10
41.17114279063224
 20
238.3853153163466
 30
0.0
  0
VERTEX
  5
D8D
330
D74
100
AcDbEntity
  8
レイヤー_1
 62
     7
100
AcDbVertex
100
AcDb2dVertex
 10
41.39417859063224
 20
238.5877487163467
 30
0.0
  0
VERTEX
  5
D8E
330
D74
100
AcDbEntity
  8
レイヤー_1
 62
     7
100
AcDbVertex
100
AcDb2dVertex
 10
41.60422609063227
 20
238.8175029163466
 30
0.0
  0
VERTEX
  5
D8F
330
D74
100
AcDbEntity
  8
レイヤー_1
 62
     7
100
AcDbVertex
100
AcDb2dVertex
 10
41.78784979063225
 20
239.0665140163466
 30
0.0
  0
VERTEX
  5
D90
330
D74
100
AcDbEntity
  8
レイヤー_1
 62
     7
100
AcDbVertex
100
AcDb2dVertex
 10
41.94549689063225
 20
239.3289619163466
 30
0.0
  0
VERTEX
  5
D91
330
D74
100
AcDbEntity
  8
レイヤー_1
 62
     7
100
AcDbVertex
100
AcDb2dVertex
 10
42.07582579063225
 20
239.6108903163466
 30
0.0
  0
VERTEX
  5
D92
330
D74
100
AcDbEntity
  8
レイヤー_1
 62
     7
100
AcDbVertex
100
AcDb2dVertex
 10
42.18107249063224
 20
239.8990899163466
 30
0.0
  0
VERTEX
  5
D93
330
D74
100
AcDbEntity
  8
レイヤー_1
 62
     7
100
AcDbVertex
100
AcDb2dVertex
 10
42.25989669063224
 20
240.2016220163467
 30
0.0
  0
VERTEX
  5
D94
330
D74
100
AcDbEntity
  8
レイヤー_1
 62
     7
100
AcDbVertex
100
AcDb2dVertex
 10
42.30557869063227
 20
240.5030322163466
 30
0.0
  0
VERTEX
  5
D95
330
D74
100
AcDbEntity
  8
レイヤー_1
 62
     7
100
AcDbVertex
100
AcDb2dVertex
 10
42.31901419063226
 20
240.8111621163466
 30
0.0
  0
VERTEX
  5
D96
330
D74
100
AcDbEntity
  8
レイヤー_1
 62
     7
100
AcDbVertex
100
AcDb2dVertex
 10
42.30557869063227
 20
241.1195156163466
 30
0.0
  0
VERTEX
  5
D97
330
D74
100
AcDbEntity
  8
レイヤー_1
 62
     7
100
AcDbVertex
100
AcDb2dVertex
 10
42.25989669063224
 20
241.4269734163466
 30
0.0
  0
VERTEX
  5
D98
330
D74
100
AcDbEntity
  8
レイヤー_1
 62
     7
100
AcDbVertex
100
AcDb2dVertex
 10
42.18107249063224
 20
241.7283849163466
 30
0.0
  0
VERTEX
  5
D99
330
D74
100
AcDbEntity
  8
レイヤー_1
 62
     7
100
AcDbVertex
100
AcDb2dVertex
 10
42.07582579063225
 20
242.0172553163466
 30
0.0
  0
VERTEX
  5
D9A
330
D74
100
AcDbEntity
  8
レイヤー_1
 62
     7
100
AcDbVertex
100
AcDb2dVertex
 10
41.94549689063225
 20
242.2926915163466
 30
0.0
  0
VERTEX
  5
D9B
330
D74
100
AcDbEntity
  8
レイヤー_1
 62
     7
100
AcDbVertex
100
AcDb2dVertex
 10
41.78784979063225
 20
242.5614080163466
 30
0.0
  0
VERTEX
  5
D9C
330
D74
100
AcDbEntity
  8
レイヤー_1
 62
     7
100
AcDbVertex
100
AcDb2dVertex
 10
41.60422609063227
 20
242.8108676163466
 30
0.0
  0
VERTEX
  5
D9D
330
D74
100
AcDbEntity
  8
レイヤー_1
 62
     7
100
AcDbVertex
100
AcDb2dVertex
 10
41.39417859063224
 20
243.0334549163466
 30
0.0
  0
VERTEX
  5
D9E
330
D74
100
AcDbEntity
  8
レイヤー_1
 62
     7
100
AcDbVertex
100
AcDb2dVertex
 10
41.17114279063224
 20
243.2435024163466
 30
0.0
  0
VERTEX
  5
D9F
330
D74
100
AcDbEntity
  8
レイヤー_1
 62
     7
100
AcDbVertex
100
AcDb2dVertex
 10
40.92168449063227
 20
243.4266789163467
 30
0.0
  0
VERTEX
  5
DA0
330
D74
100
AcDbEntity
  8
レイヤー_1
 62
     7
100
AcDbVertex
100
AcDb2dVertex
 10
40.65251819063226
 20
243.5845496163466
 30
0.0
  0
VERTEX
  5
DA1
330
D74
100
AcDbEntity
  8
レイヤー_1
 62
     7
100
AcDbVertex
100
AcDb2dVertex
 10
40.37797899063225
 20
243.7157742163466
 30
0.0
  0
VERTEX
  5
DA2
330
D74
100
AcDbEntity
  8
レイヤー_1
 62
     7
100
AcDbVertex
100
AcDb2dVertex
 10
40.08910729063225
 20
243.8210209163466
 30
0.0
  0
VERTEX
  5
DA3
330
D74
100
AcDbEntity
  8
レイヤー_1
 62
     7
100
AcDbVertex
100
AcDb2dVertex
 10
39.78724859063226
 20
243.8993979163466
 30
0.0
  0
VERTEX
  5
DA4
330
D74
100
AcDbEntity
  8
レイヤー_1
 62
     7
100
AcDbVertex
100
AcDb2dVertex
 10
39.48494139063227
 20
243.9448550163466
 30
0.0
  0
VERTEX
  5
DA5
330
D74
100
AcDbEntity
  8
レイヤー_1
 62
     7
100
AcDbVertex
100
AcDb2dVertex
 10
39.17770719063226
 20
243.9582918163467
 30
0.0
  0
VERTEX
  5
DA6
330
D74
100
AcDbEntity
  8
レイヤー_1
 62
     7
100
AcDbVertex
100
AcDb2dVertex
 10
38.86913009063228
 20
243.9448550163466
 30
0.0
  0
VERTEX
  5
DA7
330
D74
100
AcDbEntity
  8
レイヤー_1
 62
     7
100
AcDbVertex
100
AcDb2dVertex
 10
38.55965729063226
 20
243.8993979163466
 30
0.0
  0
VERTEX
  5
DA8
330
D74
100
AcDbEntity
  8
レイヤー_1
 62
     7
100
AcDbVertex
100
AcDb2dVertex
 10
38.25869429063227
 20
243.8210209163466
 30
0.0
  0
VERTEX
  5
DA9
330
D74
100
AcDbEntity
  8
レイヤー_1
 62
     7
100
AcDbVertex
100
AcDb2dVertex
 10
37.97071829063225
 20
243.7157742163466
 30
0.0
  0
VERTEX
  5
DAA
330
D74
100
AcDbEntity
  8
レイヤー_1
 62
     7
100
AcDbVertex
100
AcDb2dVertex
 10
37.69528339063226
 20
243.5845496163466
 30
0.0
  0
VERTEX
  5
DAB
330
D74
100
AcDbEntity
  8
レイヤー_1
 62
     7
100
AcDbVertex
100
AcDb2dVertex
 10
37.42566989063226
 20
243.4266789163467
 30
0.0
  0
VERTEX
  5
DAC
330
D74
100
AcDbEntity
  8
レイヤー_1
 62
     7
100
AcDbVertex
100
AcDb2dVertex
 10
37.17710599063226
 20
243.2435024163466
 30
0.0
  0
VERTEX
  5
DAD
330
D74
100
AcDbEntity
  8
レイヤー_1
 62
     7
100
AcDbVertex
100
AcDb2dVertex
 10
36.95317579063225
 20
243.0334549163466
 30
0.0
  0
VERTEX
  5
DAE
330
D74
100
AcDbEntity
  8
レイヤー_1
 62
     7
100
AcDbVertex
100
AcDb2dVertex
 10
36.74357549063226
 20
242.8108676163466
 30
0.0
  0
VERTEX
  5
DAF
330
D74
100
AcDbEntity
  8
レイヤー_1
 62
     7
100
AcDbVertex
100
AcDb2dVertex
 10
36.55950459063226
 20
242.5614080163466
 30
0.0
  0
VERTEX
  5
DB0
330
D74
100
AcDbEntity
  8
レイヤー_1
 62
     7
100
AcDbVertex
100
AcDb2dVertex
 10
36.40230469063225
 20
242.2926915163466
 30
0.0
  0
VERTEX
  5
DB1
330
D74
100
AcDbEntity
  8
レイヤー_1
 62
     7
100
AcDbVertex
100
AcDb2dVertex
 10
36.27197579063226
 20
242.0172553163466
 30
0.0
  0
VERTEX
  5
DB2
330
D74
100
AcDbEntity
  8
レイヤー_1
 62
     7
100
AcDbVertex
100
AcDb2dVertex
 10
36.16717629063227
 20
241.7283849163466
 30
0.0
  0
VERTEX
  5
DB3
330
D74
100
AcDbEntity
  8
レイヤー_1
 62
     7
100
AcDbVertex
100
AcDb2dVertex
 10
36.08745769063225
 20
241.4269734163466
 30
0.0
  0
VERTEX
  5
DB4
330
D74
100
AcDbEntity
  8
レイヤー_1
 62
     7
100
AcDbVertex
100
AcDb2dVertex
 10
36.04759709063225
 20
241.1195156163466
 30
0.0
  0
VERTEX
  5
DB5
330
D74
100
AcDbEntity
  8
レイヤー_1
 62
     7
100
AcDbVertex
100
AcDb2dVertex
 10
36.02923459063226
 20
240.8111621163466
 30
0.0
  0
SEQEND
  5
DB6
330
D74
100
AcDbEntity
  8
レイヤー_1
 62
     7
  0
POLYLINE
  5
DB7
330
75
100
AcDbEntity
  8
レイヤー_1
 62
     7
100
AcDb2dPolyline
 66
     1
 10
0.0
 20
0.0
 30
0.0
 70
     1
  0
VERTEX
  5
DB8
330
DB7
100
AcDbEntity
  8
レイヤー_1
 62
     7
100
AcDbVertex
100
AcDb2dVertex
 10
38.93093599063225
 20
230.8316679163466
 30
0.0
  0
VERTEX
  5
DB9
330
DB7
100
AcDbEntity
  8
レイヤー_1
 62
     7
100
AcDbVertex
100
AcDb2dVertex
 10
38.95019419063226
 20
230.7396318163466
 30
0.0
  0
VERTEX
  5
DBA
330
DB7
100
AcDbEntity
  8
レイヤー_1
 62
     7
100
AcDbVertex
100
AcDb2dVertex
 10
38.98915779063226
 20
230.6543141163467
 30
0.0
  0
VERTEX
  5
DBB
330
DB7
100
AcDbEntity
  8
レイヤー_1
 62
     7
100
AcDbVertex
100
AcDb2dVertex
 10
39.06215929063228
 20
230.5828804163466
 30
0.0
  0
VERTEX
  5
DBC
330
DB7
100
AcDbEntity
  8
レイヤー_1
 62
     7
100
AcDbVertex
100
AcDb2dVertex
 10
39.14635769063226
 20
230.5432447163466
 30
0.0
  0
VERTEX
  5
DBD
330
DB7
100
AcDbEntity
  8
レイヤー_1
 62
     7
100
AcDbVertex
100
AcDb2dVertex
 10
39.24443879063226
 20
230.5233144163466
 30
0.0
  0
VERTEX
  5
DBE
330
DB7
100
AcDbEntity
  8
レイヤー_1
 62
     7
100
AcDbVertex
100
AcDb2dVertex
 10
39.33669849063226
 20
230.5432447163466
 30
0.0
  0
VERTEX
  5
DBF
330
DB7
100
AcDbEntity
  8
レイヤー_1
 62
     7
100
AcDbVertex
100
AcDb2dVertex
 10
39.42179259063227
 20
230.5828804163466
 30
0.0
  0
VERTEX
  5
DC0
330
DB7
100
AcDbEntity
  8
レイヤー_1
 62
     7
100
AcDbVertex
100
AcDb2dVertex
 10
39.49434689063227
 20
230.6543141163467
 30
0.0
  0
VERTEX
  5
DC1
330
DB7
100
AcDbEntity
  8
レイヤー_1
 62
     7
100
AcDbVertex
100
AcDb2dVertex
 10
39.54047609063227
 20
230.7396318163466
 30
0.0
  0
VERTEX
  5
DC2
330
DB7
100
AcDbEntity
  8
レイヤー_1
 62
     7
100
AcDbVertex
100
AcDb2dVertex
 10
39.55301589063225
 20
230.8316679163466
 30
0.0
  0
VERTEX
  5
DC3
330
DB7
100
AcDbEntity
  8
レイヤー_1
 62
     7
100
AcDbVertex
100
AcDb2dVertex
 10
39.54047609063227
 20
230.9299739163466
 30
0.0
  0
VERTEX
  5
DC4
330
DB7
100
AcDbEntity
  8
レイヤー_1
 62
     7
100
AcDbVertex
100
AcDb2dVertex
 10
39.49434689063227
 20
231.0150680163466
 30
0.0
  0
VERTEX
  5
DC5
330
DB7
100
AcDbEntity
  8
レイヤー_1
 62
     7
100
AcDbVertex
100
AcDb2dVertex
 10
39.42179259063227
 20
231.0873974163466
 30
0.0
  0
VERTEX
  5
DC6
330
DB7
100
AcDbEntity
  8
レイヤー_1
 62
     7
100
AcDbVertex
100
AcDb2dVertex
 10
39.33669849063226
 20
231.1268095163466
 30
0.0
  0
VERTEX
  5
DC7
330
DB7
100
AcDbEntity
  8
レイヤー_1
 62
     7
100
AcDbVertex
100
AcDb2dVertex
 10
39.24443879063226
 20
231.1462913163467
 30
0.0
  0
VERTEX
  5
DC8
330
DB7
100
AcDbEntity
  8
レイヤー_1
 62
     7
100
AcDbVertex
100
AcDb2dVertex
 10
39.14635769063226
 20
231.1268095163466
 30
0.0
  0
VERTEX
  5
DC9
330
DB7
100
AcDbEntity
  8
レイヤー_1
 62
     7
100
AcDbVertex
100
AcDb2dVertex
 10
39.06215929063228
 20
231.0873974163466
 30
0.0
  0
VERTEX
  5
DCA
330
DB7
100
AcDbEntity
  8
レイヤー_1
 62
     7
100
AcDbVertex
100
AcDb2dVertex
 10
38.98915779063226
 20
231.0150680163466
 30
0.0
  0
VERTEX
  5
DCB
330
DB7
100
AcDbEntity
  8
レイヤー_1
 62
     7
100
AcDbVertex
100
AcDb2dVertex
 10
38.95019419063226
 20
230.9299739163466
 30
0.0
  0
VERTEX
  5
DCC
330
DB7
100
AcDbEntity
  8
レイヤー_1
 62
     7
100
AcDbVertex
100
AcDb2dVertex
 10
38.93093599063225
 20
230.8316679163466
 30
0.0
  0
SEQEND
  5
DCD
330
DB7
100
AcDbEntity
  8
レイヤー_1
 62
     7
  0
POLYLINE
  5
DCE
330
75
100
AcDbEntity
  8
レイヤー_1
 62
     7
100
AcDb2dPolyline
 66
     1
 10
0.0
 20
0.0
 30
0.0
 70
     1
  0
VERTEX
  5
DCF
330
DCE
100
AcDbEntity
  8
レイヤー_1
 62
     7
100
AcDbVertex
100
AcDb2dVertex
 10
38.39215749063226
 20
230.8316679163466
 30
0.0
  0
VERTEX
  5
DD0
330
DCE
100
AcDbEntity
  8
レイヤー_1
 62
     7
100
AcDbVertex
100
AcDb2dVertex
 10
38.41186289063227
 20
230.6675260163466
 30
0.0
  0
VERTEX
  5
DD1
330
DCE
100
AcDbEntity
  8
レイヤー_1
 62
     7
100
AcDbVertex
100
AcDb2dVertex
 10
38.45799339063225
 20
230.5105510163466
 30
0.0
  0
VERTEX
  5
DD2
330
DCE
100
AcDbEntity
  8
レイヤー_1
 62
     7
100
AcDbVertex
100
AcDb2dVertex
 10
38.53681629063228
 20
230.3593974163466
 30
0.0
  0
VERTEX
  5
DD3
330
DCE
100
AcDbEntity
  8
レイヤー_1
 62
     7
100
AcDbVertex
100
AcDb2dVertex
 10
38.64206429063226
 20
230.2348912163466
 30
0.0
  0
VERTEX
  5
DD4
330
DCE
100
AcDbEntity
  8
レイヤー_1
 62
     7
100
AcDbVertex
100
AcDb2dVertex
 10
38.77284039063225
 20
230.1296432163466
 30
0.0
  0
VERTEX
  5
DD5
330
DCE
100
AcDbEntity
  8
レイヤー_1
 62
     7
100
AcDbVertex
100
AcDb2dVertex
 10
38.91794769063226
 20
230.0517160163466
 30
0.0
  0
VERTEX
  5
DD6
330
DCE
100
AcDbEntity
  8
レイヤー_1
 62
     7
100
AcDbVertex
100
AcDb2dVertex
 10
39.07425189063227
 20
229.9984199163465
 30
0.0
  0
VERTEX
  5
DD7
330
DCE
100
AcDbEntity
  8
レイヤー_1
 62
     7
100
AcDbVertex
100
AcDb2dVertex
 10
39.24443879063226
 20
229.9861037163466
 30
0.0
  0
VERTEX
  5
DD8
330
DCE
100
AcDbEntity
  8
レイヤー_1
 62
     7
100
AcDbVertex
100
AcDb2dVertex
 10
39.40925279063224
 20
229.9984199163465
 30
0.0
  0
VERTEX
  5
DD9
330
DCE
100
AcDbEntity
  8
レイヤー_1
 62
     7
100
AcDbVertex
100
AcDb2dVertex
 10
39.56645269063226
 20
230.0517160163466
 30
0.0
  0
VERTEX
  5
DDA
330
DCE
100
AcDbEntity
  8
レイヤー_1
 62
     7
100
AcDbVertex
100
AcDb2dVertex
 10
39.71738139063227
 20
230.1296432163466
 30
0.0
  0
VERTEX
  5
DDB
330
DCE
100
AcDbEntity
  8
レイヤー_1
 62
     7
100
AcDbVertex
100
AcDb2dVertex
 10
39.84188759063227
 20
230.2348912163466
 30
0.0
  0
VERTEX
  5
DDC
330
DCE
100
AcDbEntity
  8
レイヤー_1
 62
     7
100
AcDbVertex
100
AcDb2dVertex
 10
39.94668709063225
 20
230.3593974163466
 30
0.0
  0
VERTEX
  5
DDD
330
DCE
100
AcDbEntity
  8
レイヤー_1
 62
     7
100
AcDbVertex
100
AcDb2dVertex
 10
40.02595979063225
 20
230.5105510163466
 30
0.0
  0
VERTEX
  5
DDE
330
DCE
100
AcDbEntity
  8
レイヤー_1
 62
     7
100
AcDbVertex
100
AcDb2dVertex
 10
40.07791169063223
 20
230.6675260163466
 30
0.0
  0
VERTEX
  5
DDF
330
DCE
100
AcDbEntity
  8
レイヤー_1
 62
     7
100
AcDbVertex
100
AcDb2dVertex
 10
40.09134719063225
 20
230.8316679163466
 30
0.0
  0
VERTEX
  5
DE0
330
DCE
100
AcDbEntity
  8
レイヤー_1
 62
     7
100
AcDbVertex
100
AcDb2dVertex
 10
40.07791169063223
 20
231.0023033163466
 30
0.0
  0
VERTEX
  5
DE1
330
DCE
100
AcDbEntity
  8
レイヤー_1
 62
     7
100
AcDbVertex
100
AcDb2dVertex
 10
40.02595979063225
 20
231.1595032163466
 30
0.0
  0
VERTEX
  5
DE2
330
DCE
100
AcDbEntity
  8
レイヤー_1
 62
     7
100
AcDbVertex
100
AcDb2dVertex
 10
39.94668709063225
 20
231.3034912163466
 30
0.0
  0
VERTEX
  5
DE3
330
DCE
100
AcDbEntity
  8
レイヤー_1
 62
     7
100
AcDbVertex
100
AcDb2dVertex
 10
39.84188759063227
 20
231.4351630163466
 30
0.0
  0
VERTEX
  5
DE4
330
DCE
100
AcDbEntity
  8
レイヤー_1
 62
     7
100
AcDbVertex
100
AcDb2dVertex
 10
39.71738139063227
 20
231.5397389163466
 30
0.0
  0
VERTEX
  5
DE5
330
DCE
100
AcDbEntity
  8
レイヤー_1
 62
     7
100
AcDbVertex
100
AcDb2dVertex
 10
39.56645269063226
 20
231.6185618163467
 30
0.0
  0
VERTEX
  5
DE6
330
DCE
100
AcDbEntity
  8
レイヤー_1
 62
     7
100
AcDbVertex
100
AcDb2dVertex
 10
39.40925279063224
 20
231.6707386163466
 30
0.0
  0
VERTEX
  5
DE7
330
DCE
100
AcDbEntity
  8
レイヤー_1
 62
     7
100
AcDbVertex
100
AcDb2dVertex
 10
39.24443879063226
 20
231.6841741163466
 30
0.0
  0
VERTEX
  5
DE8
330
DCE
100
AcDbEntity
  8
レイヤー_1
 62
     7
100
AcDbVertex
100
AcDb2dVertex
 10
39.07425189063227
 20
231.6707386163466
 30
0.0
  0
VERTEX
  5
DE9
330
DCE
100
AcDbEntity
  8
レイヤー_1
 62
     7
100
AcDbVertex
100
AcDb2dVertex
 10
38.91794769063226
 20
231.6185618163467
 30
0.0
  0
VERTEX
  5
DEA
330
DCE
100
AcDbEntity
  8
レイヤー_1
 62
     7
100
AcDbVertex
100
AcDb2dVertex
 10
38.77284039063225
 20
231.5397389163466
 30
0.0
  0
VERTEX
  5
DEB
330
DCE
100
AcDbEntity
  8
レイヤー_1
 62
     7
100
AcDbVertex
100
AcDb2dVertex
 10
38.64206429063226
 20
231.4351630163466
 30
0.0
  0
VERTEX
  5
DEC
330
DCE
100
AcDbEntity
  8
レイヤー_1
 62
     7
100
AcDbVertex
100
AcDb2dVertex
 10
38.53681629063228
 20
231.3034912163466
 30
0.0
  0
VERTEX
  5
DED
330
DCE
100
AcDbEntity
  8
レイヤー_1
 62
     7
100
AcDbVertex
100
AcDb2dVertex
 10
38.45799339063225
 20
231.1595032163466
 30
0.0
  0
VERTEX
  5
DEE
330
DCE
100
AcDbEntity
  8
レイヤー_1
 62
     7
100
AcDbVertex
100
AcDb2dVertex
 10
38.41186289063227
 20
231.0023033163466
 30
0.0
  0
VERTEX
  5
DEF
330
DCE
100
AcDbEntity
  8
レイヤー_1
 62
     7
100
AcDbVertex
100
AcDb2dVertex
 10
38.39215749063226
 20
230.8316679163466
 30
0.0
  0
SEQEND
  5
DF0
330
DCE
100
AcDbEntity
  8
レイヤー_1
 62
     7
  0
POLYLINE
  5
DF1
330
75
100
AcDbEntity
  8
レイヤー_1
 62
     7
100
AcDb2dPolyline
 66
     1
 10
0.0
 20
0.0
 30
0.0
 70
     1
  0
VERTEX
  5
DF2
330
DF1
100
AcDbEntity
  8
レイヤー_1
 62
     7
100
AcDbVertex
100
AcDb2dVertex
 10
37.14665219063224
 20
230.8316679163466
 30
0.0
  0
VERTEX
  5
DF3
330
DF1
100
AcDbEntity
  8
レイヤー_1
 62
     7
100
AcDbVertex
100
AcDb2dVertex
 10
37.16591039063225
 20
230.5828804163466
 30
0.0
  0
VERTEX
  5
DF4
330
DF1
100
AcDbEntity
  8
レイヤー_1
 62
     7
100
AcDbVertex
100
AcDb2dVertex
 10
37.20487399063225
 20
230.3331972163466
 30
0.0
  0
VERTEX
  5
DF5
330
DF1
100
AcDbEntity
  8
レイヤー_1
 62
     7
100
AcDbVertex
100
AcDb2dVertex
 10
37.28459389063227
 20
230.0906796163466
 30
0.0
  0
VERTEX
  5
DF6
330
DF1
100
AcDbEntity
  8
レイヤー_1
 62
     7
100
AcDbVertex
100
AcDb2dVertex
 10
37.38849769063226
 20
229.8609267163466
 30
0.0
  0
VERTEX
  5
DF7
330
DF1
100
AcDbEntity
  8
レイヤー_1
 62
     7
100
AcDbVertex
100
AcDb2dVertex
 10
37.51972099063225
 20
229.6452801163466
 30
0.0
  0
VERTEX
  5
DF8
330
DF1
100
AcDbEntity
  8
レイヤー_1
 62
     7
100
AcDbVertex
100
AcDb2dVertex
 10
37.67692089063226
 20
229.4482209163466
 30
0.0
  0
VERTEX
  5
DF9
330
DF1
100
AcDbEntity
  8
レイヤー_1
 62
     7
100
AcDbVertex
100
AcDb2dVertex
 10
37.85427469063225
 20
229.2643736163466
 30
0.0
  0
VERTEX
  5
DFA
330
DF1
100
AcDbEntity
  8
レイヤー_1
 62
     7
100
AcDbVertex
100
AcDb2dVertex
 10
38.05088539063226
 20
229.1069501163466
 30
0.0
  0
VERTEX
  5
DFB
330
DF1
100
AcDbEntity
  8
レイヤー_1
 62
     7
100
AcDbVertex
100
AcDb2dVertex
 10
38.26809979063226
 20
228.9759504163466
 30
0.0
  0
VERTEX
  5
DFC
330
DF1
100
AcDbEntity
  8
レイヤー_1
 62
     7
100
AcDbVertex
100
AcDb2dVertex
 10
38.49695699063227
 20
228.8780916163466
 30
0.0
  0
VERTEX
  5
DFD
330
DF1
100
AcDbEntity
  8
レイヤー_1
 62
     7
100
AcDbVertex
100
AcDb2dVertex
 10
38.73969819063228
 20
228.7990438163466
 30
0.0
  0
VERTEX
  5
DFE
330
DF1
100
AcDbEntity
  8
レイヤー_1
 62
     7
100
AcDbVertex
100
AcDb2dVertex
 10
38.98915779063226
 20
228.7531382163466
 30
0.0
  0
VERTEX
  5
DFF
330
DF1
100
AcDbEntity
  8
レイヤー_1
 62
     7
100
AcDbVertex
100
AcDb2dVertex
 10
39.24443879063226
 20
228.7399263163466
 30
0.0
  0
VERTEX
  5
E00
330
DF1
100
AcDbEntity
  8
レイヤー_1
 62
     7
100
AcDbVertex
100
AcDb2dVertex
 10
39.49434689063227
 20
228.7531382163466
 30
0.0
  0
VERTEX
  5
E01
330
DF1
100
AcDbEntity
  8
レイヤー_1
 62
     7
100
AcDbVertex
100
AcDb2dVertex
 10
39.74380649063228
 20
228.7990438163466
 30
0.0
  0
VERTEX
  5
E02
330
DF1
100
AcDbEntity
  8
レイヤー_1
 62
     7
100
AcDbVertex
100
AcDb2dVertex
 10
39.98654769063227
 20
228.8780916163466
 30
0.0
  0
VERTEX
  5
E03
330
DF1
100
AcDbEntity
  8
レイヤー_1
 62
     7
100
AcDbVertex
100
AcDb2dVertex
 10
40.21585339063224
 20
228.9759504163466
 30
0.0
  0
VERTEX
  5
E04
330
DF1
100
AcDbEntity
  8
レイヤー_1
 62
     7
100
AcDbVertex
100
AcDb2dVertex
 10
40.43172229063226
 20
229.1069501163466
 30
0.0
  0
VERTEX
  5
E05
330
DF1
100
AcDbEntity
  8
レイヤー_1
 62
     7
100
AcDbVertex
100
AcDb2dVertex
 10
40.63594839063225
 20
229.2643736163466
 30
0.0
  0
VERTEX
  5
E06
330
DF1
100
AcDbEntity
  8
レイヤー_1
 62
     7
100
AcDbVertex
100
AcDb2dVertex
 10
40.81330089063224
 20
229.4482209163466
 30
0.0
  0
VERTEX
  5
E07
330
DF1
100
AcDbEntity
  8
レイヤー_1
 62
     7
100
AcDbVertex
100
AcDb2dVertex
 10
40.97050079063224
 20
229.6452801163466
 30
0.0
  0
VERTEX
  5
E08
330
DF1
100
AcDbEntity
  8
レイヤー_1
 62
     7
100
AcDbVertex
100
AcDb2dVertex
 10
41.10172409063226
 20
229.8609267163466
 30
0.0
  0
VERTEX
  5
E09
330
DF1
100
AcDbEntity
  8
レイヤー_1
 62
     7
100
AcDbVertex
100
AcDb2dVertex
 10
41.20025499063226
 20
230.0906796163466
 30
0.0
  0
VERTEX
  5
E0A
330
DF1
100
AcDbEntity
  8
レイヤー_1
 62
     7
100
AcDbVertex
100
AcDb2dVertex
 10
41.27907789063224
 20
230.3331972163466
 30
0.0
  0
VERTEX
  5
E0B
330
DF1
100
AcDbEntity
  8
レイヤー_1
 62
     7
100
AcDbVertex
100
AcDb2dVertex
 10
41.32475989063225
 20
230.5828804163466
 30
0.0
  0
VERTEX
  5
E0C
330
DF1
100
AcDbEntity
  8
レイヤー_1
 62
     7
100
AcDbVertex
100
AcDb2dVertex
 10
41.33729969063224
 20
230.8316679163466
 30
0.0
  0
VERTEX
  5
E0D
330
DF1
100
AcDbEntity
  8
レイヤー_1
 62
     7
100
AcDbVertex
100
AcDb2dVertex
 10
41.32475989063225
 20
231.0873974163466
 30
0.0
  0
VERTEX
  5
E0E
330
DF1
100
AcDbEntity
  8
レイヤー_1
 62
     7
100
AcDbVertex
100
AcDb2dVertex
 10
41.27907789063224
 20
231.3364085163466
 30
0.0
  0
VERTEX
  5
E0F
330
DF1
100
AcDbEntity
  8
レイヤー_1
 62
     7
100
AcDbVertex
100
AcDb2dVertex
 10
41.20025499063226
 20
231.5791497163466
 30
0.0
  0
VERTEX
  5
E10
330
DF1
100
AcDbEntity
  8
レイヤー_1
 62
     7
100
AcDbVertex
100
AcDb2dVertex
 10
41.10172409063226
 20
231.8082318163466
 30
0.0
  0
VERTEX
  5
E11
330
DF1
100
AcDbEntity
  8
レイヤー_1
 62
     7
100
AcDbVertex
100
AcDb2dVertex
 10
40.97050079063224
 20
232.0247728163466
 30
0.0
  0
VERTEX
  5
E12
330
DF1
100
AcDbEntity
  8
レイヤー_1
 62
     7
100
AcDbVertex
100
AcDb2dVertex
 10
40.81330089063224
 20
232.2220569163467
 30
0.0
  0
VERTEX
  5
E13
330
DF1
100
AcDbEntity
  8
レイヤー_1
 62
     7
100
AcDbVertex
100
AcDb2dVertex
 10
40.63594839063225
 20
232.4054570163466
 30
0.0
  0
VERTEX
  5
E14
330
DF1
100
AcDbEntity
  8
レイヤー_1
 62
     7
100
AcDbVertex
100
AcDb2dVertex
 10
40.43172229063226
 20
232.5626556163466
 30
0.0
  0
VERTEX
  5
E15
330
DF1
100
AcDbEntity
  8
レイヤー_1
 62
     7
100
AcDbVertex
100
AcDb2dVertex
 10
40.21585339063224
 20
232.6871618163466
 30
0.0
  0
VERTEX
  5
E16
330
DF1
100
AcDbEntity
  8
レイヤー_1
 62
     7
100
AcDbVertex
100
AcDb2dVertex
 10
39.98654769063227
 20
232.7921862163466
 30
0.0
  0
VERTEX
  5
E17
330
DF1
100
AcDbEntity
  8
レイヤー_1
 62
     7
100
AcDbVertex
100
AcDb2dVertex
 10
39.74380649063228
 20
232.8703383163467
 30
0.0
  0
VERTEX
  5
E18
330
DF1
100
AcDbEntity
  8
レイヤー_1
 62
     7
100
AcDbVertex
100
AcDb2dVertex
 10
39.49434689063227
 20
232.9164675163466
 30
0.0
  0
VERTEX
  5
E19
330
DF1
100
AcDbEntity
  8
レイヤー_1
 62
     7
100
AcDbVertex
100
AcDb2dVertex
 10
39.24443879063226
 20
232.9299030163466
 30
0.0
  0
VERTEX
  5
E1A
330
DF1
100
AcDbEntity
  8
レイヤー_1
 62
     7
100
AcDbVertex
100
AcDb2dVertex
 10
38.98915779063226
 20
232.9164675163466
 30
0.0
  0
VERTEX
  5
E1B
330
DF1
100
AcDbEntity
  8
レイヤー_1
 62
     7
100
AcDbVertex
100
AcDb2dVertex
 10
38.73969819063228
 20
232.8703383163467
 30
0.0
  0
VERTEX
  5
E1C
330
DF1
100
AcDbEntity
  8
レイヤー_1
 62
     7
100
AcDbVertex
100
AcDb2dVertex
 10
38.49695699063227
 20
232.7921862163466
 30
0.0
  0
VERTEX
  5
E1D
330
DF1
100
AcDbEntity
  8
レイヤー_1
 62
     7
100
AcDbVertex
100
AcDb2dVertex
 10
38.26809979063226
 20
232.6871618163466
 30
0.0
  0
VERTEX
  5
E1E
330
DF1
100
AcDbEntity
  8
レイヤー_1
 62
     7
100
AcDbVertex
100
AcDb2dVertex
 10
38.05088539063226
 20
232.5626556163466
 30
0.0
  0
VERTEX
  5
E1F
330
DF1
100
AcDbEntity
  8
レイヤー_1
 62
     7
100
AcDbVertex
100
AcDb2dVertex
 10
37.85427469063225
 20
232.4054570163466
 30
0.0
  0
VERTEX
  5
E20
330
DF1
100
AcDbEntity
  8
レイヤー_1
 62
     7
100
AcDbVertex
100
AcDb2dVertex
 10
37.67692089063226
 20
232.2220569163467
 30
0.0
  0
VERTEX
  5
E21
330
DF1
100
AcDbEntity
  8
レイヤー_1
 62
     7
100
AcDbVertex
100
AcDb2dVertex
 10
37.51972099063225
 20
232.0247728163466
 30
0.0
  0
VERTEX
  5
E22
330
DF1
100
AcDbEntity
  8
レイヤー_1
 62
     7
100
AcDbVertex
100
AcDb2dVertex
 10
37.38849769063226
 20
231.8082318163466
 30
0.0
  0
VERTEX
  5
E23
330
DF1
100
AcDbEntity
  8
レイヤー_1
 62
     7
100
AcDbVertex
100
AcDb2dVertex
 10
37.28459389063227
 20
231.5791497163466
 30
0.0
  0
VERTEX
  5
E24
330
DF1
100
AcDbEntity
  8
レイヤー_1
 62
     7
100
AcDbVertex
100
AcDb2dVertex
 10
37.20487399063225
 20
231.3364085163466
 30
0.0
  0
VERTEX
  5
E25
330
DF1
100
AcDbEntity
  8
レイヤー_1
 62
     7
100
AcDbVertex
100
AcDb2dVertex
 10
37.16591039063225
 20
231.0873974163466
 30
0.0
  0
VERTEX
  5
E26
330
DF1
100
AcDbEntity
  8
レイヤー_1
 62
     7
100
AcDbVertex
100
AcDb2dVertex
 10
37.14665219063224
 20
230.8316679163466
 30
0.0
  0
SEQEND
  5
E27
330
DF1
100
AcDbEntity
  8
レイヤー_1
 62
     7
  0
POLYLINE
  5
E28
330
75
100
AcDbEntity
  8
レイヤー_1
 62
     7
100
AcDb2dPolyline
 66
     1
 10
0.0
 20
0.0
 30
0.0
 70
     1
  0
VERTEX
  5
E29
330
E28
100
AcDbEntity
  8
レイヤー_1
 62
     7
100
AcDbVertex
100
AcDb2dVertex
 10
39.42895819063227
 20
233.6249857163466
 30
0.0
  0
VERTEX
  5
E2A
330
E28
100
AcDbEntity
  8
レイヤー_1
 62
     7
100
AcDbVertex
100
AcDb2dVertex
 10
39.07425189063227
 20
233.6249857163466
 30
0.0
  0
VERTEX
  5
E2B
330
E28
100
AcDbEntity
  8
レイヤー_1
 62
     7
100
AcDbVertex
100
AcDb2dVertex
 10
39.07425189063227
 20
233.1988444163467
 30
0.0
  0
VERTEX
  5
E2C
330
E28
100
AcDbEntity
  8
レイヤー_1
 62
     7
100
AcDbVertex
100
AcDb2dVertex
 10
39.42895819063227
 20
233.1988444163467
 30
0.0
  0
VERTEX
  5
E2D
330
E28
100
AcDbEntity
  8
レイヤー_1
 62
     7
100
AcDbVertex
100
AcDb2dVertex
 10
39.42895819063227
 20
233.6249857163466
 30
0.0
  0
SEQEND
  5
E2E
330
E28
100
AcDbEntity
  8
レイヤー_1
 62
     7
  0
POLYLINE
  5
E2F
330
75
100
AcDbEntity
  8
レイヤー_1
 62
     7
100
AcDb2dPolyline
 66
     1
 10
0.0
 20
0.0
 30
0.0
 70
     1
  0
VERTEX
  5
E30
330
E2F
100
AcDbEntity
  8
レイヤー_1
 62
     7
100
AcDbVertex
100
AcDb2dVertex
 10
39.42895819063227
 20
228.4647150163466
 30
0.0
  0
VERTEX
  5
E31
330
E2F
100
AcDbEntity
  8
レイヤー_1
 62
     7
100
AcDbVertex
100
AcDb2dVertex
 10
39.06798199063226
 20
228.4647150163466
 30
0.0
  0
VERTEX
  5
E32
330
E2F
100
AcDbEntity
  8
レイヤー_1
 62
     7
100
AcDbVertex
100
AcDb2dVertex
 10
39.06798199063226
 20
228.0381265163466
 30
0.0
  0
VERTEX
  5
E33
330
E2F
100
AcDbEntity
  8
レイヤー_1
 62
     7
100
AcDbVertex
100
AcDb2dVertex
 10
39.42895819063227
 20
228.0381265163466
 30
0.0
  0
VERTEX
  5
E34
330
E2F
100
AcDbEntity
  8
レイヤー_1
 62
     7
100
AcDbVertex
100
AcDb2dVertex
 10
39.42895819063227
 20
228.4647150163466
 30
0.0
  0
SEQEND
  5
E35
330
E2F
100
AcDbEntity
  8
レイヤー_1
 62
     7
  0
POLYLINE
  5
E36
330
75
100
AcDbEntity
  8
レイヤー_1
 62
     7
100
AcDb2dPolyline
 66
     1
 10
0.0
 20
0.0
 30
0.0
 70
     1
  0
VERTEX
  5
E37
330
E36
100
AcDbEntity
  8
レイヤー_1
 62
     7
100
AcDbVertex
100
AcDb2dVertex
 10
36.87032029063227
 20
230.8316679163466
 30
0.0
  0
VERTEX
  5
E38
330
E36
100
AcDbEntity
  8
レイヤー_1
 62
     7
100
AcDbVertex
100
AcDb2dVertex
 10
36.89002699063227
 20
230.5689964163466
 30
0.0
  0
VERTEX
  5
E39
330
E36
100
AcDbEntity
  8
レイヤー_1
 62
     7
100
AcDbVertex
100
AcDb2dVertex
 10
36.92943909063226
 20
230.3069970163467
 30
0.0
  0
VERTEX
  5
E3A
330
E36
100
AcDbEntity
  8
レイヤー_1
 62
     7
100
AcDbVertex
100
AcDb2dVertex
 10
37.00826199063226
 20
230.0517160163466
 30
0.0
  0
VERTEX
  5
E3B
330
E36
100
AcDbEntity
  8
レイヤー_1
 62
     7
100
AcDbVertex
100
AcDb2dVertex
 10
37.10679159063225
 20
229.8087499163466
 30
0.0
  0
VERTEX
  5
E3C
330
E36
100
AcDbEntity
  8
レイヤー_1
 62
     7
100
AcDbVertex
100
AcDb2dVertex
 10
37.23756769063225
 20
229.5727271163466
 30
0.0
  0
VERTEX
  5
E3D
330
E36
100
AcDbEntity
  8
レイヤー_1
 62
     7
100
AcDbVertex
100
AcDb2dVertex
 10
37.38849769063226
 20
229.3559612163466
 30
0.0
  0
VERTEX
  5
E3E
330
E36
100
AcDbEntity
  8
レイヤー_1
 62
     7
100
AcDbVertex
100
AcDb2dVertex
 10
37.56629869063227
 20
229.1593492163467
 30
0.0
  0
VERTEX
  5
E3F
330
E36
100
AcDbEntity
  8
レイヤー_1
 62
     7
100
AcDbVertex
100
AcDb2dVertex
 10
37.76201499063227
 20
228.9831160163466
 30
0.0
  0
VERTEX
  5
E40
330
E36
100
AcDbEntity
  8
レイヤー_1
 62
     7
100
AcDbVertex
100
AcDb2dVertex
 10
37.97922809063225
 20
228.8250204163466
 30
0.0
  0
VERTEX
  5
E41
330
E36
100
AcDbEntity
  8
レイヤー_1
 62
     7
100
AcDbVertex
100
AcDb2dVertex
 10
38.21525089063225
 20
228.7007391163466
 30
0.0
  0
VERTEX
  5
E42
330
E36
100
AcDbEntity
  8
レイヤー_1
 62
     7
100
AcDbVertex
100
AcDb2dVertex
 10
38.45799339063225
 20
228.5954911163466
 30
0.0
  0
VERTEX
  5
E43
330
E36
100
AcDbEntity
  8
レイヤー_1
 62
     7
100
AcDbVertex
100
AcDb2dVertex
 10
38.71327439063227
 20
228.5236089163466
 30
0.0
  0
VERTEX
  5
E44
330
E36
100
AcDbEntity
  8
レイヤー_1
 62
     7
100
AcDbVertex
100
AcDb2dVertex
 10
38.97572229063225
 20
228.4774797163466
 30
0.0
  0
VERTEX
  5
E45
330
E36
100
AcDbEntity
  8
レイヤー_1
 62
     7
100
AcDbVertex
100
AcDb2dVertex
 10
39.24443879063226
 20
228.4647150163466
 30
0.0
  0
VERTEX
  5
E46
330
E36
100
AcDbEntity
  8
レイヤー_1
 62
     7
100
AcDbVertex
100
AcDb2dVertex
 10
39.50688669063226
 20
228.4774797163466
 30
0.0
  0
VERTEX
  5
E47
330
E36
100
AcDbEntity
  8
レイヤー_1
 62
     7
100
AcDbVertex
100
AcDb2dVertex
 10
39.76933459063224
 20
228.5236089163466
 30
0.0
  0
VERTEX
  5
E48
330
E36
100
AcDbEntity
  8
レイヤー_1
 62
     7
100
AcDbVertex
100
AcDb2dVertex
 10
40.02595979063225
 20
228.5954911163466
 30
0.0
  0
VERTEX
  5
E49
330
E36
100
AcDbEntity
  8
レイヤー_1
 62
     7
100
AcDbVertex
100
AcDb2dVertex
 10
40.26870099063224
 20
228.7007391163466
 30
0.0
  0
VERTEX
  5
E4A
330
E36
100
AcDbEntity
  8
レイヤー_1
 62
     7
100
AcDbVertex
100
AcDb2dVertex
 10
40.50472379063227
 20
228.8250204163466
 30
0.0
  0
VERTEX
  5
E4B
330
E36
100
AcDbEntity
  8
レイヤー_1
 62
     7
100
AcDbVertex
100
AcDb2dVertex
 10
40.72193689063225
 20
228.9831160163466
 30
0.0
  0
VERTEX
  5
E4C
330
E36
100
AcDbEntity
  8
レイヤー_1
 62
     7
100
AcDbVertex
100
AcDb2dVertex
 10
40.91765319063227
 20
229.1593492163467
 30
0.0
  0
VERTEX
  5
E4D
330
E36
100
AcDbEntity
  8
レイヤー_1
 62
     7
100
AcDbVertex
100
AcDb2dVertex
 10
41.09455849063226
 20
229.3559612163466
 30
0.0
  0
VERTEX
  5
E4E
330
E36
100
AcDbEntity
  8
レイヤー_1
 62
     7
100
AcDbVertex
100
AcDb2dVertex
 10
41.25220689063224
 20
229.5727271163466
 30
0.0
  0
VERTEX
  5
E4F
330
E36
100
AcDbEntity
  8
レイヤー_1
 62
     7
100
AcDbVertex
100
AcDb2dVertex
 10
41.37716029063223
 20
229.8087499163466
 30
0.0
  0
VERTEX
  5
E50
330
E36
100
AcDbEntity
  8
レイヤー_1
 62
     7
100
AcDbVertex
100
AcDb2dVertex
 10
41.48195979063226
 20
230.0517160163466
 30
0.0
  0
VERTEX
  5
E51
330
E36
100
AcDbEntity
  8
レイヤー_1
 62
     7
100
AcDbVertex
100
AcDb2dVertex
 10
41.55361839063224
 20
230.3069970163467
 30
0.0
  0
VERTEX
  5
E52
330
E36
100
AcDbEntity
  8
レイヤー_1
 62
     7
100
AcDbVertex
100
AcDb2dVertex
 10
41.59974759063227
 20
230.5689964163466
 30
0.0
  0
VERTEX
  5
E53
330
E36
100
AcDbEntity
  8
レイヤー_1
 62
     7
100
AcDbVertex
100
AcDb2dVertex
 10
41.61318309063225
 20
230.8316679163466
 30
0.0
  0
VERTEX
  5
E54
330
E36
100
AcDbEntity
  8
レイヤー_1
 62
     7
100
AcDbVertex
100
AcDb2dVertex
 10
41.59974759063227
 20
231.1001621163466
 30
0.0
  0
VERTEX
  5
E55
330
E36
100
AcDbEntity
  8
レイヤー_1
 62
     7
100
AcDbVertex
100
AcDb2dVertex
 10
41.55361839063224
 20
231.3626087163466
 30
0.0
  0
VERTEX
  5
E56
330
E36
100
AcDbEntity
  8
レイヤー_1
 62
     7
100
AcDbVertex
100
AcDb2dVertex
 10
41.48195979063226
 20
231.6185618163467
 30
0.0
  0
VERTEX
  5
E57
330
E36
100
AcDbEntity
  8
レイヤー_1
 62
     7
100
AcDbVertex
100
AcDb2dVertex
 10
41.37716029063223
 20
231.8608558163466
 30
0.0
  0
VERTEX
  5
E58
330
E36
100
AcDbEntity
  8
レイヤー_1
 62
     7
100
AcDbVertex
100
AcDb2dVertex
 10
41.25220689063224
 20
232.0968799163466
 30
0.0
  0
VERTEX
  5
E59
330
E36
100
AcDbEntity
  8
レイヤー_1
 62
     7
100
AcDbVertex
100
AcDb2dVertex
 10
41.09455849063226
 20
232.3131973163466
 30
0.0
  0
VERTEX
  5
E5A
330
E36
100
AcDbEntity
  8
レイヤー_1
 62
     7
100
AcDbVertex
100
AcDb2dVertex
 10
40.91765319063227
 20
232.5102565163466
 30
0.0
  0
VERTEX
  5
E5B
330
E36
100
AcDbEntity
  8
レイヤー_1
 62
     7
100
AcDbVertex
100
AcDb2dVertex
 10
40.72193689063225
 20
232.6871618163466
 30
0.0
  0
VERTEX
  5
E5C
330
E36
100
AcDbEntity
  8
レイヤー_1
 62
     7
100
AcDbVertex
100
AcDb2dVertex
 10
40.50472379063227
 20
232.8443617163466
 30
0.0
  0
VERTEX
  5
E5D
330
E36
100
AcDbEntity
  8
レイヤー_1
 62
     7
100
AcDbVertex
100
AcDb2dVertex
 10
40.26870099063224
 20
232.9690915163466
 30
0.0
  0
VERTEX
  5
E5E
330
E36
100
AcDbEntity
  8
レイヤー_1
 62
     7
100
AcDbVertex
100
AcDb2dVertex
 10
40.02595979063225
 20
233.0743395163466
 30
0.0
  0
VERTEX
  5
E5F
330
E36
100
AcDbEntity
  8
レイヤー_1
 62
     7
100
AcDbVertex
100
AcDb2dVertex
 10
39.76933459063224
 20
233.1459968163467
 30
0.0
  0
VERTEX
  5
E60
330
E36
100
AcDbEntity
  8
レイヤー_1
 62
     7
100
AcDbVertex
100
AcDb2dVertex
 10
39.50688669063226
 20
233.1914552163466
 30
0.0
  0
VERTEX
  5
E61
330
E36
100
AcDbEntity
  8
レイヤー_1
 62
     7
100
AcDbVertex
100
AcDb2dVertex
 10
39.24443879063226
 20
233.2048907163466
 30
0.0
  0
VERTEX
  5
E62
330
E36
100
AcDbEntity
  8
レイヤー_1
 62
     7
100
AcDbVertex
100
AcDb2dVertex
 10
38.97572229063225
 20
233.1914552163466
 30
0.0
  0
VERTEX
  5
E63
330
E36
100
AcDbEntity
  8
レイヤー_1
 62
     7
100
AcDbVertex
100
AcDb2dVertex
 10
38.71327439063227
 20
233.1459968163467
 30
0.0
  0
VERTEX
  5
E64
330
E36
100
AcDbEntity
  8
レイヤー_1
 62
     7
100
AcDbVertex
100
AcDb2dVertex
 10
38.45799339063225
 20
233.0743395163466
 30
0.0
  0
VERTEX
  5
E65
330
E36
100
AcDbEntity
  8
レイヤー_1
 62
     7
100
AcDbVertex
100
AcDb2dVertex
 10
38.21525089063225
 20
232.9690915163466
 30
0.0
  0
VERTEX
  5
E66
330
E36
100
AcDbEntity
  8
レイヤー_1
 62
     7
100
AcDbVertex
100
AcDb2dVertex
 10
37.97922809063225
 20
232.8443617163466
 30
0.0
  0
VERTEX
  5
E67
330
E36
100
AcDbEntity
  8
レイヤー_1
 62
     7
100
AcDbVertex
100
AcDb2dVertex
 10
37.76201499063227
 20
232.6871618163466
 30
0.0
  0
VERTEX
  5
E68
330
E36
100
AcDbEntity
  8
レイヤー_1
 62
     7
100
AcDbVertex
100
AcDb2dVertex
 10
37.56629869063227
 20
232.5102565163466
 30
0.0
  0
VERTEX
  5
E69
330
E36
100
AcDbEntity
  8
レイヤー_1
 62
     7
100
AcDbVertex
100
AcDb2dVertex
 10
37.38849769063226
 20
232.3131973163466
 30
0.0
  0
VERTEX
  5
E6A
330
E36
100
AcDbEntity
  8
レイヤー_1
 62
     7
100
AcDbVertex
100
AcDb2dVertex
 10
37.23756769063225
 20
232.0968799163466
 30
0.0
  0
VERTEX
  5
E6B
330
E36
100
AcDbEntity
  8
レイヤー_1
 62
     7
100
AcDbVertex
100
AcDb2dVertex
 10
37.10679159063225
 20
231.8608558163466
 30
0.0
  0
VERTEX
  5
E6C
330
E36
100
AcDbEntity
  8
レイヤー_1
 62
     7
100
AcDbVertex
100
AcDb2dVertex
 10
37.00826199063226
 20
231.6185618163467
 30
0.0
  0
VERTEX
  5
E6D
330
E36
100
AcDbEntity
  8
レイヤー_1
 62
     7
100
AcDbVertex
100
AcDb2dVertex
 10
36.92943909063226
 20
231.3626087163466
 30
0.0
  0
VERTEX
  5
E6E
330
E36
100
AcDbEntity
  8
レイヤー_1
 62
     7
100
AcDbVertex
100
AcDb2dVertex
 10
36.89002699063227
 20
231.1001621163466
 30
0.0
  0
VERTEX
  5
E6F
330
E36
100
AcDbEntity
  8
レイヤー_1
 62
     7
100
AcDbVertex
100
AcDb2dVertex
 10
36.87032029063227
 20
230.8316679163466
 30
0.0
  0
SEQEND
  5
E70
330
E36
100
AcDbEntity
  8
レイヤー_1
 62
     7
  0
POLYLINE
  5
E71
330
75
100
AcDbEntity
  8
レイヤー_1
 62
     7
100
AcDb2dPolyline
 66
     1
 10
0.0
 20
0.0
 30
0.0
 70
     1
  0
VERTEX
  5
E72
330
E71
100
AcDbEntity
  8
レイヤー_1
 62
     7
100
AcDbVertex
100
AcDb2dVertex
 10
36.09641469063226
 20
230.8316679163466
 30
0.0
  0
VERTEX
  5
E73
330
E71
100
AcDbEntity
  8
レイヤー_1
 62
     7
100
AcDbVertex
100
AcDb2dVertex
 10
36.11612009063227
 20
230.5233144163466
 30
0.0
  0
VERTEX
  5
E74
330
E71
100
AcDbEntity
  8
レイヤー_1
 62
     7
100
AcDbVertex
100
AcDb2dVertex
 10
36.16225059063225
 20
230.2219029163466
 30
0.0
  0
VERTEX
  5
E75
330
E71
100
AcDbEntity
  8
レイヤー_1
 62
     7
100
AcDbVertex
100
AcDb2dVertex
 10
36.23390789063225
 20
229.9204914163466
 30
0.0
  0
VERTEX
  5
E76
330
E71
100
AcDbEntity
  8
レイヤー_1
 62
     7
100
AcDbVertex
100
AcDb2dVertex
 10
36.33960309063227
 20
229.6316210163466
 30
0.0
  0
VERTEX
  5
E77
330
E71
100
AcDbEntity
  8
レイヤー_1
 62
     7
100
AcDbVertex
100
AcDb2dVertex
 10
36.47037919063226
 20
229.3494677163466
 30
0.0
  0
VERTEX
  5
E78
330
E71
100
AcDbEntity
  8
レイヤー_1
 62
     7
100
AcDbVertex
100
AcDb2dVertex
 10
36.62757909063227
 20
229.0872434163466
 30
0.0
  0
VERTEX
  5
E79
330
E71
100
AcDbEntity
  8
レイヤー_1
 62
     7
100
AcDbVertex
100
AcDb2dVertex
 10
36.81164999063226
 20
228.8382323163466
 30
0.0
  0
VERTEX
  5
E7A
330
E71
100
AcDbEntity
  8
レイヤー_1
 62
     7
100
AcDbVertex
100
AcDb2dVertex
 10
37.02169749063227
 20
228.6091502163466
 30
0.0
  0
VERTEX
  5
E7B
330
E71
100
AcDbEntity
  8
レイヤー_1
 62
     7
100
AcDbVertex
100
AcDb2dVertex
 10
37.25100319063229
 20
228.4053739163466
 30
0.0
  0
VERTEX
  5
E7C
330
E71
100
AcDbEntity
  8
レイヤー_1
 62
     7
100
AcDbVertex
100
AcDb2dVertex
 10
37.49374569063228
 20
228.2219738163466
 30
0.0
  0
VERTEX
  5
E7D
330
E71
100
AcDbEntity
  8
レイヤー_1
 62
     7
100
AcDbVertex
100
AcDb2dVertex
 10
37.76201499063227
 20
228.0645503163466
 30
0.0
  0
VERTEX
  5
E7E
330
E71
100
AcDbEntity
  8
レイヤー_1
 62
     7
100
AcDbVertex
100
AcDb2dVertex
 10
38.03834559063226
 20
227.9335506163466
 30
0.0
  0
VERTEX
  5
E7F
330
E71
100
AcDbEntity
  8
レイヤー_1
 62
     7
100
AcDbVertex
100
AcDb2dVertex
 10
38.33393439063227
 20
227.8285262163466
 30
0.0
  0
VERTEX
  5
E80
330
E71
100
AcDbEntity
  8
レイヤー_1
 62
     7
100
AcDbVertex
100
AcDb2dVertex
 10
38.62818029063226
 20
227.7499269163467
 30
0.0
  0
VERTEX
  5
E81
330
E71
100
AcDbEntity
  8
レイヤー_1
 62
     7
100
AcDbVertex
100
AcDb2dVertex
 10
38.93675739063226
 20
227.7044685163466
 30
0.0
  0
VERTEX
  5
E82
330
E71
100
AcDbEntity
  8
レイヤー_1
 62
     7
100
AcDbVertex
100
AcDb2dVertex
 10
39.24443879063226
 20
227.6905845163466
 30
0.0
  0
VERTEX
  5
E83
330
E71
100
AcDbEntity
  8
レイヤー_1
 62
     7
100
AcDbVertex
100
AcDb2dVertex
 10
39.55301589063225
 20
227.7044685163466
 30
0.0
  0
VERTEX
  5
E84
330
E71
100
AcDbEntity
  8
レイヤー_1
 62
     7
100
AcDbVertex
100
AcDb2dVertex
 10
39.85532309063227
 20
227.7499269163467
 30
0.0
  0
VERTEX
  5
E85
330
E71
100
AcDbEntity
  8
レイヤー_1
 62
     7
100
AcDbVertex
100
AcDb2dVertex
 10
40.15718309063226
 20
227.8285262163466
 30
0.0
  0
VERTEX
  5
E86
330
E71
100
AcDbEntity
  8
レイヤー_1
 62
     7
100
AcDbVertex
100
AcDb2dVertex
 10
40.44560629063226
 20
227.9335506163466
 30
0.0
  0
VERTEX
  5
E87
330
E71
100
AcDbEntity
  8
レイヤー_1
 62
     7
100
AcDbVertex
100
AcDb2dVertex
 10
40.72775959063224
 20
228.0645503163466
 30
0.0
  0
VERTEX
  5
E88
330
E71
100
AcDbEntity
  8
レイヤー_1
 62
     7
100
AcDbVertex
100
AcDb2dVertex
 10
40.98975899063225
 20
228.2219738163466
 30
0.0
  0
VERTEX
  5
E89
330
E71
100
AcDbEntity
  8
レイヤー_1
 62
     7
100
AcDbVertex
100
AcDb2dVertex
 10
41.23966579063226
 20
228.4053739163466
 30
0.0
  0
VERTEX
  5
E8A
330
E71
100
AcDbEntity
  8
レイヤー_1
 62
     7
100
AcDbVertex
100
AcDb2dVertex
 10
41.46852429063224
 20
228.6091502163466
 30
0.0
  0
VERTEX
  5
E8B
330
E71
100
AcDbEntity
  8
レイヤー_1
 62
     7
100
AcDbVertex
100
AcDb2dVertex
 10
41.67230189063224
 20
228.8382323163466
 30
0.0
  0
VERTEX
  5
E8C
330
E71
100
AcDbEntity
  8
レイヤー_1
 62
     7
100
AcDbVertex
100
AcDb2dVertex
 10
41.85592559063226
 20
229.0872434163466
 30
0.0
  0
VERTEX
  5
E8D
330
E71
100
AcDbEntity
  8
レイヤー_1
 62
     7
100
AcDbVertex
100
AcDb2dVertex
 10
42.01357269063224
 20
229.3494677163466
 30
0.0
  0
VERTEX
  5
E8E
330
E71
100
AcDbEntity
  8
レイヤー_1
 62
     7
100
AcDbVertex
100
AcDb2dVertex
 10
42.15061869063226
 20
229.6316210163466
 30
0.0
  0
VERTEX
  5
E8F
330
E71
100
AcDbEntity
  8
レイヤー_1
 62
     7
100
AcDbVertex
100
AcDb2dVertex
 10
42.24959549063226
 20
229.9204914163466
 30
0.0
  0
VERTEX
  5
E90
330
E71
100
AcDbEntity
  8
レイヤー_1
 62
     7
100
AcDbVertex
100
AcDb2dVertex
 10
42.32797249063224
 20
230.2219029163466
 30
0.0
  0
VERTEX
  5
E91
330
E71
100
AcDbEntity
  8
レイヤー_1
 62
     7
100
AcDbVertex
100
AcDb2dVertex
 10
42.37410169063226
 20
230.5233144163466
 30
0.0
  0
VERTEX
  5
E92
330
E71
100
AcDbEntity
  8
レイヤー_1
 62
     7
100
AcDbVertex
100
AcDb2dVertex
 10
42.38753719063224
 20
230.8316679163466
 30
0.0
  0
VERTEX
  5
E93
330
E71
100
AcDbEntity
  8
レイヤー_1
 62
     7
100
AcDbVertex
100
AcDb2dVertex
 10
42.37410169063226
 20
231.1395729163466
 30
0.0
  0
VERTEX
  5
E94
330
E71
100
AcDbEntity
  8
レイヤー_1
 62
     7
100
AcDbVertex
100
AcDb2dVertex
 10
42.32797249063224
 20
231.4477028163466
 30
0.0
  0
VERTEX
  5
E95
330
E71
100
AcDbEntity
  8
レイヤー_1
 62
     7
100
AcDbVertex
100
AcDb2dVertex
 10
42.24959549063226
 20
231.7497864163466
 30
0.0
  0
VERTEX
  5
E96
330
E71
100
AcDbEntity
  8
レイヤー_1
 62
     7
100
AcDbVertex
100
AcDb2dVertex
 10
42.15061869063226
 20
232.0379860163466
 30
0.0
  0
VERTEX
  5
E97
330
E71
100
AcDbEntity
  8
レイヤー_1
 62
     7
100
AcDbVertex
100
AcDb2dVertex
 10
42.01357269063224
 20
232.3131973163466
 30
0.0
  0
VERTEX
  5
E98
330
E71
100
AcDbEntity
  8
レイヤー_1
 62
     7
100
AcDbVertex
100
AcDb2dVertex
 10
41.85592559063226
 20
232.5821387163466
 30
0.0
  0
VERTEX
  5
E99
330
E71
100
AcDbEntity
  8
レイヤー_1
 62
     7
100
AcDbVertex
100
AcDb2dVertex
 10
41.67230189063224
 20
232.8315970163466
 30
0.0
  0
VERTEX
  5
E9A
330
E71
100
AcDbEntity
  8
レイヤー_1
 62
     7
100
AcDbVertex
100
AcDb2dVertex
 10
41.46852429063224
 20
233.0539607163466
 30
0.0
  0
VERTEX
  5
E9B
330
E71
100
AcDbEntity
  8
レイヤー_1
 62
     7
100
AcDbVertex
100
AcDb2dVertex
 10
41.23966579063226
 20
233.2640082163466
 30
0.0
  0
VERTEX
  5
E9C
330
E71
100
AcDbEntity
  8
レイヤー_1
 62
     7
100
AcDbVertex
100
AcDb2dVertex
 10
40.98975899063225
 20
233.4478568163466
 30
0.0
  0
VERTEX
  5
E9D
330
E71
100
AcDbEntity
  8
レイヤー_1
 62
     7
100
AcDbVertex
100
AcDb2dVertex
 10
40.72775959063224
 20
233.6050554163466
 30
0.0
  0
VERTEX
  5
E9E
330
E71
100
AcDbEntity
  8
レイヤー_1
 62
     7
100
AcDbVertex
100
AcDb2dVertex
 10
40.44560629063226
 20
233.7360551163466
 30
0.0
  0
VERTEX
  5
E9F
330
E71
100
AcDbEntity
  8
レイヤー_1
 62
     7
100
AcDbVertex
100
AcDb2dVertex
 10
40.15718309063226
 20
233.8408559163466
 30
0.0
  0
VERTEX
  5
EA0
330
E71
100
AcDbEntity
  8
レイヤー_1
 62
     7
100
AcDbVertex
100
AcDb2dVertex
 10
39.85532309063227
 20
233.9196788163466
 30
0.0
  0
VERTEX
  5
EA1
330
E71
100
AcDbEntity
  8
レイヤー_1
 62
     7
100
AcDbVertex
100
AcDb2dVertex
 10
39.55301589063225
 20
233.9658093163466
 30
0.0
  0
VERTEX
  5
EA2
330
E71
100
AcDbEntity
  8
レイヤー_1
 62
     7
100
AcDbVertex
100
AcDb2dVertex
 10
39.24443879063226
 20
233.9783491163466
 30
0.0
  0
VERTEX
  5
EA3
330
E71
100
AcDbEntity
  8
レイヤー_1
 62
     7
100
AcDbVertex
100
AcDb2dVertex
 10
38.93675739063226
 20
233.9658093163466
 30
0.0
  0
VERTEX
  5
EA4
330
E71
100
AcDbEntity
  8
レイヤー_1
 62
     7
100
AcDbVertex
100
AcDb2dVertex
 10
38.62818029063226
 20
233.9196788163466
 30
0.0
  0
VERTEX
  5
EA5
330
E71
100
AcDbEntity
  8
レイヤー_1
 62
     7
100
AcDbVertex
100
AcDb2dVertex
 10
38.33393439063227
 20
233.8408559163466
 30
0.0
  0
VERTEX
  5
EA6
330
E71
100
AcDbEntity
  8
レイヤー_1
 62
     7
100
AcDbVertex
100
AcDb2dVertex
 10
38.03834559063226
 20
233.7360551163466
 30
0.0
  0
VERTEX
  5
EA7
330
E71
100
AcDbEntity
  8
レイヤー_1
 62
     7
100
AcDbVertex
100
AcDb2dVertex
 10
37.76201499063227
 20
233.6050554163466
 30
0.0
  0
VERTEX
  5
EA8
330
E71
100
AcDbEntity
  8
レイヤー_1
 62
     7
100
AcDbVertex
100
AcDb2dVertex
 10
37.49374569063228
 20
233.4478568163466
 30
0.0
  0
VERTEX
  5
EA9
330
E71
100
AcDbEntity
  8
レイヤー_1
 62
     7
100
AcDbVertex
100
AcDb2dVertex
 10
37.25100319063229
 20
233.2640082163466
 30
0.0
  0
VERTEX
  5
EAA
330
E71
100
AcDbEntity
  8
レイヤー_1
 62
     7
100
AcDbVertex
100
AcDb2dVertex
 10
37.02169749063227
 20
233.0539607163466
 30
0.0
  0
VERTEX
  5
EAB
330
E71
100
AcDbEntity
  8
レイヤー_1
 62
     7
100
AcDbVertex
100
AcDb2dVertex
 10
36.81164999063226
 20
232.8315970163466
 30
0.0
  0
VERTEX
  5
EAC
330
E71
100
AcDbEntity
  8
レイヤー_1
 62
     7
100
AcDbVertex
100
AcDb2dVertex
 10
36.62757909063227
 20
232.5821387163466
 30
0.0
  0
VERTEX
  5
EAD
330
E71
100
AcDbEntity
  8
レイヤー_1
 62
     7
100
AcDbVertex
100
AcDb2dVertex
 10
36.47037919063226
 20
232.3131973163466
 30
0.0
  0
VERTEX
  5
EAE
330
E71
100
AcDbEntity
  8
レイヤー_1
 62
     7
100
AcDbVertex
100
AcDb2dVertex
 10
36.33960309063227
 20
232.0379860163466
 30
0.0
  0
VERTEX
  5
EAF
330
E71
100
AcDbEntity
  8
レイヤー_1
 62
     7
100
AcDbVertex
100
AcDb2dVertex
 10
36.23390789063225
 20
231.7497864163466
 30
0.0
  0
VERTEX
  5
EB0
330
E71
100
AcDbEntity
  8
レイヤー_1
 62
     7
100
AcDbVertex
100
AcDb2dVertex
 10
36.16225059063225
 20
231.4477028163466
 30
0.0
  0
VERTEX
  5
EB1
330
E71
100
AcDbEntity
  8
レイヤー_1
 62
     7
100
AcDbVertex
100
AcDb2dVertex
 10
36.11612009063227
 20
231.1395729163466
 30
0.0
  0
VERTEX
  5
EB2
330
E71
100
AcDbEntity
  8
レイヤー_1
 62
     7
100
AcDbVertex
100
AcDb2dVertex
 10
36.09641469063226
 20
230.8316679163466
 30
0.0
  0
SEQEND
  5
EB3
330
E71
100
AcDbEntity
  8
レイヤー_1
 62
     7
  0
INSERT
  5
EC2
330
75
100
AcDbEntity
  8
レイヤー_1
 62
     7
100
AcDbBlockReference
  2
AI9-BLK10
 10
69.07453909063224
 20
235.8077559163466
 30
0.0
 41
1.3
 42
1.299999999999995
 43
1.3
  0
MTEXT
  5
EC4
330
75
100
AcDbEntity
  8
レイヤー_1
 62
     7
100
AcDbMText
 10
37.21844884363982
 20
237.5098179426716
 30
0.0
 40
0.70735626
 41
0.0
 71
     1
 72
     2
  1
\W0.80;\fArial|b1|i0;SHORT
  7
STD
 11
-1.0
 21
0.0
 31
0.0
 73
     1
 44
1.0
1001
ACAD
1000
MTEXTBEGIN
1070
    73
1070
     1
1070
    44
1040
1.0
1070
    74
1070
     0
1000
MTEXTEND
  0
MTEXT
  5
EC5
330
75
100
AcDbEntity
  8
レイヤー_1
 62
     7
100
AcDbMText
 10
36.91474847193832
 20
234.3319567631787
 30
0.0
 40
0.7073562600000001
 41
0.0
 71
     1
 72
     2
  1
{\fArial|b1|i0|c0|p34;\W0.87;LONG}
  7
STD
 11
-1.0
 21
0.0
 31
0.0
 73
     1
 44
1.0
1001
ACAD
1000
MTEXTBEGIN
1070
    73
1070
     1
1070
    44
1040
1.0
1070
    74
1070
     0
1000
MTEXTEND
  0
MTEXT
  5
EC6
330
75
100
AcDbEntity
  8
レイヤー_1
 62
     7
100
AcDbMText
 10
31.92502409063227
 20
237.2437606163466
 30
0.0
 40
0.7859514
 41
0.0
 71
     1
 72
     2
  1
\W0.93;\fArial|b1|i0;S
  7
STD
 11
-1.0
 21
0.0
 31
0.0
 73
     1
 44
1.0
1001
ACAD
1000
MTEXTBEGIN
1070
    73
1070
     1
1070
    44
1040
1.0
1070
    74
1070
     0
1000
MTEXTEND
  0
MTEXT
  5
EC7
330
75
100
AcDbEntity
  8
レイヤー_1
 62
     7
100
AcDbMText
 10
31.92502409063227
 20
234.3319567631787
 30
0.0
 40
0.7859514
 41
0.0
 71
     1
 72
     2
  1
\fArial|b1|i0;L
  7
STD
 11
-1.0
 21
0.0
 31
0.0
 73
     1
 44
1.0
1001
ACAD
1000
MTEXTBEGIN
1070
    73
1070
     1
1070
    44
1040
1.0
1070
    74
1070
     0
1000
MTEXTEND
  0
INSERT
  5
EC8
330
75
100
AcDbEntity
  8
レイヤー_1
 62
     7
100
AcDbBlockReference
  2
AI9-BLK12
 10
39.20457949063227
 20
227.5048388129698
 30
0.0
 41
1.3
 42
1.299999999999995
 43
1.3
  0
POLYLINE
  5
ECB
330
75
100
AcDbEntity
  8
レイヤー_1
 62
     7
100
AcDb2dPolyline
 66
     1
 10
0.0
 20
0.0
 30
0.0
 70
     1
  0
VERTEX
  5
ECC
330
ECB
100
AcDbEntity
  8
レイヤー_1
 62
     7
100
AcDbVertex
100
AcDb2dVertex
 10
43.15696559063225
 20
199.1836352093891
 30
0.0
  0
VERTEX
  5
ECD
330
ECB
100
AcDbEntity
  8
レイヤー_1
 62
     7
100
AcDbVertex
100
AcDb2dVertex
 10
43.15696559063225
 20
198.5458786093892
 30
0.0
  0
VERTEX
  5
ECE
330
ECB
100
AcDbEntity
  8
レイヤー_1
 62
     7
100
AcDbVertex
100
AcDb2dVertex
 10
43.65230069063223
 20
198.5458786093892
 30
0.0
  0
VERTEX
  5
ECF
330
ECB
100
AcDbEntity
  8
レイヤー_1
 62
     7
100
AcDbVertex
100
AcDb2dVertex
 10
43.65230069063223
 20
199.1836352093891
 30
0.0
  0
SEQEND
  5
ED0
330
ECB
100
AcDbEntity
  8
レイヤー_1
 62
     7
  0
POLYLINE
  5
ED1
330
75
100
AcDbEntity
  8
レイヤー_1
 62
     7
100
AcDb2dPolyline
 66
     1
 10
0.0
 20
0.0
 30
0.0
 70
     1
  0
VERTEX
  5
ED2
330
ED1
100
AcDbEntity
  8
レイヤー_1
 62
     7
100
AcDbVertex
100
AcDb2dVertex
 10
37.49419289063226
 20
199.1836352093891
 30
0.0
  0
VERTEX
  5
ED3
330
ED1
100
AcDbEntity
  8
レイヤー_1
 62
     7
100
AcDbVertex
100
AcDb2dVertex
 10
37.49419289063226
 20
198.5458786093892
 30
0.0
  0
VERTEX
  5
ED4
330
ED1
100
AcDbEntity
  8
レイヤー_1
 62
     7
100
AcDbVertex
100
AcDb2dVertex
 10
37.98952929063226
 20
198.5458786093892
 30
0.0
  0
VERTEX
  5
ED5
330
ED1
100
AcDbEntity
  8
レイヤー_1
 62
     7
100
AcDbVertex
100
AcDb2dVertex
 10
37.98952929063226
 20
199.1836352093891
 30
0.0
  0
SEQEND
  5
ED6
330
ED1
100
AcDbEntity
  8
レイヤー_1
 62
     7
  0
POLYLINE
  5
ED7
330
75
100
AcDbEntity
  8
レイヤー_1
 62
     7
100
AcDb2dPolyline
 66
     1
 10
0.0
 20
0.0
 30
0.0
 70
     1
  0
VERTEX
  5
ED8
330
ED7
100
AcDbEntity
  8
レイヤー_1
 62
     7
100
AcDbVertex
100
AcDb2dVertex
 10
44.00790399063224
 20
196.5287063093891
 30
0.0
  0
VERTEX
  5
ED9
330
ED7
100
AcDbEntity
  8
レイヤー_1
 62
     7
100
AcDbVertex
100
AcDb2dVertex
 10
44.00790399063224
 20
195.6222332093891
 30
0.0
  0
VERTEX
  5
EDA
330
ED7
100
AcDbEntity
  8
レイヤー_1
 62
     7
100
AcDbVertex
100
AcDb2dVertex
 10
37.26757429063227
 20
195.6222332093891
 30
0.0
  0
VERTEX
  5
EDB
330
ED7
100
AcDbEntity
  8
レイヤー_1
 62
     7
100
AcDbVertex
100
AcDb2dVertex
 10
37.26757429063227
 20
196.5287063093891
 30
0.0
  0
SEQEND
  5
EDC
330
ED7
100
AcDbEntity
  8
レイヤー_1
 62
     7
  0
POLYLINE
  5
EDD
330
75
100
AcDbEntity
  8
レイヤー_1
 62
     7
100
AcDb2dPolyline
 66
     1
 10
0.0
 20
0.0
 30
0.0
 70
     1
  0
VERTEX
  5
EDE
330
EDD
100
AcDbEntity
  8
レイヤー_1
 62
     7
100
AcDbVertex
100
AcDb2dVertex
 10
43.15875699063226
 20
196.5287063093891
 30
0.0
  0
VERTEX
  5
EDF
330
EDD
100
AcDbEntity
  8
レイヤー_1
 62
     7
100
AcDbVertex
100
AcDb2dVertex
 10
43.15875699063226
 20
199.9924744093893
 30
0.0
  0
VERTEX
  5
EE0
330
EDD
100
AcDbEntity
  8
レイヤー_1
 62
     7
100
AcDbVertex
100
AcDb2dVertex
 10
38.06029089063225
 20
199.9924744093893
 30
0.0
  0
VERTEX
  5
EE1
330
EDD
100
AcDbEntity
  8
レイヤー_1
 62
     7
100
AcDbVertex
100
AcDb2dVertex
 10
38.06029089063225
 20
196.5287063093891
 30
0.0
  0
SEQEND
  5
EE2
330
EDD
100
AcDbEntity
  8
レイヤー_1
 62
     7
  0
POLYLINE
  5
EE3
330
75
100
AcDbEntity
  8
レイヤー_1
 62
     7
100
AcDb2dPolyline
 66
     1
 10
0.0
 20
0.0
 30
0.0
 70
     1
  0
VERTEX
  5
EE4
330
EE3
100
AcDbEntity
  8
レイヤー_1
 62
     7
100
AcDbVertex
100
AcDb2dVertex
 10
168.2431462906323
 20
199.1836352093891
 30
0.0
  0
VERTEX
  5
EE5
330
EE3
100
AcDbEntity
  8
レイヤー_1
 62
     7
100
AcDbVertex
100
AcDb2dVertex
 10
168.2431462906323
 20
198.5458786093892
 30
0.0
  0
VERTEX
  5
EE6
330
EE3
100
AcDbEntity
  8
レイヤー_1
 62
     7
100
AcDbVertex
100
AcDb2dVertex
 10
168.7384813906323
 20
198.5458786093892
 30
0.0
  0
VERTEX
  5
EE7
330
EE3
100
AcDbEntity
  8
レイヤー_1
 62
     7
100
AcDbVertex
100
AcDb2dVertex
 10
168.7384813906323
 20
199.1836352093891
 30
0.0
  0
SEQEND
  5
EE8
330
EE3
100
AcDbEntity
  8
レイヤー_1
 62
     7
  0
POLYLINE
  5
EE9
330
75
100
AcDbEntity
  8
レイヤー_1
 62
     7
100
AcDb2dPolyline
 66
     1
 10
0.0
 20
0.0
 30
0.0
 70
     1
  0
VERTEX
  5
EEA
330
EE9
100
AcDbEntity
  8
レイヤー_1
 62
     7
100
AcDbVertex
100
AcDb2dVertex
 10
162.5803735906321
 20
199.1836352093891
 30
0.0
  0
VERTEX
  5
EEB
330
EE9
100
AcDbEntity
  8
レイヤー_1
 62
     7
100
AcDbVertex
100
AcDb2dVertex
 10
162.5803735906321
 20
198.5458786093892
 30
0.0
  0
VERTEX
  5
EEC
330
EE9
100
AcDbEntity
  8
レイヤー_1
 62
     7
100
AcDbVertex
100
AcDb2dVertex
 10
163.0757086906323
 20
198.5458786093892
 30
0.0
  0
VERTEX
  5
EED
330
EE9
100
AcDbEntity
  8
レイヤー_1
 62
     7
100
AcDbVertex
100
AcDb2dVertex
 10
163.0757086906323
 20
199.1836352093891
 30
0.0
  0
SEQEND
  5
EEE
330
EE9
100
AcDbEntity
  8
レイヤー_1
 62
     7
  0
POLYLINE
  5
EF2
330
75
100
AcDbEntity
  8
レイヤー_1
 62
     7
100
AcDb2dPolyline
 66
     1
 10
0.0
 20
0.0
 30
0.0
  0
VERTEX
  5
EF3
330
EF2
100
AcDbEntity
  8
レイヤー_1
 62
     7
100
AcDbVertex
100
AcDb2dVertex
 10
158.6499327906323
 20
196.1740000093892
 30
0.0
  0
VERTEX
  5
EF4
330
EF2
100
AcDbEntity
  8
レイヤー_1
 62
     7
100
AcDbVertex
100
AcDb2dVertex
 10
160.7750401906323
 20
196.1740000093892
 30
0.0
  0
VERTEX
  5
EF5
330
EF2
100
AcDbEntity
  8
レイヤー_1
 62
     7
100
AcDbVertex
100
AcDb2dVertex
 10
160.7750401906323
 20
195.5989437093892
 30
0.0
  0
SEQEND
  5
EF6
330
EF2
100
AcDbEntity
  8
レイヤー_1
 62
     7
  0
SPLINE
  5
EF7
330
75
100
AcDbEntity
  8
レイヤー_1
 62
     7
100
AcDbSpline
210
0.0
220
0.0
230
1.0
 70
    11
 71
     3
 72
    14
 73
    10
 74
     0
 42
0.0000000001
 43
0.0000000001
 40
0.0
 40
0.0
 40
0.0
 40
0.0
 40
1.0
 40
1.0
 40
1.0
 40
2.0
 40
2.0
 40
2.0
 40
3.0
 40
3.0
 40
3.0
 40
3.0
 10
156.9646267069517
 20
127.8118924504612
 30
0.0
 10
156.9646267069517
 20
127.8118924504612
 30
0.0
 10
156.9646267069517
 20
126.9690153888292
 30
0.0
 10
157.4604103983579
 20
126.275276510791
 30
0.0
 10
157.4604103983579
 20
126.275276510791
 30
0.0
 10
161.8216945780454
 20
127.3649257620931
 30
0.0
 10
167.9663668870731
 20
127.8118924504612
 30
0.0
 10
167.9663668870731
 20
127.8118924504612
 30
0.0
 10
156.9646267069517
 20
127.8118924504612
 30
0.0
 10
156.9646267069517
 20
127.8118924504612
 30
0.0
  0
CIRCLE
  5
EF8
330
75
100
AcDbEntity
  8
レイヤー_1
 62
     7
100
AcDbCircle
 10
163.0107697906322
 20
191.0997178093891
 30
0.0
 40
1.1895221
  0
CIRCLE
  5
EF9
330
75
100
AcDbEntity
  8
レイヤー_1
 62
     7
100
AcDbCircle
 10
157.9552985906322
 20
191.0997178093891
 30
0.0
 40
1.1895221
  0
CIRCLE
  5
EFA
330
75
100
AcDbEntity
  8
レイヤー_1
 62
     7
100
AcDbCircle
 10
163.0107697906322
 20
132.8657960163466
 30
0.0
 40
1.1892985
  0
CIRCLE
  5
EFB
330
75
100
AcDbEntity
  8
レイヤー_1
 62
     7
100
AcDbCircle
 10
157.9552985906322
 20
132.8657960163466
 30
0.0
 40
1.1892985
  0
LINE
  5
EFC
330
75
100
AcDbEntity
  8
レイヤー_1
 62
     7
100
AcDbLine
 10
160.7065171906322
 20
130.2361716163465
 30
0.0
 11
160.7065171906322
 21
149.1416757663465
 31
0.0
  0
LINE
  5
EFD
330
75
100
AcDbEntity
  8
レイヤー_1
 62
     7
100
AcDbLine
 10
160.4086884906323
 20
130.2361716163465
 30
0.0
 11
160.4086884906323
 21
152.2896664568179
 31
0.0
  0
LINE
  5
EFE
330
75
100
AcDbEntity
  8
レイヤー_1
 62
     7
100
AcDbLine
 10
148.4386693906323
 20
193.4662235093891
 30
0.0
 11
172.2309131906321
 21
193.4662235093891
 31
0.0
  0
LINE
  5
EFF
330
75
100
AcDbEntity
  8
レイヤー_1
 62
     7
100
AcDbLine
 10
148.4386693906323
 20
130.2361716163465
 30
0.0
 11
172.2309131906321
 21
130.2361716163465
 31
0.0
  0
POLYLINE
  5
F00
330
75
100
AcDbEntity
  8
レイヤー_1
 62
     7
100
AcDb2dPolyline
 66
     1
 10
0.0
 20
0.0
 30
0.0
 70
     1
  0
VERTEX
  5
F01
330
F00
100
AcDbEntity
  8
レイヤー_1
 62
     7
100
AcDbVertex
100
AcDb2dVertex
 10
169.0940846906322
 20
196.5287063093891
 30
0.0
  0
VERTEX
  5
F02
330
F00
100
AcDbEntity
  8
レイヤー_1
 62
     7
100
AcDbVertex
100
AcDb2dVertex
 10
169.0940846906322
 20
195.6222332093891
 30
0.0
  0
VERTEX
  5
F03
330
F00
100
AcDbEntity
  8
レイヤー_1
 62
     7
100
AcDbVertex
100
AcDb2dVertex
 10
162.3537549906322
 20
195.6222332093891
 30
0.0
  0
VERTEX
  5
F04
330
F00
100
AcDbEntity
  8
レイヤー_1
 62
     7
100
AcDbVertex
100
AcDb2dVertex
 10
162.3537549906322
 20
196.5287063093891
 30
0.0
  0
SEQEND
  5
F05
330
F00
100
AcDbEntity
  8
レイヤー_1
 62
     7
  0
POLYLINE
  5
F06
330
75
100
AcDbEntity
  8
レイヤー_1
 62
     7
100
AcDb2dPolyline
 66
     1
 10
0.0
 20
0.0
 30
0.0
 70
     1
  0
VERTEX
  5
F07
330
F06
100
AcDbEntity
  8
レイヤー_1
 62
     7
100
AcDbVertex
100
AcDb2dVertex
 10
106.1824033906322
 20
197.0889829093891
 30
0.0
  0
VERTEX
  5
F08
330
F06
100
AcDbEntity
  8
レイヤー_1
 62
     7
100
AcDbVertex
100
AcDb2dVertex
 10
106.1824033906322
 20
196.5797625093891
 30
0.0
  0
VERTEX
  5
F09
330
F06
100
AcDbEntity
  8
レイヤー_1
 62
     7
100
AcDbVertex
100
AcDb2dVertex
 10
98.17775869063224
 20
196.5797625093891
 30
0.0
  0
VERTEX
  5
F0A
330
F06
100
AcDbEntity
  8
レイヤー_1
 62
     7
100
AcDbVertex
100
AcDb2dVertex
 10
98.17775869063224
 20
197.0889829093891
 30
0.0
  0
SEQEND
  5
F0B
330
F06
100
AcDbEntity
  8
レイヤー_1
 62
     7
  0
POLYLINE
  5
F0C
330
75
100
AcDbEntity
  8
レイヤー_1
 62
     7
100
AcDb2dPolyline
 66
     1
 10
0.0
 20
0.0
 30
0.0
 70
     1
  0
VERTEX
  5
F0D
330
F0C
100
AcDbEntity
  8
レイヤー_1
 62
     7
100
AcDbVertex
100
AcDb2dVertex
 10
106.3060138906323
 20
196.5385590093891
 30
0.0
  0
VERTEX
  5
F0E
330
F0C
100
AcDbEntity
  8
レイヤー_1
 62
     7
100
AcDbVertex
100
AcDb2dVertex
 10
106.3060138906323
 20
195.6222332093891
 30
0.0
  0
VERTEX
  5
F0F
330
F0C
100
AcDbEntity
  8
レイヤー_1
 62
     7
100
AcDbVertex
100
AcDb2dVertex
 10
98.05414819063223
 20
195.6222332093891
 30
0.0
  0
VERTEX
  5
F10
330
F0C
100
AcDbEntity
  8
レイヤー_1
 62
     7
100
AcDbVertex
100
AcDb2dVertex
 10
98.05414819063223
 20
196.5385590093891
 30
0.0
  0
SEQEND
  5
F11
330
F0C
100
AcDbEntity
  8
レイヤー_1
 62
     7
  0
LWPOLYLINE
  5
F12
330
75
100
AcDbEntity
  8
レイヤー_1
 62
     7
100
AcDbPolyline
 90
        4
 70
     1
 43
0.0
 10
105.6503432906322
 20
201.0391291093891
 10
105.9719086906322
 20
197.1530261093892
 10
98.38959759063229
 20
197.1530261093892
 10
98.71116299063224
 20
201.0391291093891
  0
POLYLINE
  5
F18
330
75
100
AcDbEntity
  8
レイヤー_1
 62
     7
100
AcDb2dPolyline
 66
     1
 10
0.0
 20
0.0
 30
0.0
 70
     1
  0
VERTEX
  5
F19
330
F18
100
AcDbEntity
  8
レイヤー_1
 62
     7
100
AcDbVertex
100
AcDb2dVertex
 10
158.4640704906322
 20
197.0889829093891
 30
0.0
  0
VERTEX
  5
F1A
330
F18
100
AcDbEntity
  8
レイヤー_1
 62
     7
100
AcDbVertex
100
AcDb2dVertex
 10
158.4640704906322
 20
196.5797625093891
 30
0.0
  0
VERTEX
  5
F1B
330
F18
100
AcDbEntity
  8
レイヤー_1
 62
     7
100
AcDbVertex
100
AcDb2dVertex
 10
150.4594257906323
 20
196.5797625093891
 30
0.0
  0
VERTEX
  5
F1C
330
F18
100
AcDbEntity
  8
レイヤー_1
 62
     7
100
AcDbVertex
100
AcDb2dVertex
 10
150.4594257906323
 20
197.0889829093891
 30
0.0
  0
SEQEND
  5
F1D
330
F18
100
AcDbEntity
  8
レイヤー_1
 62
     7
  0
POLYLINE
  5
F1E
330
75
100
AcDbEntity
  8
レイヤー_1
 62
     7
100
AcDb2dPolyline
 66
     1
 10
0.0
 20
0.0
 30
0.0
 70
     1
  0
VERTEX
  5
F1F
330
F1E
100
AcDbEntity
  8
レイヤー_1
 62
     7
100
AcDbVertex
100
AcDb2dVertex
 10
158.5876796906322
 20
196.5385590093891
 30
0.0
  0
VERTEX
  5
F20
330
F1E
100
AcDbEntity
  8
レイヤー_1
 62
     7
100
AcDbVertex
100
AcDb2dVertex
 10
158.5876796906322
 20
195.6222332093891
 30
0.0
  0
VERTEX
  5
F21
330
F1E
100
AcDbEntity
  8
レイヤー_1
 62
     7
100
AcDbVertex
100
AcDb2dVertex
 10
150.3358152906321
 20
195.6222332093891
 30
0.0
  0
VERTEX
  5
F22
330
F1E
100
AcDbEntity
  8
レイヤー_1
 62
     7
100
AcDbVertex
100
AcDb2dVertex
 10
150.3358152906321
 20
196.5385590093891
 30
0.0
  0
SEQEND
  5
F23
330
F1E
100
AcDbEntity
  8
レイヤー_1
 62
     7
  0
POLYLINE
  5
F24
330
75
100
AcDbEntity
  8
レイヤー_1
 62
     7
100
AcDb2dPolyline
 66
     1
 10
0.0
 20
0.0
 30
0.0
 70
     1
  0
VERTEX
  5
F25
330
F24
100
AcDbEntity
  8
レイヤー_1
 62
     7
100
AcDbVertex
100
AcDb2dVertex
 10
157.9320090906322
 20
201.0391291093891
 30
0.0
  0
VERTEX
  5
F26
330
F24
100
AcDbEntity
  8
レイヤー_1
 62
     7
100
AcDbVertex
100
AcDb2dVertex
 10
158.2535744906323
 20
197.1530261093892
 30
0.0
  0
VERTEX
  5
F27
330
F24
100
AcDbEntity
  8
レイヤー_1
 62
     7
100
AcDbVertex
100
AcDb2dVertex
 10
150.6712646906322
 20
197.1530261093892
 30
0.0
  0
VERTEX
  5
F28
330
F24
100
AcDbEntity
  8
レイヤー_1
 62
     7
100
AcDbVertex
100
AcDb2dVertex
 10
150.9928287906322
 20
201.0391291093891
 30
0.0
  0
SEQEND
  5
F29
330
F24
100
AcDbEntity
  8
レイヤー_1
 62
     7
  0
POLYLINE
  5
F2A
330
75
100
AcDbEntity
  8
レイヤー_1
 62
     7
100
AcDb2dPolyline
 66
     1
 10
0.0
 20
0.0
 30
0.0
  0
VERTEX
  5
F2B
330
F2A
100
AcDbEntity
  8
レイヤー_1
 62
     7
100
AcDbVertex
100
AcDb2dVertex
 10
168.2449376906322
 20
196.5287063093891
 30
0.0
  0
VERTEX
  5
F2C
330
F2A
100
AcDbEntity
  8
レイヤー_1
 62
     7
100
AcDbVertex
100
AcDb2dVertex
 10
168.2449376906322
 20
199.9924744093893
 30
0.0
  0
VERTEX
  5
F2D
330
F2A
100
AcDbEntity
  8
レイヤー_1
 62
     7
100
AcDbVertex
100
AcDb2dVertex
 10
163.1464715906322
 20
199.9924744093893
 30
0.0
  0
VERTEX
  5
F2E
330
F2A
100
AcDbEntity
  8
レイヤー_1
 62
     7
100
AcDbVertex
100
AcDb2dVertex
 10
163.1464715906322
 20
196.5287063093891
 30
0.0
  0
SEQEND
  5
F2F
330
F2A
100
AcDbEntity
  8
レイヤー_1
 62
     7
  0
POLYLINE
  5
F32
330
75
100
AcDbEntity
  8
レイヤー_1
 62
     7
100
AcDb2dPolyline
 66
     1
 10
0.0
 20
0.0
 30
0.0
 70
     1
  0
VERTEX
  5
F33
330
F32
100
AcDbEntity
  8
レイヤー_1
 62
     7
100
AcDbVertex
100
AcDb2dVertex
 10
105.9862398906322
 20
91.69134061634665
 30
0.0
  0
VERTEX
  5
F34
330
F32
100
AcDbEntity
  8
レイヤー_1
 62
     7
100
AcDbVertex
100
AcDb2dVertex
 10
98.52395649063224
 20
91.69134061634665
 30
0.0
  0
VERTEX
  5
F35
330
F32
100
AcDbEntity
  8
レイヤー_1
 62
     7
100
AcDbVertex
100
AcDb2dVertex
 10
98.52395649063224
 20
102.5121441163466
 30
0.0
  0
VERTEX
  5
F36
330
F32
100
AcDbEntity
  8
レイヤー_1
 62
     7
100
AcDbVertex
100
AcDb2dVertex
 10
105.9862398906322
 20
102.5121441163466
 30
0.0
  0
SEQEND
  5
F37
330
F32
100
AcDbEntity
  8
レイヤー_1
 62
     7
  0
POLYLINE
  5
F38
330
75
100
AcDbEntity
  8
レイヤー_1
 62
     7
100
AcDb2dPolyline
 66
     1
 10
0.0
 20
0.0
 30
0.0
 70
     1
  0
VERTEX
  5
F39
330
F38
100
AcDbEntity
  8
レイヤー_1
 62
     7
100
AcDbVertex
100
AcDb2dVertex
 10
168.8647789906322
 20
128.4147156163466
 30
0.0
  0
VERTEX
  5
F3A
330
F38
100
AcDbEntity
  8
レイヤー_1
 62
     7
100
AcDbVertex
100
AcDb2dVertex
 10
168.8647789906322
 20
127.8118926163466
 30
0.0
  0
VERTEX
  5
F3B
330
F38
100
AcDbEntity
  8
レイヤー_1
 62
     7
100
AcDbVertex
100
AcDb2dVertex
 10
156.1396639906323
 20
127.8118926163466
 30
0.0
  0
VERTEX
  5
F3C
330
F38
100
AcDbEntity
  8
レイヤー_1
 62
     7
100
AcDbVertex
100
AcDb2dVertex
 10
156.1396639906323
 20
128.4147156163466
 30
0.0
  0
SEQEND
  5
F3D
330
F38
100
AcDbEntity
  8
レイヤー_1
 62
     7
  0
POLYLINE
  5
F3E
330
75
100
AcDbEntity
  8
レイヤー_1
 62
     7
100
AcDb2dPolyline
 66
     1
 10
0.0
 20
0.0
 30
0.0
 70
     1
  0
VERTEX
  5
F3F
330
F3E
100
AcDbEntity
  8
レイヤー_1
 62
     7
100
AcDbVertex
100
AcDb2dVertex
 10
107.2111427906322
 20
90.75441241634663
 30
0.0
  0
VERTEX
  5
F40
330
F3E
100
AcDbEntity
  8
レイヤー_1
 62
     7
100
AcDbVertex
100
AcDb2dVertex
 10
97.37921939063223
 20
90.75441241634663
 30
0.0
  0
VERTEX
  5
F41
330
F3E
100
AcDbEntity
  8
レイヤー_1
 62
     7
100
AcDbVertex
100
AcDb2dVertex
 10
97.37921939063223
 20
103.4795274163466
 30
0.0
  0
VERTEX
  5
F42
330
F3E
100
AcDbEntity
  8
レイヤー_1
 62
     7
100
AcDbVertex
100
AcDb2dVertex
 10
107.2111427906322
 20
103.4795274163466
 30
0.0
  0
SEQEND
  5
F43
330
F3E
100
AcDbEntity
  8
レイヤー_1
 62
     7
  0
INSERT
  5
F45
330
75
100
AcDbEntity
  8
レイヤー_1
 62
     7
100
AcDbBlockReference
  2
AI9-BLK14
 10
68.73573179063225
 20
85.46672481634663
 30
0.0
 41
1.3
 42
1.299999999999995
 43
1.3
  0
CIRCLE
  5
F46
330
75
100
AcDbEntity
  8
レイヤー_1
 62
     7
100
AcDbCircle
 10
90.72062589063223
 20
101.9800840163466
 30
0.0
 40
0.7819682000000002
  0
SPLINE
  5
F47
330
75
100
AcDbEntity
  8
レイヤー_1
 62
     7
100
AcDbSpline
210
0.0
220
0.0
230
1.0
 70
    11
 71
     3
 72
    29
 73
    25
 74
     0
 42
0.0000000001
 43
0.0000000001
 40
0.0
 40
0.0
 40
0.0
 40
0.0
 40
1.0
 40
1.0
 40
1.0
 40
2.0
 40
2.0
 40
2.0
 40
3.0
 40
3.0
 40
3.0
 40
4.0
 40
4.0
 40
4.0
 40
5.0
 40
5.0
 40
5.0
 40
6.0
 40
6.0
 40
6.0
 40
7.0
 40
7.0
 40
7.0
 40
8.0
 40
8.0
 40
8.0
 40
8.0
 10
110.777471759035
 20
89.4712869817112
 30
0.0
 10
110.777471759035
 20
88.38835566660703
 30
0.0
 10
109.8593538119864
 20
87.5100974743327
 30
0.0
 10
108.7244704569517
 20
87.5100974743327
 30
0.0
 10
108.7244704569517
 20
87.5100974743327
 30
0.0
 10
28.67107947930413
 20
87.5100974743327
 30
0.0
 10
28.67107947930413
 20
87.5100974743327
 30
0.0
 10
27.53776364271559
 20
87.5100974743327
 30
0.0
 10
26.61942176446038
 20
88.38835566660703
 30
0.0
 10
26.61942176446038
 20
89.4712869817112
 30
0.0
 10
26.61942176446038
 20
89.4712869817112
 30
0.0
 10
26.61942176446038
 20
108.1090813067979
 30
0.0
 10
26.61942176446038
 20
108.1090813067979
 30
0.0
 10
26.61942176446038
 20
109.1924604843153
 30
0.0
 10
27.53776364271559
 20
110.0711665390028
 30
0.0
 10
28.67107947930413
 20
110.0711665390028
 30
0.0
 10
28.67107947930413
 20
110.0711665390028
 30
0.0
 10
108.7244704569517
 20
110.0711665390028
 30
0.0
 10
108.7244704569517
 20
110.0711665390028
 30
0.0
 10
109.8593538119864
 20
110.0711665390028
 30
0.0
 10
110.777471759035
 20
109.1924604843153
 30
0.0
 10
110.777471759035
 20
108.1090813067979
 30
0.0
 10
110.777471759035
 20
108.1090813067979
 30
0.0
 10
110.777471759035
 20
89.4712869817112
 30
0.0
 10
110.777471759035
 20
89.4712869817112
 30
0.0
  0
SPLINE
  5
F48
330
75
100
AcDbEntity
  8
レイヤー_1
 62
     7
100
AcDbSpline
210
0.0
220
0.0
230
1.0
 70
    11
 71
     3
 72
    29
 73
    25
 74
     0
 42
0.0000000001
 43
0.0000000001
 40
0.0
 40
0.0
 40
0.0
 40
0.0
 40
1.0
 40
1.0
 40
1.0
 40
2.0
 40
2.0
 40
2.0
 40
3.0
 40
3.0
 40
3.0
 40
4.0
 40
4.0
 40
4.0
 40
5.0
 40
5.0
 40
5.0
 40
6.0
 40
6.0
 40
6.0
 40
7.0
 40
7.0
 40
7.0
 40
8.0
 40
8.0
 40
8.0
 40
8.0
 10
111.4591183519169
 20
88.88234790836046
 30
0.0
 10
111.4591183519169
 20
87.73044578162439
 30
0.0
 10
110.5248773579933
 20
86.79710051252717
 30
0.0
 10
109.3738709560836
 20
86.79710051252717
 30
0.0
 10
109.3738709560836
 20
86.79710051252717
 30
0.0
 10
28.02279863620518
 20
86.79710051252717
 30
0.0
 10
28.02279863620518
 20
86.79710051252717
 30
0.0
 10
26.87134437188226
 20
86.79710051252717
 30
0.0
 10
25.93755124037183
 20
87.73044578162439
 30
0.0
 10
25.93755124037183
 20
88.88234790836046
 30
0.0
 10
25.93755124037183
 20
88.88234790836046
 30
0.0
 10
25.93755124037183
 20
108.6980203801487
 30
0.0
 10
25.93755124037183
 20
108.6980203801487
 30
0.0
 10
25.93755124037183
 20
109.8508182317111
 30
0.0
 10
26.87134437188226
 20
110.7846113632216
 30
0.0
 10
28.02279863620518
 20
110.7846113632216
 30
0.0
 10
28.02279863620518
 20
110.7846113632216
 30
0.0
 10
109.3738709560836
 20
110.7846113632216
 30
0.0
 10
109.3738709560836
 20
110.7846113632216
 30
0.0
 10
110.5248773579933
 20
110.7846113632216
 30
0.0
 10
111.4591183519169
 20
109.8508182317111
 30
0.0
 10
111.4591183519169
 20
108.6980203801487
 30
0.0
 10
111.4591183519169
 20
108.6980203801487
 30
0.0
 10
111.4591183519169
 20
88.88234790836046
 30
0.0
 10
111.4591183519169
 20
88.88234790836046
 30
0.0
  0
MTEXT
  5
F49
330
75
100
AcDbEntity
  8
レイヤー_1
 62
     7
100
AcDbMText
 10
99.18410559063223
 20
89.59287151634656
 30
0.0
 40
1.231834499999999
 41
0.0
 71
     1
 72
     2
  1
\fSwis721 BT|b0|i0;POWER
  7
STD
 73
     1
 44
1.0
1001
ACAD
1000
MTEXTBEGIN
1070
    73
1070
     1
1070
    44
1040
1.0
1070
    74
1070
     0
1000
MTEXTEND
  0
MTEXT
  5
F4A
330
75
100
AcDbEntity
  8
レイヤー_1
 62
     7
100
AcDbMText
 10
81.51593299063227
 20
108.1817379163466
 30
0.0
 40
1.36877
 41
0.0
 71
     1
 72
     2
  1
\fSwis721 BT|b0|i0;1CH  CAMERA CONTROL UNIT
  7
STD
 73
     1
 44
1.0
1001
ACAD
1000
MTEXTBEGIN
1070
    73
1070
     1
1070
    44
1040
1.0
1070
    74
1070
     0
1000
MTEXTEND
  0
MTEXT
  5
F4C
330
75
100
AcDbEntity
  8
レイヤー_1
 62
     7
100
AcDbMText
 10
92.71159799063223
 20
92.66500681634665
 30
0.0
 40
1.0950368
 41
0.0
 71
     1
 72
     2
  1
\fSwis721 BT|b0|i0;OFF \H0.6318;\fMS Gothic|b0|i0|c128;■
  7
KANJISTD
 73
     1
 44
1.0
1001
ACAD
1000
MTEXTBEGIN
1070
    73
1070
     1
1070
    44
1040
1.0
1070
    74
1070
     0
1000
MTEXTEND
  0
MTEXT
  5
F4D
330
75
100
AcDbEntity
  8
レイヤー_1
 62
     7
100
AcDbMText
 10
93.40712789063228
 20
102.5349981163466
 30
0.0
 40
1.0950368
 41
0.0
 71
     1
 72
     2
  1
\fSwis721 BT|b0|i0;ON \H0.6318;\fMS Gothic|b0|i0|c128;■
  7
KANJISTD
 73
     1
 44
1.0
1001
ACAD
1000
MTEXTBEGIN
1070
    73
1070
     1
1070
    44
1040
1.0
1070
    74
1070
     0
1000
MTEXTEND
  0
DIMENSION
  5
F65
330
75
100
AcDbEntity
  8
AM_5
100
AcDbDimension
  2
*D15
 10
25.93426626124392
 20
71.65295348652013
 30
0.0
 11
68.64015949178247
 21
71.65295348652013
 31
0.0
 70
   160
  1
167
 71
     5
 42
85.41178646107708
  3
AM_ISO$0
100
AcDbAlignedDimension
 13
111.346052722321
 23
88.80717537732961
 33
0.0
 14
25.93426626124392
 24
88.80717537732961
 34
0.0
 50
0.0000000000001132
100
AcDbRotatedDimension
1001
ACAD
1000
DSTYLE
1002
{
1070
    50
1040
1.570796326794896
1002
}
1001
ACAD_DSTYLE_DIMINSPECT
1070
   396
1000
100%
1070
   395
1000

1070
   394
1070
    33
1070
   393
1070
     0
  0
DIMENSION
  5
1015
330
75
100
AcDbEntity
  8
AM_5
100
AcDbDimension
  2
*D19
 10
144.5086633493847
 20
110.5899164904724
 30
0.0
 11
142.0086633493847
 21
97.46176717477199
 31
0.0
 70
    32
  1
50
 71
     5
 42
26.25629863140091
  3
AM_ISO$0
100
AcDbAlignedDimension
 13
106.8852333973007
 23
84.3336178590715
 33
0.0
 14
106.8852333973007
 24
110.5899164904724
 34
0.0
 50
90.00000000000005
100
AcDbRotatedDimension
1001
ACAD
1000
DSTYLE
1002
{
1070
    50
1040
1.570796326794896
1002
}
1001
ACAD_DSTYLE_DIMINSPECT
1070
   396
1000
100%
1070
   395
1000

1070
   394
1070
    33
1070
   393
1070
     0
  0
DIMENSION
  5
1046
330
75
100
AcDbEntity
  8
AM_5
100
AcDbDimension
  2
*D20
 10
121.5385692268226
 20
86.70855956108288
 30
0.0
 11
119.0385692268225
 21
94.47998813251148
 31
0.0
 70
    32
  1
10
 71
     5
 42
2.374941702011369
  3
AM_ISO$0
100
AcDbAlignedDimension
 13
106.8852333973007
 23
84.3336178590715
 33
0.0
 14
107.941330021925
 24
86.70855956108288
 34
0.0
 50
90.0
100
AcDbRotatedDimension
1001
ACAD
1000
DSTYLE
1002
{
1070
    50
1040
1.570796326794896
1002
}
1001
ACAD_DSTYLE_DIMINSPECT
1070
   396
1000
100%
1070
   395
1000

1070
   394
1070
    33
1070
   393
1070
     0
  0
DIMENSION
  5
1097
330
75
100
AcDbEntity
  8
AM_5
100
AcDbDimension
  2
*D21
 10
186.0715506253123
 20
128.4613630690658
 30
0.0
 11
186.0715506253123
 21
160.5610469048799
 31
0.0
 70
   160
  1
157
 71
     5
 42
66.93109534822585
  3
AM_ISO$0
100
AcDbAlignedDimension
 13
171.1312711591456
 23
195.3924584172916
 33
0.0
 14
171.1312711591456
 24
128.4613630690658
 34
0.0
 50
90.00000000000005
100
AcDbRotatedDimension
1001
ACAD
1000
DSTYLE
1002
{
1070
    50
1040
1.570796326794896
1002
}
1001
ACAD_DSTYLE_DIMINSPECT
1070
   396
1000
100%
1070
   395
1000

1070
   394
1070
    33
1070
   393
1070
     0
  0
INSERT
  5
11B0
330
75
100
AcDbEntity
  8
レイヤー_1
 62
     7
100
AcDbBlockReference
  2
AI9-BLK2
 10
69.33038039063224
 20
248.6391251163465
 30
0.0
 41
1.299999999999996
 42
1.30000000000001
 43
1.299999999999998
  0
SPLINE
  5
11B1
330
75
100
AcDbEntity
  8
レイヤー_1
 62
     7
100
AcDbSpline
210
0.0
220
0.0
230
1.0
 70
    11
 71
     3
 72
    29
 73
    25
 74
     0
 42
0.0000000001
 43
0.0000000001
 40
0.0
 40
0.0
 40
0.0
 40
0.0
 40
1.0
 40
1.0
 40
1.0
 40
2.0
 40
2.0
 40
2.0
 40
3.0
 40
3.0
 40
3.0
 40
4.0
 40
4.0
 40
4.0
 40
5.0
 40
5.0
 40
5.0
 40
6.0
 40
6.0
 40
6.0
 40
7.0
 40
7.0
 40
7.0
 40
8.0
 40
8.0
 40
8.0
 40
8.0
 10
27.26591112066701
 20
245.3531592229655
 30
0.0
 10
27.26591112066701
 20
246.4719195311252
 30
0.0
 10
28.17462395703855
 20
247.3799605738769
 30
0.0
 10
29.29338426519827
 20
247.3799605738769
 30
0.0
 10
29.29338426519827
 20
247.3799605738769
 30
0.0
 10
108.3572232408926
 20
247.3799605738769
 30
0.0
 10
108.3572232408926
 20
247.3799605738769
 30
0.0
 10
109.4764314114655
 20
247.3799605738769
 30
0.0
 10
110.3838006605975
 20
246.4719195311252
 30
0.0
 10
110.3838006605975
 20
245.3531592229655
 30
0.0
 10
110.3838006605975
 20
245.3531592229655
 30
0.0
 10
110.3838006605975
 20
226.094179730778
 30
0.0
 10
110.3838006605975
 20
226.094179730778
 30
0.0
 10
110.3838006605975
 20
224.9742997665853
 30
0.0
 10
109.4764314114655
 20
224.0664826550402
 30
0.0
 10
108.3572232408926
 20
224.0664826550402
 30
0.0
 10
108.3572232408926
 20
224.0664826550402
 30
0.0
 10
29.29338426519827
 20
224.0664826550402
 30
0.0
 10
29.29338426519827
 20
224.0664826550402
 30
0.0
 10
28.17462395703855
 20
224.0664826550402
 30
0.0
 10
27.26591112066701
 20
224.9742997665853
 30
0.0
 10
27.26591112066701
 20
226.094179730778
 30
0.0
 10
27.26591112066701
 20
226.094179730778
 30
0.0
 10
27.26591112066701
 20
245.3531592229655
 30
0.0
 10
27.26591112066701
 20
245.3531592229655
 30
0.0
  0
MTEXT
  5
11B2
330
75
100
AcDbEntity
  8
レイヤー_1
 62
     7
100
AcDbMText
 10
106.4605253906322
 20
237.8443406341644
 30
0.0
 40
1.064222899999997
 41
0.0
 71
     1
 72
     2
  1
{\fSwis721 BT|b0|i0|c0|p34;AC 90~120V}
  7
STD
 11
-1.0
 21
0.0
 31
0.0
 73
     1
 44
1.0
1001
ACAD
1000
MTEXTBEGIN
1070
    73
1070
     1
1070
    44
1040
1.0
1070
    74
1070
     0
1000
MTEXTEND
  0
MTEXT
  5
11B3
330
75
100
AcDbEntity
  8
レイヤー_1
 62
     7
100
AcDbMText
 10
105.1603810906322
 20
235.8286830961987
 30
0.0
 40
1.064222899999997
 41
0.0
 71
     1
 72
     2
  1
\fSwis721 BT|b0|i0;FUSE 2A
  7
STD
 11
-1.0
 21
0.0
 31
0.0
 73
     1
 44
1.0
1001
ACAD
1000
MTEXTBEGIN
1070
    73
1070
     1
1070
    44
1040
1.0
1070
    74
1070
     0
1000
MTEXTEND
  0
ELLIPSE
  5
11B4
330
75
100
AcDbEntity
  8
レイヤー_1
 62
     7
100
AcDbEllipse
 10
102.2604723906322
 20
242.3191153163466
 30
0.0
 11
-3.757117784288188
 21
0.0
 31
0.0
210
0.0
220
0.0
230
1.0
 40
0.966444
 41
0.0
 42
6.283185307179584
  0
ELLIPSE
  5
11B5
330
75
100
AcDbEntity
  8
レイヤー_1
 62
     7
100
AcDbEllipse
 10
102.3392965906322
 20
242.3515854163466
 30
0.0
 11
-2.636566026475689
 21
0.0
 31
0.0
210
0.0
220
0.0
230
1.0
 40
0.9568549999999998
 41
0.0
 42
6.283185307179584
  0
ELLIPSE
  5
11B6
330
75
100
AcDbEntity
  8
レイヤー_1
 62
     7
100
AcDbEllipse
 10
102.2387506906322
 20
230.0644794163466
 30
0.0
 11
-4.320752631293395
 21
0.0
 31
0.0
210
0.0
220
0.0
230
1.0
 40
0.966468
 41
0.0
 42
6.283185307179584
  0
ELLIPSE
  5
11B7
330
75
100
AcDbEntity
  8
レイヤー_1
 62
     7
100
AcDbEllipse
 10
102.3292189906322
 20
230.1029958163466
 30
0.0
 11
-3.031804606119786
 21
0.0
 31
0.0
210
0.0
220
0.0
230
0.9999999999999998
 40
0.9567919999999999
 41
0.0
 42
6.283185307179584
  0
TEXT
  5
11B8
330
75
100
AcDbEntity
  8
レイヤー_1
 62
     7
100
AcDbText
 10
104.7721522036795
 20
230.8509351474954
 30
0.0
 40
1.297759839999998
  1
FUSE
 50
180.0
  7
STD
100
AcDbText
1001
ACAD
1000
MTEXTBEGIN
1070
    73
1070
     1
1070
    44
1040
1.0
1070
    74
1070
     0
1000
MTEXTEND
  0
MTEXT
  5
1282
330
75
100
AcDbEntity
  8
0
100
AcDbMText
 10
100.1740447515151
 20
107.3416182224413
 30
0.0
 40
1.36877
 41
8.686870887178201
 71
     1
 72
     5
  1
{\fArial|b0|i0|c0|p34;\T1.1;CCU-201A}
 73
     1
 44
1.0
1001
ACAD
1000
MTEXTBEGIN
1070
    73
1070
     1
1070
    44
1040
1.0
1070
    74
1070
     0
1000
MTEXTEND
  0
LINE
  5
1293
330
75
100
AcDbEntity
  8
AM_CL
100
AcDbLine
 10
172.2885356683919
 20
150.0544898970879
 30
0.0
 11
172.2365402313526
 21
150.0544898970879
 31
0.0
  0
LINE
  5
1296
330
75
100
AcDbEntity
  8
AM_CL
100
AcDbLine
 10
148.4748528943023
 20
150.0544898970879
 30
0.0
 11
148.4228585248215
 21
150.0544898970879
 31
0.0
  0
SPLINE
  5
1299
330
75
100
AcDbEntity
  8
レイヤー_1
 62
     7
100
AcDbSpline
210
0.0
220
0.0
230
1.0
 70
    24
 71
     3
 72
     8
 73
     4
 74
     0
 42
0.0000000001
 43
0.0000000001
 40
5.600603364976029
 40
5.600603364976029
 40
5.600603364976029
 40
5.600603364976029
 40
5.60238983373523
 40
5.60238983373523
 40
5.60238983373523
 40
5.60238983373523
 10
27.3357776943649
 20
183.0421182834324
 30
0.0
 10
27.3357776943649
 20
182.8945583702516
 30
0.0
 10
27.3357776943649
 20
182.7485261452682
 30
0.0
 10
27.3357776943649
 20
182.604010894263
 30
0.0
  0
LINE
  5
129A
330
75
100
AcDbEntity
  8
レイヤー_1
 62
     7
100
AcDbLine
 10
160.7065171906322
 20
149.1416757663465
 30
0.0
 11
160.7065171906322
 21
193.4662235093891
 31
0.0
  0
LINE
  5
129B
330
75
100
AcDbEntity
  8
レイヤー_1
 62
     7
100
AcDbLine
 10
160.4086884906323
 20
152.2896664568179
 30
0.0
 11
160.4086884906323
 21
193.4662235093891
 31
0.0
  0
LWPOLYLINE
  5
12DE
330
75
100
AcDbEntity
  8
レイヤー_1
 62
     7
100
AcDbPolyline
 90
        2
 70
     1
 43
0.0
 10
27.57717539063226
 20
193.8632539093891
 10
110.2798967906322
 20
193.8632539093891
  0
LWPOLYLINE
  5
12DF
330
75
100
AcDbEntity
  8
レイヤー_1
 62
     7
100
AcDbPolyline
 90
        2
 70
     1
 43
0.0
 10
27.57717539063226
 20
130.4314394163466
 10
110.2798967906322
 20
130.4314394163466
  0
POLYLINE
  5
12E2
330
75
100
AcDbEntity
  8
レイヤー_1
 62
     7
100
AcDb2dPolyline
 66
     1
 10
0.0
 20
0.0
 30
0.0
 70
     1
  0
VERTEX
  5
12E3
330
12E2
100
AcDbEntity
  8
レイヤー_1
 62
     7
100
AcDbVertex
100
AcDb2dVertex
 10
174.8750923906321
 20
191.5592249093891
 30
0.0
  0
VERTEX
  5
12E4
330
12E2
100
AcDbEntity
  8
レイヤー_1
 62
     7
100
AcDbVertex
100
AcDb2dVertex
 10
174.8750923906321
 20
186.0420080093891
 30
0.0
  0
VERTEX
  5
12E5
330
12E2
100
AcDbEntity
  8
レイヤー_1
 62
     7
100
AcDbVertex
100
AcDb2dVertex
 10
172.3625836906321
 20
185.0074459093891
 30
0.0
  0
VERTEX
  5
12E6
330
12E2
100
AcDbEntity
  8
レイヤー_1
 62
     7
100
AcDbVertex
100
AcDb2dVertex
 10
172.3625836906321
 20
192.6175237093891
 30
0.0
  0
SEQEND
  5
12E7
330
12E2
100
AcDbEntity
  8
レイヤー_1
 62
     7
  0
POLYLINE
  5
12E8
330
75
100
AcDbEntity
  8
レイヤー_1
 62
     7
100
AcDb2dPolyline
 66
     1
 10
0.0
 20
0.0
 30
0.0
 70
     1
  0
VERTEX
  5
12E9
330
12E8
100
AcDbEntity
  8
レイヤー_1
 62
     7
100
AcDbVertex
100
AcDb2dVertex
 10
174.7728894444774
 20
138.8581947325151
 30
0.0
  0
VERTEX
  5
12EA
330
12E8
100
AcDbEntity
  8
レイヤー_1
 62
     7
100
AcDbVertex
100
AcDb2dVertex
 10
174.7728894444774
 20
133.343217732515
 30
0.0
  0
VERTEX
  5
12EB
330
12E8
100
AcDbEntity
  8
レイヤー_1
 62
     7
100
AcDbVertex
100
AcDb2dVertex
 10
172.2567979444774
 20
132.306864232515
 30
0.0
  0
VERTEX
  5
12EC
330
12E8
100
AcDbEntity
  8
レイヤー_1
 62
     7
100
AcDbVertex
100
AcDb2dVertex
 10
172.2567979444774
 20
139.915597832515
 30
0.0
  0
SEQEND
  5
12ED
330
12E8
100
AcDbEntity
  8
レイヤー_1
 62
     7
  0
LWPOLYLINE
  5
130D
330
75
100
AcDbEntity
  8
0
100
AcDbPolyline
 90
        8
 70
     1
 43
0.0
 10
28.82966942181269
 20
195.4849426396372
 10
108.7798967906322
 20
195.4849426396372
 42
-0.4142135623730951
 10
110.2798967906322
 20
193.9849426396372
 10
110.2798967906322
 20
130.0254743089524
 42
-0.4142135623730951
 10
108.7798967906322
 20
128.5254743089524
 10
28.82966942181269
 20
128.5254743089524
 42
-0.4142135623730951
 10
27.3296694218127
 20
130.0254743089524
 10
27.32966942181269
 20
193.9849426396372
 42
-0.4142135623730951
1001
GENIUS_GENREC_14
1002
{
1000
PYDIR
1011
27.32966942181269
1021
128.5254743089524
1031
0.0
1002
}
1002
{
1000
PXDIR
1011
110.2798967906322
1021
195.4849426396372
1031
0.0
1002
}
1002
{
1000
PORI
1011
27.3296694218127
1021
195.4849426396372
1031
0.0
1002
}
1002
{
1000
PINS
1011
27.3296694218127
1021
195.4849426396372
1031
0.0
1002
}
1002
{
1000
PINS2
1011
110.2798967906322
1021
128.5254743089524
1031
0.0
1002
}
1002
{
1000
C
1070
     1
1002
}
1001
GENIUS_GENODEF_13
1002
{
1000
HIER
1070
     0
1002
}
1002
{
1000
MANEDIT
1070
     0
1002
}
1002
{
1000
NOSEL
1070
     0
1002
}
1002
{
1000
BEHIND
1070
     0
1002
}
1002
{
1000
OTHER
1070
     0
1002
}
1002
{
1000
REACTOR
1002
}
1001
GENIUS_GENOBJ-N-REC_13
1002
{
1000
OWNER
1000
GEN
1002
}
  0
LWPOLYLINE
  5
130E
330
75
100
AcDbEntity
  8
0
100
AcDbPolyline
 90
        8
 70
     1
 43
0.0
 10
149.9100723765939
 20
195.4849426396372
 10
170.7309131906321
 20
195.4849426396372
 42
-0.4142135623730951
 10
172.2309131906321
 20
193.9849426396372
 10
172.2309131906321
 20
129.9613630690658
 42
-0.4142135623730951
 10
170.7309131906321
 20
128.4613630690658
 10
149.9100723765939
 20
128.4613630690658
 42
-0.4142135623730951
 10
148.4100723765939
 20
129.9613630690658
 10
148.4100723765939
 20
193.9849426396372
 42
-0.4142135623730951
1001
GENIUS_GENREC_14
1002
{
1000
PYDIR
1011
148.4100723765939
1021
128.4613630690658
1031
0.0
1002
}
1002
{
1000
PXDIR
1011
172.2309131906321
1021
195.4849426396372
1031
0.0
1002
}
1002
{
1000
PORI
1011
148.4100723765939
1021
195.4849426396372
1031
0.0
1002
}
1002
{
1000
PINS
1011
148.4100723765939
1021
195.4849426396372
1031
0.0
1002
}
1002
{
1000
PINS2
1011
172.2309131906321
1021
128.4613630690658
1031
0.0
1002
}
1002
{
1000
C
1070
     1
1002
}
1001
GENIUS_GENODEF_13
1002
{
1000
HIER
1070
     0
1002
}
1002
{
1000
MANEDIT
1070
     0
1002
}
1002
{
1000
NOSEL
1070
     0
1002
}
1002
{
1000
BEHIND
1070
     0
1002
}
1002
{
1000
OTHER
1070
     0
1002
}
1002
{
1000
REACTOR
1002
}
1001
GENIUS_GENOBJ-N-REC_13
1002
{
1000
OWNER
1000
GEN
1002
}
  0
ENDSEC
  0
SECTION
  2
OBJECTS
  0
DICTIONARY
  5
C
330
0
100
AcDbDictionary
281
     1
  3
ACAD_2007HEADERVARS_RT
350
14A2
  3
ACAD_COLOR
350
6B
  3
ACAD_GROUP
350
D
  3
ACAD_LAYOUT
350
6A
  3
ACAD_MATERIAL
350
10
  3
ACAD_MLEADERSTYLE
350
6E
  3
ACAD_MLINESTYLE
350
67
  3
ACAD_PLOTSETTINGS
350
69
  3
ACAD_PLOTSTYLENAME
350
E
  3
ACAD_SCALELIST
350
3A
  3
ACAD_TABLESTYLE
350
6C
  3
ACAD_VISUALSTYLE
350
29
  3
ACDB_RECOMPOSE_DATA
350
163
  3
AcDbVariableDictionary
350
164
  3
AcmDictionary
350
DC
  3
AMG
350
7F
  3
AMGSNAPSETTINGS
350
13A
  3
ASE_INDEX_DICTIONARY
350
10D2
  3
DWGPROPS
350
14A1
  0
DICTIONARY
  5
12A
330
2
100
AcDbDictionary
280
     1
281
     1
  3
ACAD_LAYERSTATES
360
12B
  3
AMLAYER_GROUPCOLORS
360
1BE
  0
DICTIONARY
  5
158
330
5C
100
AcDbDictionary
280
     1
281
     1
  3
ADSK_XREC_LAYER_RECONCILED
360
159
  0
DICTIONARY
  5
11A
330
119
100
AcDbDictionary
280
     1
281
     1
  3
ADSK_XREC_LAYER_RECONCILED
360
15A
  0
DICTIONARY
  5
11C
330
11B
100
AcDbDictionary
280
     1
281
     1
  3
ADSK_XREC_LAYER_RECONCILED
360
15B
  0
DICTIONARY
  5
15C
330
11D
100
AcDbDictionary
280
     1
281
     1
  3
ADSK_XREC_LAYER_RECONCILED
360
15D
  0
DICTIONARY
  5
79F
330
75
100
AcDbDictionary
280
     1
281
     1
  3
ACAD_SORTENTS
360
7A0
  0
DICTIONARY
  5
14A2
102
{ACAD_REACTORS
330
C
102
}
330
C
100
AcDbDictionary
281
     1
  3
DIMARCSYM
350
14A3
  3
DIMJOGANG
350
14A4
  0
DICTIONARY
  5
6B
102
{ACAD_REACTORS
330
C
102
}
330
C
100
AcDbDictionary
281
     1
  0
DICTIONARY
  5
D
102
{ACAD_REACTORS
330
C
102
}
330
C
100
AcDbDictionary
281
     1
  0
DICTIONARY
  5
6A
102
{ACAD_REACTORS
330
C
102
}
330
C
100
AcDbDictionary
281
     1
  3
Model
350
78
  3
レイアウト1
350
74
  3
レイアウト2
350
7C
  0
DICTIONARY
  5
10
102
{ACAD_REACTORS
330
C
102
}
330
C
100
AcDbDictionary
281
     1
  3
ByBlock
350
19
  3
ByLayer
350
11
  3
Global
350
21
  0
DICTIONARY
  5
6E
102
{ACAD_REACTORS
330
C
102
}
330
C
100
AcDbDictionary
281
     1
  3
Standard
350
6F
  0
DICTIONARY
  5
67
102
{ACAD_REACTORS
330
C
102
}
330
C
100
AcDbDictionary
281
     1
  3
Standard
350
68
  0
DICTIONARY
  5
69
102
{ACAD_REACTORS
330
C
102
}
330
C
100
AcDbDictionary
281
     1
  0
ACDBDICTIONARYWDFLT
  5
E
102
{ACAD_REACTORS
330
C
102
}
330
C
100
AcDbDictionary
281
     1
  3
Normal
350
F
100
AcDbDictionaryWithDefault
340
F
  0
DICTIONARY
  5
3A
102
{ACAD_REACTORS
330
C
102
}
330
C
100
AcDbDictionary
281
     1
  3
A0
350
3B
  3
A1
350
3C
  3
A2
350
3D
  3
A3
350
3E
  3
A4
350
3F
  3
A5
350
40
  3
A6
350
41
  3
A7
350
42
  3
A8
350
43
  3
A9
350
44
  3
B0
350
45
  3
B1
350
46
  3
B2
350
47
  3
B3
350
48
  3
B4
350
49
  3
B5
350
4A
  3
B6
350
4B
  3
B7
350
4C
  3
B8
350
4D
  3
B9
350
4E
  3
C0
350
4F
  3
C1
350
50
  3
C2
350
51
  3
C3
350
52
  3
C4
350
53
  3
C5
350
54
  3
C6
350
55
  3
C7
350
56
  3
C8
350
57
  3
C9
350
58
  3
D0
350
59
  3
D1
350
5A
  3
D2
350
5B
  0
DICTIONARY
  5
6C
102
{ACAD_REACTORS
330
C
102
}
330
C
100
AcDbDictionary
281
     1
  3
Standard
350
6D
  0
DICTIONARY
  5
29
102
{ACAD_REACTORS
330
C
102
}
330
C
100
AcDbDictionary
281
     1
  3
2dWireframe
350
2F
  3
3D Hidden
350
31
  3
3dWireframe
350
30
  3
Basic
350
2E
  3
Brighten
350
35
  3
ColorChange
350
39
  3
Conceptual
350
32
  3
Dim
350
34
  3
Facepattern
350
38
  3
Flat
350
2A
  3
FlatWithEdges
350
2B
  3
Gouraud
350
2C
  3
GouraudWithEdges
350
2D
  3
Linepattern
350
37
  3
Realistic
350
33
  3
Thicken
350
36
  0
XRECORD
  5
163
102
{ACAD_REACTORS
330
C
102
}
330
C
100
AcDbXrecord
280
     1
 90
        1
330
6D
  0
DICTIONARY
  5
164
102
{ACAD_REACTORS
330
C
102
}
330
C
100
AcDbDictionary
281
     1
  3
CANNOSCALE
350
167
  3
CMLEADERSTYLE
350
166
  3
CTABLESTYLE
350
165
  3
DIMASSOC
350
240
  3
HIDETEXT
350
23F
  3
INDEXCTL
350
23E
  3
LIGHTINGUNITS
350
23C
  3
MSLTSCALE
350
23B
  3
SORTENTS
350
23D
  0
DICTIONARY
  5
DC
102
{ACAD_REACTORS
330
C
102
}
330
C
100
AcDbDictionary
281
     1
  3
AcmStdDictionary
350
DE
  3
AMDTSECTSYM_ARROWCOLOR
350
F6
  0
DICTIONARY
  5
7F
102
{ACAD_REACTORS
330
C
102
}
330
C
100
AcDbDictionary
281
     1
  0
DICTIONARY
  5
13A
102
{ACAD_REACTORS
330
C
102
}
330
C
100
AcDbDictionary
281
     1
  0
DICTIONARY
  5
10D2
102
{ACAD_REACTORS
330
C
102
}
330
C
100
AcDbDictionary
281
     1
  3
ASEBlockHierarchyIndexRecord
350
10D3
1001
DCO15
1040
1628583279.327999
  0
XRECORD
  5
14A1
102
{ACAD_REACTORS
330
C
102
}
330
C
100
AcDbXrecord
280
     1
  1
DWGPROPS COOKIE
  2

  3

  4

  6

  7

  8
Administrator
  9

300
=
301
=
302
=
303
=
304
=
305
=
306
=
307
=
308
=
309
=
 40
0.070649224537037
 41
2454313.581725069
 42
2454950.493197153
  1

 90
        0
  0
DICTIONARY
  5
12B
102
{ACAD_REACTORS
330
12A
102
}
330
12A
100
AcDbDictionary
281
     1
  0
DICTIONARY
  5
1BE
102
{ACAD_REACTORS
330
12A
102
}
330
12A
100
AcDbDictionary
280
     1
281
     1
  0
XRECORD
  5
159
102
{ACAD_REACTORS
330
158
102
}
330
158
100
AcDbXrecord
280
     1
290
     1
  0
XRECORD
  5
15A
102
{ACAD_REACTORS
330
11A
102
}
330
11A
100
AcDbXrecord
280
     1
290
     1
  0
XRECORD
  5
15B
102
{ACAD_REACTORS
330
11C
102
}
330
11C
100
AcDbXrecord
280
     1
290
     1
  0
XRECORD
  5
15D
102
{ACAD_REACTORS
330
15C
102
}
330
15C
100
AcDbXrecord
280
     1
290
     1
  0
SORTENTSTABLE
  5
7A0
102
{ACAD_REACTORS
330
79F
102
}
330
79F
100
AcDbSortentsTable
330
75
331
F49
  5
1293
331
1015
  5
1299
331
DB7
  5
EC5
331
1299
  5
F65
331
CB3
  5
DCE
331
D39
  5
EC2
331
143
  5
143
331
F48
  5
1292
331
F47
  5
1282
331
12DF
  5
EF9
331
E28
  5
EC8
331
EE9
  5
F00
331
F24
  5
F4A
331
CB2
  5
DB7
331
EC8
  5
EF2
331
F46
  5
11B8
331
12DE
  5
EFA
331
CF4
  5
E2F
331
D2B
  5
E36
331
E71
  5
ECB
331
F45
  5
11B7
331
EC7
  5
EE9
331
1296
  5
12E8
331
EFF
  5
F3E
331
11B7
  5
CF4
331
CAB
  5
D74
331
F06
  5
F45
331
ED7
  5
EFD
331
F12
  5
F47
331
EE3
  5
EFF
331
12E8
  5
11B6
331
F1E
  5
F49
331
EC6
  5
EE3
331
EF2
  5
F06
331
EFE
  5
F38
331
DCE
  5
EC6
331
11B6
  5
CD1
331
CAA
  5
D39
331
11B8
  5
CA8
331
EC5
  5
EDD
331
EFD
  5
F31
331
CBA
  5
DF1
331
F38
  5
11B1
331
11B5
  5
CBA
331
CA9
  5
D32
331
156
  5
156
331
EC4
  5
ED7
331
E2F
  5
EC9
331
1293
  5
12E2
331
1046
  5
129A
331
CA5
  5
CA5
331
EFC
  5
F2A
331
11B4
  5
CB3
331
CA8
  5
D2B
331
155
  5
155
331
CA4
  5
CA4
331
F2A
  5
F4B
331
EFB
  5
F24
331
D32
  5
E71
331
11B3
  5
CB2
331
148
  5
148
331
F4D
  5
1297
331
F65
  5
1298
331
154
  5
154
331
EC2
  5
ED1
331
CA3
  5
CA3
331
EFA
  5
F1E
331
11B2
  5
CAB
331
D74
  5
EC4
331
147
  5
147
331
F4C
  5
1295
331
DF1
  5
EC7
331
CA2
  5
CA2
331
1097
  5
129B
331
EF9
  5
F18
331
11B1
  5
CAA
331
F00
  5
F44
331
ED1
  5
EFC
331
146
  5
146
331
F0C
  5
F46
331
EDD
  5
EFE
331
CD1
  5
E28
331
12E2
  5
11B5
331
F18
  5
F48
331
1B6
  5
1B6
331
CA1
  5
CA1
331
129B
  5
F32
331
EF8
  5
F12
331
11B0
  5
CA9
331
ECB
  5
EFB
331
145
  5
145
331
F4A
  5
1294
331
1B5
  5
1B5
331
1282
  5
12D0
331
E36
  5
ECA
331
CA0
  5
CA0
331
129A
  5
F30
331
EF7
  5
F0C
331
F32
  5
11B0
331
F3E
  5
11B3
331
144
  5
144
  0
XRECORD
  5
14A3
102
{ACAD_REACTORS
330
14A2
102
}
330
14A2
100
AcDbXrecord
280
     1
 70
     1
  0
XRECORD
  5
14A4
102
{ACAD_REACTORS
330
14A2
102
}
330
14A2
100
AcDbXrecord
280
     1
 40
1.570796326794896
  0
LAYOUT
  5
78
102
{ACAD_XDICTIONARY
360
14A8
102
}
102
{ACAD_REACTORS
330
6A
102
}
330
6A
100
AcDbPlotSettings
  1

  2
EPSON LP-8800C
  4
A4
  6

 40
5.873749732971191
 41
5.873717308044432
 42
5.873748779296875
 43
5.873748779296875
 44
209.9733276367186
 45
297.0106506347656
 46
-5.887085437774657
 47
-5.868407726287839
 48
0.0
 49
0.0
140
0.0
141
0.0
142
1.0
143
1.0
 70
 11940
 72
     1
 73
     0
 74
     2
  7
monochrome.ctb
 75
     0
147
0.6674270340890596
148
0.0
149
0.0
100
AcDbLayout
  1
Model
 70
     1
 71
     0
 10
0.0
 20
0.0
 11
12.0
 21
9.0
 12
0.0
 22
0.0
 32
0.0
 14
0.0
 24
0.0
 34
0.0
 15
0.0
 25
0.0
 35
0.0
146
0.0
 13
0.0
 23
0.0
 33
0.0
 16
1.0
 26
0.0
 36
0.0
 17
0.0
 27
1.0
 37
0.0
 76
     0
330
75
331
5F
1001
ACAD_PSEXT
1000
EPSON LP-8800C
1000
EPSON LP-8800C
1000
IP_192.168.0.95
1000

1070
     0
  0
LAYOUT
  5
74
102
{ACAD_XDICTIONARY
360
14A6
102
}
102
{ACAD_REACTORS
330
6A
102
}
330
6A
100
AcDbPlotSettings
  1

  2
EPSON LP-8800C
  4

  6

 40
0.0
 41
0.0
 42
0.0
 43
0.0
 44
0.0
 45
0.0
 46
0.0
 47
0.0
 48
0.0
 49
0.0
140
0.0
141
0.0
142
1.0
143
1.0
 70
   688
 72
     0
 73
     0
 74
     5
  7
monochrome.ctb
 75
    16
147
1.0
148
0.0
149
0.0
100
AcDbLayout
  1
レイアウト1
 70
     1
 71
     1
 10
0.0
 20
0.0
 11
420.0
 21
297.0
 12
0.0
 22
0.0
 32
0.0
 14
1.000000000000000E+20
 24
1.000000000000000E+20
 34
1.000000000000000E+20
 15
-1.000000000000000E+20
 25
-1.000000000000000E+20
 35
-1.000000000000000E+20
146
0.0
 13
0.0
 23
0.0
 33
0.0
 16
1.0
 26
0.0
 36
0.0
 17
0.0
 27
1.0
 37
0.0
 76
     0
330
71
  0
LAYOUT
  5
7C
102
{ACAD_XDICTIONARY
360
14AA
102
}
102
{ACAD_REACTORS
330
6A
102
}
330
6A
100
AcDbPlotSettings
  1

  2
EPSON LP-8800C
  4

  6

 40
0.0
 41
0.0
 42
0.0
 43
0.0
 44
0.0
 45
0.0
 46
0.0
 47
0.0
 48
0.0
 49
0.0
140
0.0
141
0.0
142
1.0
143
1.0
 70
   688
 72
     0
 73
     0
 74
     5
  7
monochrome.ctb
 75
    16
147
1.0
148
0.0
149
0.0
100
AcDbLayout
  1
レイアウト2
 70
     1
 71
     2
 10
0.0
 20
0.0
 11
12.0
 21
9.0
 12
0.0
 22
0.0
 32
0.0
 14
0.0
 24
0.0
 34
0.0
 15
0.0
 25
0.0
 35
0.0
146
0.0
 13
0.0
 23
0.0
 33
0.0
 16
1.0
 26
0.0
 36
0.0
 17
0.0
 27
1.0
 37
0.0
 76
     0
330
79
  0
MATERIAL
  5
19
102
{ACAD_XDICTIONARY
360
1A
102
}
102
{ACAD_REACTORS
330
10
102
}
330
10
100
AcDbMaterial
  1
ByBlock
 72
     0
 43
0.0208333333333333
 43
0.0
 43
0.0
 43
0.0
 43
0.0
 43
0.0208333333333333
 43
0.0
 43
0.0
 43
0.0
 43
0.0
 43
1.0
 43
0.0
 43
0.0
 43
0.0
 43
0.0
 43
1.0
 77
     0
 47
0.0208333333333333
 47
0.0
 47
0.0
 47
0.0
 47
0.0
 47
0.0208333333333333
 47
0.0
 47
0.0
 47
0.0
 47
0.0
 47
1.0
 47
0.0
 47
0.0
 47
0.0
 47
0.0
 47
1.0
171
     0
 49
0.0208333333333333
 49
0.0
 49
0.0
 49
0.0
 49
0.0
 49
0.0208333333333333
 49
0.0
 49
0.0
 49
0.0
 49
0.0
 49
1.0
 49
0.0
 49
0.0
 49
0.0
 49
0.0
 49
1.0
175
     0
142
0.0208333333333333
142
0.0
142
0.0
142
0.0
142
0.0
142
0.0208333333333333
142
0.0
142
0.0
142
0.0
142
0.0
142
1.0
142
0.0
142
0.0
142
0.0
142
0.0
142
1.0
179
     0
144
0.0208333333333333
144
0.0
144
0.0
144
0.0
144
0.0
144
0.0208333333333333
144
0.0
144
0.0
144
0.0
144
0.0
144
1.0
144
0.0
144
0.0
144
0.0
144
0.0
144
1.0
147
0.0208333333333333
147
0.0
147
0.0
147
0.0
147
0.0
147
0.0208333333333333
147
0.0
147
0.0
147
0.0
147
0.0
147
1.0
147
0.0
147
0.0
147
0.0
147
0.0
147
1.0
  0
MATERIAL
  5
11
102
{ACAD_XDICTIONARY
360
12
102
}
102
{ACAD_REACTORS
330
10
102
}
330
10
100
AcDbMaterial
  1
ByLayer
 72
     0
 43
0.0208333333333333
 43
0.0
 43
0.0
 43
0.0
 43
0.0
 43
0.0208333333333333
 43
0.0
 43
0.0
 43
0.0
 43
0.0
 43
1.0
 43
0.0
 43
0.0
 43
0.0
 43
0.0
 43
1.0
 77
     0
 47
0.0208333333333333
 47
0.0
 47
0.0
 47
0.0
 47
0.0
 47
0.0208333333333333
 47
0.0
 47
0.0
 47
0.0
 47
0.0
 47
1.0
 47
0.0
 47
0.0
 47
0.0
 47
0.0
 47
1.0
171
     0
 49
0.0208333333333333
 49
0.0
 49
0.0
 49
0.0
 49
0.0
 49
0.0208333333333333
 49
0.0
 49
0.0
 49
0.0
 49
0.0
 49
1.0
 49
0.0
 49
0.0
 49
0.0
 49
0.0
 49
1.0
175
     0
142
0.0208333333333333
142
0.0
142
0.0
142
0.0
142
0.0
142
0.0208333333333333
142
0.0
142
0.0
142
0.0
142
0.0
142
1.0
142
0.0
142
0.0
142
0.0
142
0.0
142
1.0
179
     0
144
0.0208333333333333
144
0.0
144
0.0
144
0.0
144
0.0
144
0.0208333333333333
144
0.0
144
0.0
144
0.0
144
0.0
144
1.0
144
0.0
144
0.0
144
0.0
144
0.0
144
1.0
147
0.0208333333333333
147
0.0
147
0.0
147
0.0
147
0.0
147
0.0208333333333333
147
0.0
147
0.0
147
0.0
147
0.0
147
1.0
147
0.0
147
0.0
147
0.0
147
0.0
147
1.0
  0
MATERIAL
  5
21
102
{ACAD_XDICTIONARY
360
22
102
}
102
{ACAD_REACTORS
330
10
102
}
330
10
100
AcDbMaterial
  1
Global
 72
     0
 43
0.0208333333333333
 43
0.0
 43
0.0
 43
0.0
 43
0.0
 43
0.0208333333333333
 43
0.0
 43
0.0
 43
0.0
 43
0.0
 43
1.0
 43
0.0
 43
0.0
 43
0.0
 43
0.0
 43
1.0
 77
     0
 47
0.0208333333333333
 47
0.0
 47
0.0
 47
0.0
 47
0.0
 47
0.0208333333333333
 47
0.0
 47
0.0
 47
0.0
 47
0.0
 47
1.0
 47
0.0
 47
0.0
 47
0.0
 47
0.0
 47
1.0
171
     0
 49
0.0208333333333333
 49
0.0
 49
0.0
 49
0.0
 49
0.0
 49
0.0208333333333333
 49
0.0
 49
0.0
 49
0.0
 49
0.0
 49
1.0
 49
0.0
 49
0.0
 49
0.0
 49
0.0
 49
1.0
175
     0
142
0.0208333333333333
142
0.0
142
0.0
142
0.0
142
0.0
142
0.0208333333333333
142
0.0
142
0.0
142
0.0
142
0.0
142
1.0
142
0.0
142
0.0
142
0.0
142
0.0
142
1.0
179
     0
144
0.0208333333333333
144
0.0
144
0.0
144
0.0
144
0.0
144
0.0208333333333333
144
0.0
144
0.0
144
0.0
144
0.0
144
1.0
144
0.0
144
0.0
144
0.0
144
0.0
144
1.0
147
0.0208333333333333
147
0.0
147
0.0
147
0.0
147
0.0
147
0.0208333333333333
147
0.0
147
0.0
147
0.0
147
0.0
147
1.0
147
0.0
147
0.0
147
0.0
147
0.0
147
1.0
  0
MLEADERSTYLE
  5
6F
102
{ACAD_REACTORS
330
6E
102
}
330
6E
100
AcDbMLeaderStyle
170
     2
171
     1
172
     0
 90
        2
 40
0.0
 41
0.0
173
     1
 91
-1056964608
340
63
 92
       -2
290
     1
 42
0.09
291
     1
 43
0.36
  3
Standard
 44
0.18
300

342
5D
174
     1
178
     6
175
     1
176
     0
 93
-1056964608
 45
0.18
292
     0
297
     0
 46
0.18
 94
-1056964608
 47
1.0
 49
1.0
140
1.0
293
     1
141
0.0
294
     1
177
     0
142
1.0
295
     0
296
     0
143
0.125
1001
ACAD_MLEADERVER
1070
     2
  0
MLINESTYLE
  5
68
102
{ACAD_REACTORS
330
67
102
}
330
67
100
AcDbMlineStyle
  2
STANDARD
 70
     0
  3

 62
   256
 51
90.0
 52
90.0
 71
     2
 49
0.5
 62
   256
  6
BYLAYER
 49
-0.5
 62
   256
  6
BYLAYER
  0
ACDBPLACEHOLDER
  5
F
102
{ACAD_REACTORS
330
E
102
}
330
E
  0
SCALE
  5
3B
102
{ACAD_REACTORS
330
3A
102
}
330
3A
100
AcDbScale
 70
     0
300
1:1
140
1.0
141
1.0
290
     1
  0
SCALE
  5
3C
102
{ACAD_REACTORS
330
3A
102
}
330
3A
100
AcDbScale
 70
     0
300
1:2
140
1.0
141
2.0
290
     0
  0
SCALE
  5
3D
102
{ACAD_REACTORS
330
3A
102
}
330
3A
100
AcDbScale
 70
     0
300
1:4
140
1.0
141
4.0
290
     0
  0
SCALE
  5
3E
102
{ACAD_REACTORS
330
3A
102
}
330
3A
100
AcDbScale
 70
     0
300
1:5
140
1.0
141
5.0
290
     0
  0
SCALE
  5
3F
102
{ACAD_REACTORS
330
3A
102
}
330
3A
100
AcDbScale
 70
     0
300
1:8
140
1.0
141
8.0
290
     0
  0
SCALE
  5
40
102
{ACAD_REACTORS
330
3A
102
}
330
3A
100
AcDbScale
 70
     0
300
1:10
140
1.0
141
10.0
290
     0
  0
SCALE
  5
41
102
{ACAD_REACTORS
330
3A
102
}
330
3A
100
AcDbScale
 70
     0
300
1:16
140
1.0
141
16.0
290
     0
  0
SCALE
  5
42
102
{ACAD_REACTORS
330
3A
102
}
330
3A
100
AcDbScale
 70
     0
300
1:20
140
1.0
141
20.0
290
     0
  0
SCALE
  5
43
102
{ACAD_REACTORS
330
3A
102
}
330
3A
100
AcDbScale
 70
     0
300
1:30
140
1.0
141
30.0
290
     0
  0
SCALE
  5
44
102
{ACAD_REACTORS
330
3A
102
}
330
3A
100
AcDbScale
 70
     0
300
1:40
140
1.0
141
40.0
290
     0
  0
SCALE
  5
45
102
{ACAD_REACTORS
330
3A
102
}
330
3A
100
AcDbScale
 70
     0
300
1:50
140
1.0
141
50.0
290
     0
  0
SCALE
  5
46
102
{ACAD_REACTORS
330
3A
102
}
330
3A
100
AcDbScale
 70
     0
300
1:100
140
1.0
141
100.0
290
     0
  0
SCALE
  5
47
102
{ACAD_REACTORS
330
3A
102
}
330
3A
100
AcDbScale
 70
     0
300
2:1
140
2.0
141
1.0
290
     0
  0
SCALE
  5
48
102
{ACAD_REACTORS
330
3A
102
}
330
3A
100
AcDbScale
 70
     0
300
4:1
140
4.0
141
1.0
290
     0
  0
SCALE
  5
49
102
{ACAD_REACTORS
330
3A
102
}
330
3A
100
AcDbScale
 70
     0
300
8:1
140
8.0
141
1.0
290
     0
  0
SCALE
  5
4A
102
{ACAD_REACTORS
330
3A
102
}
330
3A
100
AcDbScale
 70
     0
300
10:1
140
10.0
141
1.0
290
     0
  0
SCALE
  5
4B
102
{ACAD_REACTORS
330
3A
102
}
330
3A
100
AcDbScale
 70
     0
300
100:1
140
100.0
141
1.0
290
     0
  0
SCALE
  5
4C
102
{ACAD_REACTORS
330
3A
102
}
330
3A
100
AcDbScale
 70
     0
300
1/128" = 1'-0"
140
0.0078125
141
12.0
290
     0
  0
SCALE
  5
4D
102
{ACAD_REACTORS
330
3A
102
}
330
3A
100
AcDbScale
 70
     0
300
1/64" = 1'-0"
140
0.015625
141
12.0
290
     0
  0
SCALE
  5
4E
102
{ACAD_REACTORS
330
3A
102
}
330
3A
100
AcDbScale
 70
     0
300
1/32" = 1'-0"
140
0.03125
141
12.0
290
     0
  0
SCALE
  5
4F
102
{ACAD_REACTORS
330
3A
102
}
330
3A
100
AcDbScale
 70
     0
300
1/16" = 1'-0"
140
0.0625
141
12.0
290
     0
  0
SCALE
  5
50
102
{ACAD_REACTORS
330
3A
102
}
330
3A
100
AcDbScale
 70
     0
300
3/32" = 1'-0"
140
0.09375
141
12.0
290
     0
  0
SCALE
  5
51
102
{ACAD_REACTORS
330
3A
102
}
330
3A
100
AcDbScale
 70
     0
300
1/8" = 1'-0"
140
0.125
141
12.0
290
     0
  0
SCALE
  5
52
102
{ACAD_REACTORS
330
3A
102
}
330
3A
100
AcDbScale
 70
     0
300
3/16" = 1'-0"
140
0.1875
141
12.0
290
     0
  0
SCALE
  5
53
102
{ACAD_REACTORS
330
3A
102
}
330
3A
100
AcDbScale
 70
     0
300
1/4" = 1'-0"
140
0.25
141
12.0
290
     0
  0
SCALE
  5
54
102
{ACAD_REACTORS
330
3A
102
}
330
3A
100
AcDbScale
 70
     0
300
3/8" = 1'-0"
140
0.375
141
12.0
290
     0
  0
SCALE
  5
55
102
{ACAD_REACTORS
330
3A
102
}
330
3A
100
AcDbScale
 70
     0
300
1/2" = 1'-0"
140
0.5
141
12.0
290
     0
  0
SCALE
  5
56
102
{ACAD_REACTORS
330
3A
102
}
330
3A
100
AcDbScale
 70
     0
300
3/4" = 1'-0"
140
0.75
141
12.0
290
     0
  0
SCALE
  5
57
102
{ACAD_REACTORS
330
3A
102
}
330
3A
100
AcDbScale
 70
     0
300
1" = 1'-0"
140
1.0
141
12.0
290
     0
  0
SCALE
  5
58
102
{ACAD_REACTORS
330
3A
102
}
330
3A
100
AcDbScale
 70
     0
300
1-1/2" = 1'-0"
140
1.5
141
12.0
290
     0
  0
SCALE
  5
59
102
{ACAD_REACTORS
330
3A
102
}
330
3A
100
AcDbScale
 70
     0
300
3" = 1'-0"
140
3.0
141
12.0
290
     0
  0
SCALE
  5
5A
102
{ACAD_REACTORS
330
3A
102
}
330
3A
100
AcDbScale
 70
     0
300
6" = 1'-0"
140
6.0
141
12.0
290
     0
  0
SCALE
  5
5B
102
{ACAD_REACTORS
330
3A
102
}
330
3A
100
AcDbScale
 70
     0
300
1'-0" = 1'-0"
140
12.0
141
12.0
290
     0
  0
TABLESTYLE
  5
6D
102
{ACAD_XDICTIONARY
360
161
102
}
102
{ACAD_REACTORS
330
6C
102
}
330
6C
100
AcDbTableStyle
  3
Standard
 70
     0
 71
     0
 40
1.5
 41
1.5
280
     0
281
     0
  7
STANDARD
140
4.5
170
     2
 62
     0
 63
     7
283
     0
274
    -2
284
     1
 64
     0
275
    -2
285
     1
 65
     0
276
    -2
286
     1
 66
     0
277
    -2
287
     1
 67
     0
278
    -2
288
     1
 68
     0
279
    -2
289
     1
 69
     0
  7
STANDARD
140
6.0
170
     5
 62
     0
 63
     7
283
     0
274
    -2
284
     1
 64
     0
275
    -2
285
     1
 65
     0
276
    -2
286
     1
 66
     0
277
    -2
287
     1
 67
     0
278
    -2
288
     1
 68
     0
279
    -2
289
     1
 69
     0
  7
STANDARD
140
4.5
170
     5
 62
     0
 63
     7
283
     0
274
    -2
284
     1
 64
     0
275
    -2
285
     1
 65
     0
276
    -2
286
     1
 66
     0
277
    -2
287
     1
 67
     0
278
    -2
288
     1
 68
     0
279
    -2
289
     1
 69
     0
  0
VISUALSTYLE
  5
2F
102
{ACAD_REACTORS
330
29
102
}
330
29
100
AcDbVisualStyle
  2
2dWireframe
 70
     4
 71
     0
 72
     2
 73
     0
 90
        0
 40
-0.6
 41
-30.0
 62
     5
 63
     7
 74
     1
 91
        4
 64
     7
 65
   257
 75
     1
175
     1
 42
1.0
 92
        0
 66
   257
 43
1.0
 76
     1
 77
     6
 78
     2
 67
     7
 79
     5
170
     0
171
     0
290
     0
174
     0
 93
        1
 44
0.0
173
     0
291
     0
 45
0.0
1001
ACAD
1000
AcDbSavedByObjectVersion
1070
     0
1000
AcDbSavedByObjectVersion
1070
     0
1000
AcDbSavedByObjectVersion
1070
     0
1000
AcDbSavedByObjectVersion
1070
     0
1000
AcDbSavedByObjectVersion
1070
     0
1000
AcDbSavedByObjectVersion
1070
     0
  0
VISUALSTYLE
  5
31
102
{ACAD_REACTORS
330
29
102
}
330
29
100
AcDbVisualStyle
  2
3D Hidden
 70
     6
 71
     1
 72
     2
 73
     2
 90
        0
 40
-0.6
 41
-30.0
 62
     5
 63
     7
 74
     2
 91
        2
 64
     7
 65
   257
 75
     2
175
     1
 42
40.0
 92
        0
 66
   257
 43
1.0
 76
     1
 77
     6
 78
     2
 67
     7
 79
     3
170
     0
171
     0
290
     0
174
     0
 93
        1
 44
0.0
173
     0
291
     0
 45
0.0
1001
ACAD
1000
AcDbSavedByObjectVersion
1070
     0
1000
AcDbSavedByObjectVersion
1070
     0
1000
AcDbSavedByObjectVersion
1070
     0
1000
AcDbSavedByObjectVersion
1070
     0
1000
AcDbSavedByObjectVersion
1070
     0
1000
AcDbSavedByObjectVersion
1070
     0
  0
VISUALSTYLE
  5
30
102
{ACAD_REACTORS
330
29
102
}
330
29
100
AcDbVisualStyle
  2
3dWireframe
 70
     5
 71
     0
 72
     2
 73
     0
 90
        0
 40
-0.6
 41
-30.0
 62
     5
 63
     7
 74
     1
 91
        4
 64
     7
 65
   257
 75
     1
175
     1
 42
1.0
 92
        0
 66
   257
 43
1.0
 76
     1
 77
     6
 78
     2
 67
     7
 79
     5
170
     0
171
     0
290
     0
174
     0
 93
        1
 44
0.0
173
     0
291
     0
 45
0.0
1001
ACAD
1000
AcDbSavedByObjectVersion
1070
     0
1000
AcDbSavedByObjectVersion
1070
     0
1000
AcDbSavedByObjectVersion
1070
     0
1000
AcDbSavedByObjectVersion
1070
     0
1000
AcDbSavedByObjectVersion
1070
     0
1000
AcDbSavedByObjectVersion
1070
     0
  0
VISUALSTYLE
  5
2E
102
{ACAD_REACTORS
330
29
102
}
330
29
100
AcDbVisualStyle
  2
Basic
 70
     7
 71
     1
 72
     0
 73
     1
 90
        0
 40
-0.6
 41
-30.0
 62
     5
 63
     7
 74
     0
 91
        4
 64
     7
 65
   257
 75
     1
175
     1
 42
1.0
 92
        8
 66
     7
 43
1.0
 76
     1
 77
     6
 78
     2
 67
     7
 79
     5
170
     0
171
     0
290
     0
174
     0
 93
        1
 44
0.0
173
     0
291
     1
 45
0.0
1001
ACAD
1000
AcDbSavedByObjectVersion
1070
     0
1000
AcDbSavedByObjectVersion
1070
     0
1000
AcDbSavedByObjectVersion
1070
     0
1000
AcDbSavedByObjectVersion
1070
     0
1000
AcDbSavedByObjectVersion
1070
     0
1000
AcDbSavedByObjectVersion
1070
     0
  0
VISUALSTYLE
  5
35
102
{ACAD_REACTORS
330
29
102
}
330
29
100
AcDbVisualStyle
  2
Brighten
 70
    12
 71
     2
 72
     2
 73
     0
 90
        0
 40
-0.6
 41
-30.0
 62
     5
 63
     7
 74
     1
 91
        4
 64
     7
 65
   257
 75
     1
175
     1
 42
1.0
 92
        8
 66
     7
 43
1.0
 76
     1
 77
     6
 78
     2
 67
     7
 79
     5
170
     0
171
     0
290
     0
174
     0
 93
        1
 44
50.0
173
     0
291
     1
 45
0.0
1001
ACAD
1000
AcDbSavedByObjectVersion
1070
     0
1000
AcDbSavedByObjectVersion
1070
     0
1000
AcDbSavedByObjectVersion
1070
     0
1000
AcDbSavedByObjectVersion
1070
     0
1000
AcDbSavedByObjectVersion
1070
     0
1000
AcDbSavedByObjectVersion
1070
     0
  0
VISUALSTYLE
  5
39
102
{ACAD_REACTORS
330
29
102
}
330
29
100
AcDbVisualStyle
  2
ColorChange
 70
    16
 71
     2
 72
     2
 73
     3
 90
        0
 40
-0.6
 41
-30.0
 62
     5
 63
     8
 74
     1
 91
        4
 64
     7
 65
   257
 75
     1
175
     1
 42
1.0
 92
        8
 66
     8
 43
1.0
 76
     1
 77
     6
 78
     2
 67
     7
 79
     5
170
     0
171
     0
290
     0
174
     0
 93
        1
 44
0.0
173
     0
291
     1
 45
0.0
1001
ACAD
1000
AcDbSavedByObjectVersion
1070
     0
1000
AcDbSavedByObjectVersion
1070
     0
1000
AcDbSavedByObjectVersion
1070
     0
1000
AcDbSavedByObjectVersion
1070
     0
1000
AcDbSavedByObjectVersion
1070
     0
1000
AcDbSavedByObjectVersion
1070
     0
  0
VISUALSTYLE
  5
32
102
{ACAD_REACTORS
330
29
102
}
330
29
100
AcDbVisualStyle
  2
Conceptual
 70
     9
 71
     3
 72
     2
 73
     0
 90
        0
 40
-0.6
 41
-30.0
 62
     5
 63
     7
 74
     2
 91
        2
 64
     7
 65
   257
 75
     1
175
     1
 42
40.0
 92
        8
 66
     7
 43
1.0
 76
     1
 77
     6
 78
     2
 67
     7
 79
     3
170
     0
171
     0
290
     0
174
     0
 93
        1
 44
0.0
173
     0
291
     0
 45
0.0
1001
ACAD
1000
AcDbSavedByObjectVersion
1070
     0
1000
AcDbSavedByObjectVersion
1070
     0
1000
AcDbSavedByObjectVersion
1070
     0
1000
AcDbSavedByObjectVersion
1070
     0
1000
AcDbSavedByObjectVersion
1070
     0
1000
AcDbSavedByObjectVersion
1070
     0
  0
VISUALSTYLE
  5
34
102
{ACAD_REACTORS
330
29
102
}
330
29
100
AcDbVisualStyle
  2
Dim
 70
    11
 71
     2
 72
     2
 73
     0
 90
        0
 40
-0.6
 41
-30.0
 62
     5
 63
     7
 74
     1
 91
        4
 64
     7
 65
   257
 75
     1
175
     1
 42
1.0
 92
        8
 66
     7
 43
1.0
 76
     1
 77
     6
 78
     2
 67
     7
 79
     5
170
     0
171
     0
290
     0
174
     0
 93
        1
 44
-50.0
173
     0
291
     1
 45
0.0
1001
ACAD
1000
AcDbSavedByObjectVersion
1070
     0
1000
AcDbSavedByObjectVersion
1070
     0
1000
AcDbSavedByObjectVersion
1070
     0
1000
AcDbSavedByObjectVersion
1070
     0
1000
AcDbSavedByObjectVersion
1070
     0
1000
AcDbSavedByObjectVersion
1070
     0
  0
VISUALSTYLE
  5
38
102
{ACAD_REACTORS
330
29
102
}
330
29
100
AcDbVisualStyle
  2
Facepattern
 70
    15
 71
     2
 72
     2
 73
     0
 90
        0
 40
-0.6
 41
-30.0
 62
     5
 63
     7
 74
     1
 91
        4
 64
     7
 65
   257
 75
     1
175
     1
 42
1.0
 92
        8
 66
     7
 43
1.0
 76
     1
 77
     6
 78
     2
 67
     7
 79
     5
170
     0
171
     0
290
     0
174
     0
 93
        1
 44
0.0
173
     0
291
     1
 45
0.0
1001
ACAD
1000
AcDbSavedByObjectVersion
1070
     0
1000
AcDbSavedByObjectVersion
1070
     0
1000
AcDbSavedByObjectVersion
1070
     0
1000
AcDbSavedByObjectVersion
1070
     0
1000
AcDbSavedByObjectVersion
1070
     0
1000
AcDbSavedByObjectVersion
1070
     0
  0
VISUALSTYLE
  5
2A
102
{ACAD_REACTORS
330
29
102
}
330
29
100
AcDbVisualStyle
  2
Flat
 70
     0
 71
     2
 72
     1
 73
     1
 90
        2
 40
-0.6
 41
30.0
 62
     5
 63
     7
 74
     0
 91
        4
 64
     7
 65
   257
 75
     1
175
     1
 42
1.0
 92
        8
 66
     7
 43
1.0
 76
     1
 77
     6
 78
     2
 67
     7
 79
     5
170
     0
171
     0
290
     0
174
     0
 93
       13
 44
0.0
173
     0
291
     1
 45
0.0
1001
ACAD
1000
AcDbSavedByObjectVersion
1070
     0
1000
AcDbSavedByObjectVersion
1070
     0
1000
AcDbSavedByObjectVersion
1070
     0
1000
AcDbSavedByObjectVersion
1070
     0
1000
AcDbSavedByObjectVersion
1070
     0
1000
AcDbSavedByObjectVersion
1070
     0
  0
VISUALSTYLE
  5
2B
102
{ACAD_REACTORS
330
29
102
}
330
29
100
AcDbVisualStyle
  2
FlatWithEdges
 70
     1
 71
     2
 72
     1
 73
     1
 90
        2
 40
-0.6
 41
30.0
 62
     5
 63
     7
 74
     1
 91
        4
 64
     7
 65
   257
 75
     1
175
     1
 42
1.0
 92
        0
 66
   257
 43
1.0
 76
     1
 77
     6
 78
     2
 67
     7
 79
     5
170
     0
171
     0
290
     0
174
     0
 93
       13
 44
0.0
173
     0
291
     1
 45
0.0
1001
ACAD
1000
AcDbSavedByObjectVersion
1070
     0
1000
AcDbSavedByObjectVersion
1070
     0
1000
AcDbSavedByObjectVersion
1070
     0
1000
AcDbSavedByObjectVersion
1070
     0
1000
AcDbSavedByObjectVersion
1070
     0
1000
AcDbSavedByObjectVersion
1070
     0
  0
VISUALSTYLE
  5
2C
102
{ACAD_REACTORS
330
29
102
}
330
29
100
AcDbVisualStyle
  2
Gouraud
 70
     2
 71
     2
 72
     2
 73
     1
 90
        2
 40
-0.6
 41
30.0
 62
     5
 63
     7
 74
     0
 91
        4
 64
     7
 65
   257
 75
     1
175
     1
 42
1.0
 92
        0
 66
     7
 43
1.0
 76
     1
 77
     6
 78
     2
 67
     7
 79
     5
170
     0
171
     0
290
     0
174
     0
 93
       13
 44
0.0
173
     0
291
     1
 45
0.0
1001
ACAD
1000
AcDbSavedByObjectVersion
1070
     0
1000
AcDbSavedByObjectVersion
1070
     0
1000
AcDbSavedByObjectVersion
1070
     0
1000
AcDbSavedByObjectVersion
1070
     0
1000
AcDbSavedByObjectVersion
1070
     0
1000
AcDbSavedByObjectVersion
1070
     0
  0
VISUALSTYLE
  5
2D
102
{ACAD_REACTORS
330
29
102
}
330
29
100
AcDbVisualStyle
  2
GouraudWithEdges
 70
     3
 71
     2
 72
     2
 73
     1
 90
        2
 40
-0.6
 41
30.0
 62
     5
 63
     7
 74
     1
 91
        4
 64
     7
 65
   257
 75
     1
175
     1
 42
1.0
 92
        0
 66
   257
 43
1.0
 76
     1
 77
     6
 78
     2
 67
     7
 79
     5
170
     0
171
     0
290
     0
174
     0
 93
       13
 44
0.0
173
     0
291
     1
 45
0.0
1001
ACAD
1000
AcDbSavedByObjectVersion
1070
     0
1000
AcDbSavedByObjectVersion
1070
     0
1000
AcDbSavedByObjectVersion
1070
     0
1000
AcDbSavedByObjectVersion
1070
     0
1000
AcDbSavedByObjectVersion
1070
     0
1000
AcDbSavedByObjectVersion
1070
     0
  0
VISUALSTYLE
  5
37
102
{ACAD_REACTORS
330
29
102
}
330
29
100
AcDbVisualStyle
  2
Linepattern
 70
    14
 71
     2
 72
     2
 73
     0
 90
        0
 40
-0.6
 41
-30.0
 62
     5
 63
     7
 74
     1
 91
        4
 64
     7
 65
   257
 75
     7
175
     7
 42
1.0
 92
        8
 66
     7
 43
1.0
 76
     1
 77
     6
 78
     2
 67
     7
 79
     5
170
     0
171
     0
290
     0
174
     0
 93
        1
 44
0.0
173
     0
291
     1
 45
0.0
1001
ACAD
1000
AcDbSavedByObjectVersion
1070
     0
1000
AcDbSavedByObjectVersion
1070
     0
1000
AcDbSavedByObjectVersion
1070
     0
1000
AcDbSavedByObjectVersion
1070
     0
1000
AcDbSavedByObjectVersion
1070
     0
1000
AcDbSavedByObjectVersion
1070
     0
  0
VISUALSTYLE
  5
33
102
{ACAD_REACTORS
330
29
102
}
330
29
100
AcDbVisualStyle
  2
Realistic
 70
     8
 71
     2
 72
     2
 73
     0
 90
        0
 40
-0.6
 41
-30.0
 62
     5
 63
     7
 74
     1
 91
        0
 64
     7
 65
   257
 75
     1
175
     1
 42
1.0
 92
        8
 66
     8
 43
1.0
 76
     1
 77
     6
 78
     2
 67
     7
 79
     5
170
     0
171
     0
290
     0
174
     0
 93
       13
 44
0.0
173
     0
291
     0
 45
0.0
1001
ACAD
1000
AcDbSavedByObjectVersion
1070
     0
1000
AcDbSavedByObjectVersion
1070
     0
1000
AcDbSavedByObjectVersion
1070
     0
1000
AcDbSavedByObjectVersion
1070
     0
1000
AcDbSavedByObjectVersion
1070
     0
1000
AcDbSavedByObjectVersion
1070
     0
  0
VISUALSTYLE
  5
36
102
{ACAD_REACTORS
330
29
102
}
330
29
100
AcDbVisualStyle
  2
Thicken
 70
    13
 71
     2
 72
     2
 73
     0
 90
        0
 40
-0.6
 41
-30.0
 62
     5
 63
     7
 74
     1
 91
        4
 64
     7
 65
   257
 75
     1
175
     1
 42
1.0
 92
       12
 66
     7
 43
1.0
 76
     1
 77
     6
 78
     2
 67
     7
 79
     5
170
     0
171
     0
290
     0
174
     0
 93
        1
 44
0.0
173
     0
291
     1
 45
0.0
1001
ACAD
1000
AcDbSavedByObjectVersion
1070
     0
1000
AcDbSavedByObjectVersion
1070
     0
1000
AcDbSavedByObjectVersion
1070
     0
1000
AcDbSavedByObjectVersion
1070
     0
1000
AcDbSavedByObjectVersion
1070
     0
1000
AcDbSavedByObjectVersion
1070
     0
  0
DICTIONARYVAR
  5
167
102
{ACAD_REACTORS
330
164
102
}
330
164
100
DictionaryVariables
280
     0
  1
1:1
  0
DICTIONARYVAR
  5
166
102
{ACAD_REACTORS
330
164
102
}
330
164
100
DictionaryVariables
280
     0
  1
STANDARD
  0
DICTIONARYVAR
  5
165
102
{ACAD_REACTORS
330
164
102
}
330
164
100
DictionaryVariables
280
     0
  1
STANDARD
  0
DICTIONARYVAR
  5
240
102
{ACAD_REACTORS
330
164
102
}
330
164
100
DictionaryVariables
280
     0
  1
2
  0
DICTIONARYVAR
  5
23F
102
{ACAD_REACTORS
330
164
102
}
330
164
100
DictionaryVariables
280
     0
  1
1
  0
DICTIONARYVAR
  5
23E
102
{ACAD_REACTORS
330
164
102
}
330
164
100
DictionaryVariables
280
     0
  1
0
  0
DICTIONARYVAR
  5
23C
102
{ACAD_REACTORS
330
164
102
}
330
164
100
DictionaryVariables
280
     0
  1
2
  0
DICTIONARYVAR
  5
23B
102
{ACAD_REACTORS
330
164
102
}
330
164
100
DictionaryVariables
280
     0
  1
1
  0
DICTIONARYVAR
  5
23D
102
{ACAD_REACTORS
330
164
102
}
330
164
100
DictionaryVariables
280
     0
  1
127
  0
DICTIONARY
  5
DE
102
{ACAD_REACTORS
330
DC
102
}
330
DC
100
AcDbDictionary
281
     1
  0
XRECORD
  5
F6
102
{ACAD_REACTORS
330
DC
102
}
330
DC
100
AcDbXrecord
280
     1
 90
-1023410169
  0
XRECORD
  5
10D3
102
{ACAD_REACTORS
330
10D2
102
}
330
10D2
100
AcDbXrecord
280
     1
330
11B0
330
EC8
330
F44
330
F45
330
CA9
330
CAA
330
EC2
  0
DICTIONARY
  5
14A8
330
78
100
AcDbDictionary
280
     1
281
     1
  3
ACAD_XREC_ROUNDTRIP
360
14A9
  0
DICTIONARY
  5
14A6
330
74
100
AcDbDictionary
280
     1
281
     1
  3
ACAD_XREC_ROUNDTRIP
360
14A7
  0
DICTIONARY
  5
14AA
330
7C
100
AcDbDictionary
280
     1
281
     1
  3
ACAD_XREC_ROUNDTRIP
360
14AB
  0
DICTIONARY
  5
1A
330
19
100
AcDbDictionary
280
     1
281
     1
  3
ACAD_XREC_ROUNDTRIP
360
246
  3
BUMPTILE
360
1C
  3
DIFFUSETILE
360
1B
  3
OPACITYTILE
360
1F
  3
REFLECTIONTILE
360
1E
  3
REFRACTIONTILE
360
20
  3
SPECULARTILE
360
1D
  0
DICTIONARY
  5
12
330
11
100
AcDbDictionary
280
     1
281
     1
  3
ACAD_XREC_ROUNDTRIP
360
245
  3
BUMPTILE
360
14
  3
DIFFUSETILE
360
13
  3
OPACITYTILE
360
17
  3
REFLECTIONTILE
360
16
  3
REFRACTIONTILE
360
18
  3
SPECULARTILE
360
15
  0
DICTIONARY
  5
22
330
21
100
AcDbDictionary
280
     1
281
     1
  3
ACAD_XREC_ROUNDTRIP
360
247
  3
BUMPTILE
360
24
  3
DIFFUSETILE
360
23
  3
OPACITYTILE
360
27
  3
REFLECTIONTILE
360
26
  3
REFRACTIONTILE
360
28
  3
SPECULARTILE
360
25
  0
DICTIONARY
  5
161
330
6D
100
AcDbDictionary
280
     1
281
     1
  3
ACAD_ROUNDTRIP_2008_TABLESTYLE_CELLSTYLEMAP
360
14A0
  3
ACAD_XREC_ROUNDTRIP
360
14A5
  0
XRECORD
  5
14A9
102
{ACAD_REACTORS
330
14A8
102
}
330
14A8
100
AcDbXrecord
280
     1
102
SHADEPLOT
 70
     0
102
SHADEPLOTRESLEVEL
 70
     2
102
SHADEPLOTCUSTOMDPI
 70
   300
  0
XRECORD
  5
14A7
102
{ACAD_REACTORS
330
14A6
102
}
330
14A6
100
AcDbXrecord
280
     1
102
SHADEPLOT
 70
     0
102
SHADEPLOTRESLEVEL
 70
     2
102
SHADEPLOTCUSTOMDPI
 70
   300
  0
XRECORD
  5
14AB
102
{ACAD_REACTORS
330
14AA
102
}
330
14AA
100
AcDbXrecord
280
     1
102
SHADEPLOT
 70
     0
102
SHADEPLOTRESLEVEL
 70
     2
102
SHADEPLOTCUSTOMDPI
 70
   300
  0
XRECORD
  5
246
102
{ACAD_REACTORS
330
1A
102
}
330
1A
100
AcDbXrecord
280
     1
102
MATERIAL
148
0.0
149
0.0
149
0.0
 93
        0
 94
      127
282
     0
 72
     0
 77
     0
171
     0
175
     0
179
     0
273
     0
  0
XRECORD
  5
1C
102
{ACAD_REACTORS
330
1A
102
}
330
1A
100
AcDbXrecord
280
     1
270
     1
271
     1
  0
XRECORD
  5
1B
102
{ACAD_REACTORS
330
1A
102
}
330
1A
100
AcDbXrecord
280
     1
270
     1
271
     1
  0
XRECORD
  5
1F
102
{ACAD_REACTORS
330
1A
102
}
330
1A
100
AcDbXrecord
280
     1
270
     1
271
     1
  0
XRECORD
  5
1E
102
{ACAD_REACTORS
330
1A
102
}
330
1A
100
AcDbXrecord
280
     1
270
     1
271
     1
  0
XRECORD
  5
20
102
{ACAD_REACTORS
330
1A
102
}
330
1A
100
AcDbXrecord
280
     1
270
     1
271
     1
  0
XRECORD
  5
1D
102
{ACAD_REACTORS
330
1A
102
}
330
1A
100
AcDbXrecord
280
     1
270
     1
271
     1
  0
XRECORD
  5
245
102
{ACAD_REACTORS
330
12
102
}
330
12
100
AcDbXrecord
280
     1
102
MATERIAL
148
0.0
149
0.0
149
0.0
 93
        0
 94
      127
282
     0
 72
     0
 77
     0
171
     0
175
     0
179
     0
273
     0
  0
XRECORD
  5
14
102
{ACAD_REACTORS
330
12
102
}
330
12
100
AcDbXrecord
280
     1
270
     1
271
     1
  0
XRECORD
  5
13
102
{ACAD_REACTORS
330
12
102
}
330
12
100
AcDbXrecord
280
     1
270
     1
271
     1
  0
XRECORD
  5
17
102
{ACAD_REACTORS
330
12
102
}
330
12
100
AcDbXrecord
280
     1
270
     1
271
     1
  0
XRECORD
  5
16
102
{ACAD_REACTORS
330
12
102
}
330
12
100
AcDbXrecord
280
     1
270
     1
271
     1
  0
XRECORD
  5
18
102
{ACAD_REACTORS
330
12
102
}
330
12
100
AcDbXrecord
280
     1
270
     1
271
     1
  0
XRECORD
  5
15
102
{ACAD_REACTORS
330
12
102
}
330
12
100
AcDbXrecord
280
     1
270
     1
271
     1
  0
XRECORD
  5
247
102
{ACAD_REACTORS
330
22
102
}
330
22
100
AcDbXrecord
280
     1
102
MATERIAL
148
0.0
149
0.0
149
0.0
 93
        0
 94
      127
282
     0
 72
     0
 77
     0
171
     0
175
     0
179
     0
273
     0
  0
XRECORD
  5
24
102
{ACAD_REACTORS
330
22
102
}
330
22
100
AcDbXrecord
280
     1
270
     1
271
     1
  0
XRECORD
  5
23
102
{ACAD_REACTORS
330
22
102
}
330
22
100
AcDbXrecord
280
     1
270
     1
271
     1
  0
XRECORD
  5
27
102
{ACAD_REACTORS
330
22
102
}
330
22
100
AcDbXrecord
280
     1
270
     1
271
     1
  0
XRECORD
  5
26
102
{ACAD_REACTORS
330
22
102
}
330
22
100
AcDbXrecord
280
     1
270
     1
271
     1
  0
XRECORD
  5
28
102
{ACAD_REACTORS
330
22
102
}
330
22
100
AcDbXrecord
280
     1
270
     1
271
     1
  0
XRECORD
  5
25
102
{ACAD_REACTORS
330
22
102
}
330
22
100
AcDbXrecord
280
     1
270
     1
271
     1
  0
CELLSTYLEMAP
  5
14A0
102
{ACAD_REACTORS
330
161
102
}
330
161
100
AcDbCellStyleMap
 90
        3
300
CELLSTYLE
  1
TABLEFORMAT_BEGIN
 90
        5
170
     1
 91
        0
 92
    32768
 62
   257
 93
        1
300
CONTENTFORMAT
  1
CONTENTFORMAT_BEGIN
 90
        0
 91
        0
 92
      512
 93
        0
300

 40
0.0
140
1.0
 94
        5
 62
     0
340
5D
144
6.0
309
CONTENTFORMAT_END
171
     1
301
MARGIN
  1
CELLMARGIN_BEGIN
 40
1.5
 40
1.5
 40
1.5
 40
1.5
 40
0.18
 40
0.18
309
CELLMARGIN_END
 94
        6
 95
        1
302
GRIDFORMAT
  1
GRIDFORMAT_BEGIN
 90
        0
 91
        1
 62
     0
 92
       -2
340
0
 93
        0
 40
1.125
309
GRIDFORMAT_END
 95
        2
302
GRIDFORMAT
  1
GRIDFORMAT_BEGIN
 90
        0
 91
        1
 62
     0
 92
       -2
340
0
 93
        0
 40
1.125
309
GRIDFORMAT_END
 95
        4
302
GRIDFORMAT
  1
GRIDFORMAT_BEGIN
 90
        0
 91
        1
 62
     0
 92
       -2
340
0
 93
        0
 40
1.125
309
GRIDFORMAT_END
 95
        8
302
GRIDFORMAT
  1
GRIDFORMAT_BEGIN
 90
        0
 91
        1
 62
     0
 92
       -2
340
0
 93
        0
 40
1.125
309
GRIDFORMAT_END
 95
       16
302
GRIDFORMAT
  1
GRIDFORMAT_BEGIN
 90
        0
 91
        1
 62
     0
 92
       -2
340
0
 93
        0
 40
1.125
309
GRIDFORMAT_END
 95
       32
302
GRIDFORMAT
  1
GRIDFORMAT_BEGIN
 90
        0
 91
        1
 62
     0
 92
       -2
340
0
 93
        0
 40
1.125
309
GRIDFORMAT_END
309
TABLEFORMAT_END
  1
CELLSTYLE_BEGIN
 90
        1
 91
        1
300
_TITLE
309
CELLSTYLE_END
300
CELLSTYLE
  1
TABLEFORMAT_BEGIN
 90
        5
170
     1
 91
        0
 92
        0
 62
   257
 93
        1
300
CONTENTFORMAT
  1
CONTENTFORMAT_BEGIN
 90
        0
 91
        0
 92
      512
 93
        0
300

 40
0.0
140
1.0
 94
        5
 62
     0
340
5D
144
4.5
309
CONTENTFORMAT_END
171
     1
301
MARGIN
  1
CELLMARGIN_BEGIN
 40
1.5
 40
1.5
 40
1.5
 40
1.5
 40
0.18
 40
0.18
309
CELLMARGIN_END
 94
        6
 95
        1
302
GRIDFORMAT
  1
GRIDFORMAT_BEGIN
 90
        0
 91
        1
 62
     0
 92
       -2
340
0
 93
        0
 40
1.125
309
GRIDFORMAT_END
 95
        2
302
GRIDFORMAT
  1
GRIDFORMAT_BEGIN
 90
        0
 91
        1
 62
     0
 92
       -2
340
0
 93
        0
 40
1.125
309
GRIDFORMAT_END
 95
        4
302
GRIDFORMAT
  1
GRIDFORMAT_BEGIN
 90
        0
 91
        1
 62
     0
 92
       -2
340
0
 93
        0
 40
1.125
309
GRIDFORMAT_END
 95
        8
302
GRIDFORMAT
  1
GRIDFORMAT_BEGIN
 90
        0
 91
        1
 62
     0
 92
       -2
340
0
 93
        0
 40
1.125
309
GRIDFORMAT_END
 95
       16
302
GRIDFORMAT
  1
GRIDFORMAT_BEGIN
 90
        0
 91
        1
 62
     0
 92
       -2
340
0
 93
        0
 40
1.125
309
GRIDFORMAT_END
 95
       32
302
GRIDFORMAT
  1
GRIDFORMAT_BEGIN
 90
        0
 91
        1
 62
     0
 92
       -2
340
0
 93
        0
 40
1.125
309
GRIDFORMAT_END
309
TABLEFORMAT_END
  1
CELLSTYLE_BEGIN
 90
        2
 91
        1
300
_HEADER
309
CELLSTYLE_END
300
CELLSTYLE
  1
TABLEFORMAT_BEGIN
 90
        5
170
     1
 91
        0
 92
        0
 62
   257
 93
        1
300
CONTENTFORMAT
  1
CONTENTFORMAT_BEGIN
 90
        0
 91
        0
 92
      512
 93
        0
300

 40
0.0
140
1.0
 94
        2
 62
     0
340
5D
144
4.5
309
CONTENTFORMAT_END
171
     1
301
MARGIN
  1
CELLMARGIN_BEGIN
 40
1.5
 40
1.5
 40
1.5
 40
1.5
 40
0.18
 40
0.18
309
CELLMARGIN_END
 94
        6
 95
        1
302
GRIDFORMAT
  1
GRIDFORMAT_BEGIN
 90
        0
 91
        1
 62
     0
 92
       -2
340
0
 93
        0
 40
1.125
309
GRIDFORMAT_END
 95
        2
302
GRIDFORMAT
  1
GRIDFORMAT_BEGIN
 90
        0
 91
        1
 62
     0
 92
       -2
340
0
 93
        0
 40
1.125
309
GRIDFORMAT_END
 95
        4
302
GRIDFORMAT
  1
GRIDFORMAT_BEGIN
 90
        0
 91
        1
 62
     0
 92
       -2
340
0
 93
        0
 40
1.125
309
GRIDFORMAT_END
 95
        8
302
GRIDFORMAT
  1
GRIDFORMAT_BEGIN
 90
        0
 91
        1
 62
     0
 92
       -2
340
0
 93
        0
 40
1.125
309
GRIDFORMAT_END
 95
       16
302
GRIDFORMAT
  1
GRIDFORMAT_BEGIN
 90
        0
 91
        1
 62
     0
 92
       -2
340
0
 93
        0
 40
1.125
309
GRIDFORMAT_END
 95
       32
302
GRIDFORMAT
  1
GRIDFORMAT_BEGIN
 90
        0
 91
        1
 62
     0
 92
       -2
340
0
 93
        0
 40
1.125
309
GRIDFORMAT_END
309
TABLEFORMAT_END
  1
CELLSTYLE_BEGIN
 90
        3
 91
        2
300
_DATA
309
CELLSTYLE_END
  0
XRECORD
  5
14A5
102
{ACAD_REACTORS
330
161
102
}
330
161
100
AcDbXrecord
280
     1
102
ACAD_ROUNDTRIP_PRE2007_TABLESTYLE
 90
      512
 91
        0
  1

 92
      512
 93
        0
  2

 94
      512
 95
        0
  3

  0
ENDSEC
  0
EOF
